Tags
Language
Tags

Paolo Fresu - Birth Of The Cool (2012)

Posted By: Designol
Paolo Fresu - Birth Of The Cool (2012)

Paolo Fresu - Birth Of The Cool (2012)
EAC | FLAC | Tracks (Cue&Log) ~ 322 Mb | Mp3 (CBR320) ~ 112 Mb | Scans included
Jazz, Cool, Mainstream | Label: Musica Jazz | # MJCD 1249 | Time: 00:48:31

A prolific, award-winning Italian trumpet and flügelhorn player known for his warm tone and lyrical style.

At the beginning of the '80s, trumpeter Paolo Fresu attended the Siena Summer Jazz Seminars and amazed Enrico Rava with his creativity, talent, and technique. Over the next ten years, he became a major player on the Italian scene, first with his own quintet (which is still going), then branching out in a variety of projects. After finishing his Conservatory studies, he became a teacher at the same Jazz Seminars in Siena; he lives half the year in Paris, from where he coordinates the major Time in Jazz Festival he created in his hometown. His discography numbers an astonishing 130 titles since he's been invited to play all over Europe in a variety of projects, from contemporary music to straight jazz, from dance to jazz/folk fusions.

His style is based on the classic Miles Davis sound of the '50s, and the very lineup of his quintet is reminiscent of Davis' group, with excellent tenor Tino Tracanna. They mostly play originals and the music flows fresh and engaging, never a mere imitation. Live in Montpellier (1990) and Ossi di Seppia featuring Gianluigi Trovesi, both on Splasc(h), are good representations of the different facets of the group; Shades of Chet is an affectionate tribute with Rava on Label Bleu (2001) featuring new piano talent Stefano Bollani. Sonos 'E Memoria (ACT 2001) and Metamorfosi (BMG 1999) are respectively inspired by Sardinian musical heritage and European classical Richard Strauss, their success being proof of his commitment to an open musical aesthetic. In addition to Fresu's quintet, he played in an unusual duo with bassist Furio di Castri, this became the PAF trio with the addition of Antonello Salis on piano and accordion, and another trio with English pianist John Taylor (Contos, Egea 1995), while his European quartet includes French-Vietnamese guitar player Nguyên Lê (Tales From Viêtnam, ACT, 1995).

Francesco Martinelli, Allmusic.com

Paolo Fresu - Birth Of The Cool (2012)



Paolo Fresu - trumpet
Salvatore Moraccini – trombone
Gavino Mele – horn
Tomaso Azara – tuba
Massimo Carboni - contralto saxophone
Rossano Emili – baritone saxophone
Giovanni Agostino Frassetto – piano
Paolo Spanu – bass
Gianni Filindeu – drums
David Linx - voice on one track

Tracklist:

01. Godchild (3:58)
02. Jeru (5:00)
03. Move (3:32)
04. Darn That Dream (4:56)
05. Boplicity (4:14)
06. Budo (3:47)
07. Venus de Milo (4:28)
08. Moon Dreams (3:46)
09. Israel (3:17)
10. Deception (3:10)
11. Rouge (4:47)
12. Rocker (2:52)
13. Birth Of The Cool Theme (0:43)


Exact Audio Copy V1.0 beta 3 from 29. August 2011

EAC extraction logfile from 6. November 2013, 19:03

Paolo Fresu / Birth Of The Cool

Used drive : Optiarc DVD RW AD-7260S Adapter: 2 ID: 0

Read mode : Secure
Utilize accurate stream : Yes
Defeat audio cache : Yes
Make use of C2 pointers : No

Read offset correction : 48
Overread into Lead-In and Lead-Out : No
Fill up missing offset samples with silence : Yes
Delete leading and trailing silent blocks : No
Null samples used in CRC calculations : Yes
Used interface : Native Win32 interface for Win NT & 2000
Gap handling : Appended to previous track

Used output format : User Defined Encoder
Selected bitrate : 1024 kBit/s
Quality : High
Add ID3 tag : No
Command line compressor : C:\Program Files (x86)\Exact Audio Copy\Flac\flac.exe
Additional command line options : -8 -V -T "ARTIST=%artist%" -T "TITLE=%title%" -T "ALBUM=%albumtitle%" -T "DATE=%year%" -T "TRACKNUMBER=%tracknr%" -T "GENRE=%genre%" -T "PERFORMER=%albuminterpret%" -T "COMPOSER=%composer%" %haslyrics%–tag-from-file=LYRICS="%lyricsfile%"%haslyrics% -T "ALBUMARTIST=%albumartist%" -T "DISCNUMBER=%cdnumber%" -T "TOTALDISCS=%totalcds%" -T "TOTALTRACKS=%numtracks%" -T "COMMENT=%comment%" %source% -o %dest%


TOC of the extracted CD

Track | Start | Length | Start sector | End sector
––––––––––––––––––––––––––––-
1 | 0:00.00 | 3:57.45 | 0 | 17819
2 | 3:57.45 | 4:59.58 | 17820 | 40302
3 | 8:57.28 | 3:31.40 | 40303 | 56167
4 | 12:28.68 | 4:56.06 | 56168 | 78373
5 | 17:24.74 | 4:14.32 | 78374 | 97455
6 | 21:39.31 | 3:47.25 | 97456 | 114505
7 | 25:26.56 | 4:27.62 | 114506 | 134592
8 | 29:54.43 | 3:46.01 | 134593 | 151543
9 | 33:40.44 | 3:17.32 | 151544 | 166350
10 | 36:58.01 | 3:10.21 | 166351 | 180621
11 | 40:08.22 | 4:46.51 | 180622 | 202122
12 | 44:54.73 | 2:52.19 | 202123 | 215041
13 | 47:47.17 | 0:43.36 | 215042 | 218302


Track 1

Filename F:\Muzika\upload what\Paolo Fresu Birth Of The Cool (2012) FLAC\01 Godchild.wav

Pre-gap length 0:00:02.00

Peak level 100.0 %
Extraction speed 2.3 X
Track quality 100.0 %
Test CRC BA9A4F89
Copy CRC BA9A4F89
Accurately ripped (confidence 2) [7367D747] (AR v2)
Copy OK

Track 2

Filename F:\Muzika\upload what\Paolo Fresu Birth Of The Cool (2012) FLAC\02 Jeru.wav

Pre-gap length 0:00:02.00

Peak level 100.0 %
Extraction speed 2.4 X
Track quality 99.9 %
Test CRC 6526109F
Copy CRC 6526109F
Accurately ripped (confidence 2) [F9AF1933] (AR v2)
Copy OK

Track 3

Filename F:\Muzika\upload what\Paolo Fresu Birth Of The Cool (2012) FLAC\03 Move.wav

Pre-gap length 0:00:02.00

Peak level 100.0 %
Extraction speed 2.8 X
Track quality 100.0 %
Test CRC C9F5F849
Copy CRC C9F5F849
Accurately ripped (confidence 2) [5DDECFD6] (AR v2)
Copy OK

Track 4

Filename F:\Muzika\upload what\Paolo Fresu Birth Of The Cool (2012) FLAC\04 Darn That Dream.wav

Pre-gap length 0:00:02.00

Peak level 100.0 %
Extraction speed 3.1 X
Track quality 100.0 %
Test CRC 6919254B
Copy CRC 6919254B
Accurately ripped (confidence 2) [EA205640] (AR v2)
Copy OK

Track 5

Filename F:\Muzika\upload what\Paolo Fresu Birth Of The Cool (2012) FLAC\05 Boplicity.wav

Pre-gap length 0:00:02.00

Peak level 100.0 %
Extraction speed 3.3 X
Track quality 100.0 %
Test CRC E98EEF97
Copy CRC E98EEF97
Accurately ripped (confidence 2) [05D42686] (AR v2)
Copy OK

Track 6

Filename F:\Muzika\upload what\Paolo Fresu Birth Of The Cool (2012) FLAC\06 Budo.wav

Pre-gap length 0:00:02.00

Peak level 100.0 %
Extraction speed 3.4 X
Track quality 100.0 %
Test CRC 89E5BFAB
Copy CRC 89E5BFAB
Accurately ripped (confidence 2) [6602554D] (AR v2)
Copy OK

Track 7

Filename F:\Muzika\upload what\Paolo Fresu Birth Of The Cool (2012) FLAC\07 Venus de Milo.wav

Pre-gap length 0:00:02.00

Peak level 100.0 %
Extraction speed 3.7 X
Track quality 100.0 %
Test CRC 6DB305E2
Copy CRC 6DB305E2
Accurately ripped (confidence 2) [C8CED74D] (AR v2)
Copy OK

Track 8

Filename F:\Muzika\upload what\Paolo Fresu Birth Of The Cool (2012) FLAC\08 Moon Dreams.wav

Pre-gap length 0:00:02.00

Peak level 100.0 %
Extraction speed 3.8 X
Track quality 100.0 %
Test CRC 5232CFB5
Copy CRC 5232CFB5
Accurately ripped (confidence 2) [A053404E] (AR v2)
Copy OK

Track 9

Filename F:\Muzika\upload what\Paolo Fresu Birth Of The Cool (2012) FLAC\09 Israel.wav

Pre-gap length 0:00:02.00

Peak level 100.0 %
Extraction speed 3.8 X
Track quality 100.0 %
Test CRC 98DDBB46
Copy CRC 98DDBB46
Accurately ripped (confidence 2) [D2190912] (AR v2)
Copy OK

Track 10

Filename F:\Muzika\upload what\Paolo Fresu Birth Of The Cool (2012) FLAC\10 Deception.wav

Pre-gap length 0:00:02.00

Peak level 100.0 %
Extraction speed 4.0 X
Track quality 100.0 %
Test CRC 143F3D14
Copy CRC 143F3D14
Accurately ripped (confidence 2) [626BB3ED] (AR v2)
Copy OK

Track 11

Filename F:\Muzika\upload what\Paolo Fresu Birth Of The Cool (2012) FLAC\11 Rouge.wav

Pre-gap length 0:00:02.00

Peak level 100.0 %
Extraction speed 4.3 X
Track quality 100.0 %
Test CRC 5E31679F
Copy CRC 5E31679F
Accurately ripped (confidence 2) [0147E80B] (AR v2)
Copy OK

Track 12

Filename F:\Muzika\upload what\Paolo Fresu Birth Of The Cool (2012) FLAC\12 Rocker.wav

Pre-gap length 0:00:02.00

Peak level 100.0 %
Extraction speed 4.1 X
Track quality 100.0 %
Test CRC 28670DDE
Copy CRC 28670DDE
Accurately ripped (confidence 2) [838F1DCC] (AR v2)
Copy OK

Track 13

Filename F:\Muzika\upload what\Paolo Fresu Birth Of The Cool (2012) FLAC\13 Birth Of The Cool Theme.wav

Pre-gap length 0:00:02.00

Peak level 100.0 %
Extraction speed 1.9 X
Track quality 99.7 %
Test CRC 36D61CD5
Copy CRC 36D61CD5
Accurately ripped (confidence 2) [E4AEEEB0] (AR v2)
Copy OK


All tracks accurately ripped

No errors occurred

End of status report

–– CUETools DB Plugin V2.1.4

[CTDB TOCID: bXuKLTyaG0q8mL23ZfW4yQUUUf8-] found
Submit result: bXuKLTyaG0q8mL23ZfW4yQUUUf8- has been confirmed
Track | CTDB Status
1 | (1/1) Accurately ripped
2 | (1/1) Accurately ripped
3 | (1/1) Accurately ripped
4 | (1/1) Accurately ripped
5 | (1/1) Accurately ripped
6 | (1/1) Accurately ripped
7 | (1/1) Accurately ripped
8 | (1/1) Accurately ripped
9 | (1/1) Accurately ripped
10 | (1/1) Accurately ripped
11 | (1/1) Accurately ripped
12 | (1/1) Accurately ripped
13 | (1/1) Accurately ripped


==== Log checksum 64477A916142CB5BDA4A69E5344632B2F4D790ED5059529290C99984D1A26E46 ====

[CUETools log; Date: 06.01.2019 14:34:38; Version: 2.1.4]
[CTDB TOCID: bXuKLTyaG0q8mL23ZfW4yQUUUf8-] found.
Track | CTDB Status
1 | (4/4) Accurately ripped
2 | (4/4) Accurately ripped
3 | (4/4) Accurately ripped
4 | (4/4) Accurately ripped
5 | (4/4) Accurately ripped
6 | (4/4) Accurately ripped
7 | (4/4) Accurately ripped
8 | (4/4) Accurately ripped
9 | (4/4) Accurately ripped
10 | (4/4) Accurately ripped
11 | (4/4) Accurately ripped
12 | (4/4) Accurately ripped
13 | (4/4) Accurately ripped
[AccurateRip ID: 001987f5-00fc310a-a70b5e0d] found.
Track [ CRC | V2 ] Status
01 [27d4d959|7367d747] (0+4/4) Accurately ripped
02 [cf399ef2|f9af1933] (0+4/4) Accurately ripped
03 [0257d5c0|5ddecfd6] (0+4/4) Accurately ripped
04 [b1eec4ce|ea205640] (0+4/4) Accurately ripped
05 [43f68be1|05d42686] (0+4/4) Accurately ripped
06 [e6ee4ca7|6602554d] (0+4/4) Accurately ripped
07 [620b21f3|c8ced74d] (0+4/4) Accurately ripped
08 [6d0767d1|a053404e] (0+4/4) Accurately ripped
09 [341013b8|d2190912] (0+4/4) Accurately ripped
10 [d4371bdd|626bb3ed] (0+4/4) Accurately ripped
11 [882942db|0147e80b] (0+4/4) Accurately ripped
12 [2a076ba0|838f1dcc] (0+4/4) Accurately ripped
13 [a7666ca6|e4aeeeb0] (0+4/4) Accurately ripped

Track Peak [ CRC32 ] [W/O NULL] [ LOG ]
– 100,0 [57B82E8E] [A730FCE8]
01 100,0 [BA9A4F89] [A875A5EE] CRC32
02 100,0 [6526109F] [60B2838E] CRC32
03 100,0 [C9F5F849] [FC9C6857] CRC32
04 100,0 [6919254B] [377C0496] CRC32
05 100,0 [E98EEF97] [B0992ECC] CRC32
06 100,0 [89E5BFAB] [3EE68D3D] CRC32
07 100,0 [6DB305E2] [2D3D1C16] CRC32
08 100,0 [5232CFB5] [4168C101] CRC32
09 100,0 [98DDBB46] [A517B0AF] CRC32
10 100,0 [143F3D14] [C5905597] CRC32
11 100,0 [5E31679F] [A7FD66CD] CRC32
12 100,0 [28670DDE] [6AA688B3] CRC32
13 100,0 [36D61CD5] [6BD458FE] CRC32

foobar2000 1.2 / Dynamic Range Meter 1.1.1
log date: 2019-01-06 14:29:15

––––––––––––––––––––––––––––––––––––––––
Analyzed: Paolo Fresu / Birth Of The Cool
––––––––––––––––––––––––––––––––––––––––

DR Peak RMS Duration Track
––––––––––––––––––––––––––––––––––––––––
DR9 0.00 dB -11.16 dB 3:58 01-Godchild
DR8 0.00 dB -9.73 dB 5:00 02-Jeru
DR7 0.00 dB -8.77 dB 3:32 03-Move
DR8 0.00 dB -10.32 dB 4:56 04-Darn That Dream
DR8 0.00 dB -9.86 dB 4:14 05-Boplicity
DR9 0.00 dB -11.28 dB 3:47 06-Budo
DR8 0.00 dB -10.22 dB 4:28 07-Venus de Milo
DR7 0.00 dB -9.51 dB 3:46 08-Moon Dreams
DR8 0.00 dB -9.25 dB 3:17 09-Israel
DR9 0.00 dB -10.26 dB 3:10 10-Deception
DR8 0.00 dB -9.41 dB 4:47 11-Rouge
DR8 0.00 dB -8.83 dB 2:52 12-Rocker
DR9 0.00 dB -11.17 dB 0:43 13-Birth Of The Cool Theme
––––––––––––––––––––––––––––––––––––––––

Number of tracks: 13
Official DR value: DR8

Samplerate: 44100 Hz
Channels: 2
Bits per sample: 16
Bitrate: 868 kbps
Codec: FLAC
================================================================================

Paolo Fresu - Birth Of The Cool (2012)

Paolo Fresu - Birth Of The Cool (2012)

All thanks to original releaser

More interesting music in My Blog