Tags
Language
Tags

Paolo Fresu - Scores! (2002) {CamJazz}

Posted By: tiburon
Paolo Fresu - Scores! (2002) {CamJazz}

Paolo Fresu - Scores! (2002) {CamJazz}
EAC 0.99pb4 | FLAC tracks level 8 | Cue+Log+M3U | Full Scans 300dpi | 280MB + 5% Recovery
MP3 CBR 320 Kbps | 168MB + 5% Recovery
Genre: Jazz, Fusion, Soundtrack

Se è vero che la musica di questo CD è nata per accompagnare due film (Il più crudele dei giorni e L'isola), è altrettanto vero che Paolo Fresu non 'subisce' tale condizione, assemblando i brani in maniera tale da dar vita ad un lavoro unitario, dalla forte identità e tale da sintetizzare varie fasi della sua ormai già lunga carriera.
Track List
01. …Del Viaggio
02. Frame
03. Requiem (Take1)
04. Moods
05. Tema Aperto (Take1)
06. Canzone (Piano)
07. Canzone (Strings)
08. Notti A Mogadiscio
09. Frame
10. Tema Etereo
11. Ossi
12. Tema Barocco
13. Lavoce Del Mare
14. Tema Della Sommossa
15. Oudiadhafer
16. Tema Della Rivolta
17. Duo Del Deserto
18. Tema Nobile
19. Requiem (Take2)
20. Tema Incompleto
21. Tema Dominante
22. Tema Della Violomba
23. Preghiera
24. Tema Aperto
25. Trombe Marine
26. Canzone

musicians
Paolo Fresu - trumpet
Diederik Wissels - piano
Nguyen Le - electric guitar
Furio Di Castri - bass
Dhafer Youssef - voive, oud
Federico Sanesi - percussion
Quartetto Alborada - strings


Exact Audio Copy V0.99 prebeta 4 from 23. January 2008

EAC extraction logfile from 17. June 2008, 23:38

Paolo Fresu / Scores!

Used drive : PLEXTOR CD-R PREMIUM2 Adapter: 1 ID: 1

Read mode : Secure
Utilize accurate stream : Yes
Defeat audio cache : Yes
Make use of C2 pointers : No

Read offset correction : 30
Overread into Lead-In and Lead-Out : No
Fill up missing offset samples with silence : Yes
Delete leading and trailing silent blocks : No
Null samples used in CRC calculations : Yes
Used interface : Installed external ASPI interface
Gap handling : Appended to previous track

Used output format : User Defined Encoder
Selected bitrate : 32 kBit/s
Quality : High
Add ID3 tag : No
Command line compressor : C:\Programmi\FLAC\flac.exe
Additional command line options : -8 -V -T "ARTIST=%a" -T "TITLE=%t" -T "ALBUM=%g" -T "DATE=%y" -T "TRACKNUMBER=%n" -T "GENRE=%m" -T "COMMENT=EAC FLAC -8" %s


TOC of the extracted CD

Track | Start | Length | Start sector | End sector
––––––––––––––––––––––––––––-
1 | 0:00.00 | 5:09.58 | 0 | 23232
2 | 5:09.58 | 0:29.71 | 23233 | 25478
3 | 5:39.54 | 6:34.41 | 25479 | 55069
4 | 12:14.20 | 1:35.16 | 55070 | 62210
5 | 13:49.36 | 4:00.33 | 62211 | 80243
6 | 17:49.69 | 2:13.05 | 80244 | 90223
7 | 20:02.74 | 2:00.73 | 90224 | 99296
8 | 22:03.72 | 3:46.41 | 99297 | 116287
9 | 25:50.38 | 0:17.47 | 116288 | 117609
10 | 26:08.10 | 2:21.03 | 117610 | 128187
11 | 28:29.13 | 1:25.72 | 128188 | 134634
12 | 29:55.10 | 0:48.33 | 134635 | 138267
13 | 30:43.43 | 1:02.63 | 138268 | 142980
14 | 31:46.31 | 1:20.68 | 142981 | 149048
15 | 33:07.24 | 1:20.36 | 149049 | 155084
16 | 34:27.60 | 2:55.17 | 155085 | 168226
17 | 37:23.02 | 3:26.36 | 168227 | 183712
18 | 40:49.38 | 2:55.70 | 183713 | 196907
19 | 43:45.33 | 5:51.23 | 196908 | 223255
20 | 49:36.56 | 2:43.42 | 223256 | 235522
21 | 52:20.23 | 3:28.28 | 235523 | 251150
22 | 55:48.51 | 1:28.10 | 251151 | 257760
23 | 57:16.61 | 0:40.54 | 257761 | 260814
24 | 57:57.40 | 5:11.36 | 260815 | 284175
25 | 63:09.01 | 1:22.65 | 284176 | 290390
26 | 64:31.66 | 2:39.38 | 290391 | 302353


Track 1

Filename C:\My Rip\01 - …Del Viaggio.wav

Pre-gap length 0:00:02.00

Peak level 59.5 %
Track quality 100.0 %
Test CRC 9D5655BD
Copy CRC 9D5655BD
Track not present in AccurateRip database
Copy OK

Track 2

Filename C:\My Rip\02 - Frame.wav

Peak level 59.5 %
Track quality 100.0 %
Test CRC B753237A
Copy CRC B753237A
Track not present in AccurateRip database
Copy OK

Track 3

Filename C:\My Rip\03 - Requiem (Take1).wav

Peak level 59.5 %
Track quality 100.0 %
Test CRC 2964377E
Copy CRC 2964377E
Track not present in AccurateRip database
Copy OK

Track 4

Filename C:\My Rip\04 - Moods.wav

Peak level 26.8 %
Track quality 100.0 %
Test CRC 92D7FA38
Copy CRC 92D7FA38
Track not present in AccurateRip database
Copy OK

Track 5

Filename C:\My Rip\05 - Tema Aperto (Take1).wav

Peak level 59.5 %
Track quality 100.0 %
Test CRC A311D4B2
Copy CRC A311D4B2
Track not present in AccurateRip database
Copy OK

Track 6

Filename C:\My Rip\06 - Canzone (Piano).wav

Peak level 44.7 %
Track quality 100.0 %
Test CRC 751EFA33
Copy CRC 751EFA33
Track not present in AccurateRip database
Copy OK

Track 7

Filename C:\My Rip\07 - Canzone (Strings).wav

Peak level 20.6 %
Track quality 100.0 %
Test CRC 4A731865
Copy CRC 4A731865
Track not present in AccurateRip database
Copy OK

Track 8

Filename C:\My Rip\08 - Notti A Mogadiscio.wav

Peak level 63.0 %
Track quality 100.0 %
Test CRC 633B309B
Copy CRC 633B309B
Track not present in AccurateRip database
Copy OK

Track 9

Filename C:\My Rip\09 - Frame.wav

Peak level 46.6 %
Track quality 100.0 %
Test CRC 0B8B2348
Copy CRC 0B8B2348
Track not present in AccurateRip database
Copy OK

Track 10

Filename C:\My Rip\10 - Tema Etereo.wav

Peak level 20.0 %
Track quality 100.0 %
Test CRC 009864DE
Copy CRC 009864DE
Track not present in AccurateRip database
Copy OK

Track 11

Filename C:\My Rip\11 - Ossi.wav

Peak level 41.7 %
Track quality 100.0 %
Test CRC 1AA0A8C3
Copy CRC 1AA0A8C3
Track not present in AccurateRip database
Copy OK

Track 12

Filename C:\My Rip\12 - Tema Barocco.wav

Peak level 19.9 %
Track quality 100.0 %
Test CRC F63F58CB
Copy CRC F63F58CB
Track not present in AccurateRip database
Copy OK

Track 13

Filename C:\My Rip\13 - Lavoce Del Mare.wav

Peak level 42.1 %
Track quality 100.0 %
Test CRC 50251AD7
Copy CRC 50251AD7
Track not present in AccurateRip database
Copy OK

Track 14

Filename C:\My Rip\14 - Tema Della Sommossa.wav

Peak level 33.1 %
Track quality 100.0 %
Test CRC A9630000
Copy CRC A9630000
Track not present in AccurateRip database
Copy OK

Track 15

Filename C:\My Rip\15 - Oudiadhafer.wav

Peak level 37.5 %
Track quality 100.0 %
Test CRC 634E9C3B
Copy CRC 634E9C3B
Track not present in AccurateRip database
Copy OK

Track 16

Filename C:\My Rip\16 - Tema Della Rivolta.wav

Peak level 59.5 %
Track quality 100.0 %
Test CRC 79A44E84
Copy CRC 79A44E84
Track not present in AccurateRip database
Copy OK

Track 17

Filename C:\My Rip\17 - Duo Del Deserto.wav

Peak level 53.1 %
Track quality 100.0 %
Test CRC 08CFBDF7
Copy CRC 08CFBDF7
Track not present in AccurateRip database
Copy OK

Track 18

Filename C:\My Rip\18 - Tema Nobile.wav

Peak level 59.5 %
Track quality 100.0 %
Test CRC EBB66BC5
Copy CRC EBB66BC5
Track not present in AccurateRip database
Copy OK

Track 19

Filename C:\My Rip\19 - Requiem (Take2).wav

Peak level 47.3 %
Track quality 99.9 %
Test CRC 4C598B1D
Copy CRC 4C598B1D
Track not present in AccurateRip database
Copy OK

Track 20

Filename C:\My Rip\20 - Tema Incompleto.wav

Peak level 59.5 %
Track quality 100.0 %
Test CRC 1BE7EA39
Copy CRC 1BE7EA39
Track not present in AccurateRip database
Copy OK

Track 21

Filename C:\My Rip\21 - Tema Dominante.wav

Peak level 59.5 %
Track quality 100.0 %
Test CRC 4A0E655E
Copy CRC 4A0E655E
Track not present in AccurateRip database
Copy OK

Track 22

Filename C:\My Rip\22 - Tema Della Violomba.wav

Peak level 42.5 %
Track quality 100.0 %
Test CRC A4D0D57F
Copy CRC A4D0D57F
Track not present in AccurateRip database
Copy OK

Track 23

Filename C:\My Rip\23 - Preghiera.wav

Peak level 35.5 %
Track quality 100.0 %
Test CRC D5ADD615
Copy CRC D5ADD615
Track not present in AccurateRip database
Copy OK

Track 24

Filename C:\My Rip\24 - Tema Aperto.wav

Peak level 59.5 %
Track quality 99.9 %
Test CRC 66E97106
Copy CRC 66E97106
Track not present in AccurateRip database
Copy OK

Track 25

Filename C:\My Rip\25 - Trombe Marine.wav

Peak level 47.9 %
Track quality 100.0 %
Test CRC 4D7894A3
Copy CRC 4D7894A3
Track not present in AccurateRip database
Copy OK

Track 26

Filename C:\My Rip\26 - Canzone.wav

Peak level 59.5 %
Track quality 100.0 %
Test CRC F6D9304C
Copy CRC F6D9304C
Track not present in AccurateRip database
Copy OK


None of the tracks are present in the AccurateRip database

No errors occurred

End of status report


––––––––––––––––––––––––––––––––––––––––
Analyzed: Paolo Fresu / Scores!
––––––––––––––––––––––––––––––––––––––––

DR Peak RMS Duration Track
––––––––––––––––––––––––––––––––––––––––
DR14 -4.50 dB -20.30 dB 5:10 01-…Del Viaggio
DR14 -4.50 dB -23.50 dB 0:30 02-Frame
DR11 -4.50 dB -19.98 dB 6:35 03-Requiem (Take1)
DR11 -11.41 dB -26.30 dB 1:35 04-Moods
DR14 -4.50 dB -24.60 dB 4:00 05-Tema Aperto (Take1)
DR13 -6.99 dB -26.86 dB 2:13 06-Canzone (Piano)
DR11 -13.70 dB -30.01 dB 2:01 07-Canzone (Strings)
DR18 -4.00 dB -24.34 dB 3:47 08-Notti A Mogadiscio
DR13 -6.62 dB -27.67 dB 0:18 09-Frame
DR12 -13.96 dB -30.50 dB 2:21 10-Tema Etereo
DR13 -7.60 dB -25.08 dB 1:26 11-Ossi
DR13 -14.00 dB -31.71 dB 0:48 12-Tema Barocco
DR11 -7.50 dB -23.46 dB 1:03 13-Lavoce Del Mare
DR11 -9.59 dB -25.47 dB 1:21 14-Tema Della Sommossa
DR14 -8.50 dB -30.13 dB 1:20 15-Oudiadhafer
DR14 -4.50 dB -21.97 dB 2:55 16-Tema Della Rivolta
DR10 -5.50 dB -21.17 dB 3:26 17-Duo Del Deserto
DR12 -4.50 dB -21.91 dB 2:56 18-Tema Nobile
DR14 -6.50 dB -24.85 dB 5:51 19-Requiem (Take2)
DR14 -4.50 dB -22.15 dB 2:44 20-Tema Incompleto
DR13 -4.50 dB -22.98 dB 3:28 21-Tema Dominante
DR12 -7.41 dB -25.01 dB 1:28 22-Tema Della Violomba
DR9 -8.99 dB -23.02 dB 0:41 23-Preghiera
DR17 -4.50 dB -26.33 dB 5:11 24-Tema Aperto
DR9 -6.39 dB -20.65 dB 1:23 25-Trombe Marine
DR12 -4.50 dB -22.79 dB 2:40 26-Canzone
––––––––––––––––––––––––––––––––––––––––

Number of tracks: 26
Official DR value: DR13

Samplerate: 44100 Hz
Channels: 2
Bits per sample: 16
Bitrate: 495 kbps
Codec: FLAC
================================================================================

Paolo Fresu - Scores! (2002) {CamJazz}
Paolo Fresu - Scores! (2002) {CamJazz}
Paolo Fresu - Scores! (2002) {CamJazz}


Thanks to the original ripper