Tags
Language
Tags

Paolo Pandolfo, Rinaldo Alessandrini - Carl Philipp Emanuel Bach: Sonate per viola da gamba e basso continuo (2007)

Posted By: ArlegZ
Paolo Pandolfo, Rinaldo Alessandrini - Carl Philipp Emanuel Bach: Sonate per viola da gamba e basso continuo (2007)

Paolo Pandolfo, Rinaldo Alessandrini - Carl Philipp Emanuel Bach: Sonate per viola da gamba e basso continuo (2007)
EAC | FLAC | Image (Cue & Log) ~ 379 Mb | Total time: 67:18 | Scans included
Classical | Tactus | TC 71020501 | Recorded: 1989

C.P.E. Bach's music often has a bizarrely experimental quality mixed incongruously but fascinatingly with a conservatism born of his father's influence, and this program of early works, dating from the 1740s and 1750s, offers good examples. The opening Sonata for viola da gamba and continuo in D major, Wq 137, and concluding Trio for viola da gamba and obbligato harpsichord in G minor, Wq 88 (not a trio but a duo sonata with a written-out harpsichord part in which the right hand fully participates), are dense and a bit skittery. The conservatism is evident above all in the use of the gamba itself – these are virtually the last major works written for the by 1750 almost antiquated instrument – and in the extensive use of imitative counterpoint. Yet the music doesn't sound like J.S. Bach. It has stylized emotions that seem to point to the empfindsamer Stil or style of sensibility that came later, not quite so much as the heavy focus on this movement in gambist Paolo Pandolfo's notes would imply, but still enough to be characteristic. The central Sonata for viola da gamba and continuo in C major, Wq 88, is a less thick work, rendered with the lighter palette of the galant style. Pandolfo and harpsichordist Rinaldo Alessandrini (both players were little known at the time) are not relaxed enough in this work, but they capture the sort of gnarly mood of the opening D major piece very well, and they have a nervous virtuosity that works well in C.P.E. Bach's music. The original sound has held up well, and lovers of the rather elusive C.P.E. who missed this the first time around will want to own it.

Performer:
Paolo Pandolfo, viola da gamba
Rinaldo Alessandrini, harpsichord

Track List:
Carl Philipp Emanuel Bach (1714–1788)
Viola da Gamba Sonata in D major, Wq. 137, H. 559
01. I. Adagio, ma non tanto
02. II. Allegro di molto
03. III. Arioso
Viola da Gamba Sonata in C major, Wq. 136, H. 558
04. I. Andante
05. II. Allegretto
06. III. Arioso
Viola da Gamba Sonata in G minor, Wq. 88, H. 510
07. I. Allegro moderato
08. II. Larghetto
09. III. Allegro assai


Exact Audio Copy V1.6 from 23. October 2020

EAC extraction logfile from 22. September 2021, 11:47

Paolo Pandolfo / C.P.E. Bach: Sonatas for viola da gamba & basso continuo

Used drive : HL-DT-STDVDRAM GH24NSD5 Adapter: 1 ID: 0

Read mode : Secure
Utilize accurate stream : Yes
Defeat audio cache : Yes
Make use of C2 pointers : No

Read offset correction : 6
Overread into Lead-In and Lead-Out : No
Fill up missing offset samples with silence : Yes
Delete leading and trailing silent blocks : No
Null samples used in CRC calculations : Yes
Used interface : Native Win32 interface for Win NT & 2000

Used output format : User Defined Encoder
Selected bitrate : 1024 kBit/s
Quality : High
Add ID3 tag : No
Command line compressor : C:\Program Files (x86)\Exact Audio Copy\FLAC\FLAC.EXE
Additional command line options : -6 -V -T "ARTIST=%artist%" -T "TITLE=%title%" -T "ALBUM=%albumtitle%" -T "DATE=%year%" -T "TRACKNUMBER=%tracknr%" -T "GENRE=%genre%" -T "COMMENT=%comment%" -T "BAND=%albuminterpret%" -T "ALBUMARTIST=%albuminterpret%" -T "COMPOSER=%composer%" %haslyrics%–tag-from-file=LYRICS="%lyricsfile%"%haslyrics% -T "DISCNUMBER=%cdnumber%" -T "TOTALDISCS=%totalcds%" -T "TOTALTRACKS=%numtracks%" %hascover%–picture="%coverfile%"%hascover% %source% -o %dest% -T "RIPPER=Bodtje"


TOC of the extracted CD

Track | Start | Length | Start sector | End sector
––––––––––––––––––––––––––––-
1 | 0:00.33 | 4:55.50 | 33 | 22207
2 | 4:56.08 | 9:00.50 | 22208 | 62757
3 | 13:56.58 | 10:35.00 | 62758 | 110382
4 | 24:31.58 | 4:54.50 | 110383 | 132482
5 | 29:26.33 | 10:15.50 | 132483 | 178657
6 | 39:42.08 | 6:25.50 | 178658 | 207582
7 | 46:07.58 | 7:36.25 | 207583 | 241807
8 | 53:44.08 | 6:34.35 | 241808 | 271392
9 | 60:18.43 | 7:04.52 | 271393 | 303244


Range status and errors

Selected range

Filename I:\Rips\Bach CPE - Sonate per viola da gamba e basso continuo - Pandolfo, Alessandrini\Paolo Pandolfo - C.P.E. Bach- Sonatas for viola da gamba & basso continuo.wav

Peak level 78.9 %
Extraction speed 2.0 X
Range quality 100.0 %
Test CRC 081696F6
Copy CRC 081696F6
Copy OK

No errors occurred


AccurateRip summary

Track 1 accurately ripped (confidence 3) [314565D5] (AR v2)
Track 2 accurately ripped (confidence 3) [618FEA3A] (AR v2)
Track 3 accurately ripped (confidence 3) [58A54596] (AR v2)
Track 4 accurately ripped (confidence 3) [0A14ADE0] (AR v2)
Track 5 accurately ripped (confidence 3) [0281D7ED] (AR v2)
Track 6 accurately ripped (confidence 3) [67EA656F] (AR v2)
Track 7 accurately ripped (confidence 3) [DE471033] (AR v2)
Track 8 accurately ripped (confidence 3) [55F7F3E6] (AR v2)
Track 9 accurately ripped (confidence 3) [27E02382] (AR v2)

All tracks accurately ripped

End of status report

–– CUETools DB Plugin V2.1.6

[CTDB TOCID: JXqEsraCYkx4CH2sujVkKJKMC90-] found
Submit result: JXqEsraCYkx4CH2sujVkKJKMC90- has been confirmed
Track | CTDB Status
1 | (72/75) Accurately ripped
2 | (74/75) Accurately ripped
3 | (74/75) Accurately ripped
4 | (74/75) Accurately ripped
5 | (74/75) Accurately ripped
6 | (74/75) Accurately ripped
7 | (74/75) Accurately ripped
8 | (74/75) Accurately ripped
9 | (74/75) Accurately ripped


==== Log checksum 67DB195B2628AAF4EE3C2891C5DA8B421266C73A04DE78A3D66154A663AB81B9 ====

Paolo Pandolfo, Rinaldo Alessandrini - Carl Philipp Emanuel Bach: Sonate per viola da gamba e basso continuo (2007)

Thanks to the original releaser