Tags
Language
Tags

Pat Metheny Group - The Road To You: Recorded Live in Europe (1993) [Re-Up]

Posted By: Designol
Pat Metheny Group - The Road To You: Recorded Live in Europe (1993) [Re-Up]

Pat Metheny Group - The Road To You: Recorded Live in Europe (1993)
EAC | FLAC | Image (Cue&Log) ~ 467 Mb | Mp3 (CBR320) ~ 204 Mb
Label: Geffen | # GED 24601 | Time: 01:14:01 | Scans included
Jazz Fusion, Contemporary Jazz, World Fusion

When Metheny celebrates his cerebral side, he usually follows up with something more accessible. After his difficult yet rewarding collaboration with John Scofield, I Can See Your House from Here, Metheny stresses accessibility with this captivating live album. The primary focus is on his Brazilian-influenced material from Still Life (Talking) and Letter from Home, and the very cohesive Pat Metheny Group offers characteristically expressive versions of such favorites as "Have You Heard," "Beat 70," and "Better Days Ahead." While he could have offered a wider variety of material and perhaps revisited some of his early gems, everything that he does include comes across as honest and heartfelt. Thankfully, Metheny's emphasis on accessibility and crowd-pleasing doesn't come at the expense of his artistic integrity.

Review by Alex Henderson, Allmusic.com

Pat Metheny Group - The Road To You: Recorded Live in Europe (1993) [Re-Up]



Pat Metheny – acoustic and electric guitar, guitar synthesizer
Lyle Mays – piano, keyboards
Steve Rodby – acoustic and electric bass
Paul Wertico – drums
Armando Marçal – percussion, timbales, congas, voice
Pedro Aznar – voice, acoustic guitar, percussion, saxophone,
steel drums, vibraphone, marimba, melodica

Recorded in Bari, Pescara, Jesi & Naples, Italy and in Marseilles, Paris & Besantin, France.

Tracklist:

01. Have You Heard (06:47)
02. First Circle (09:02)
03. The Road To You (05:45)
04. Half Life Of Absolution (15:16)
05. Last Train Home (05:19)
06. Better Days Ahead (05:12)
07. Naked Moon (05:29)
08. Beat 70 (05:05)
09. Letter From Home (02:33)
10. Third Wind (09:49)
11. Solo From 'More Travels' (03:40)


Exact Audio Copy V1.1 from 23. June 2015

EAC extraction logfile from 13. January 2016, 17:58

Pat Metheny Group / The Road To You (GED 24601)

Used drive : HL-DT-STDVDRAM GE20NU11 Adapter: 1 ID: 0

Read mode : Secure
Utilize accurate stream : Yes
Defeat audio cache : Yes
Make use of C2 pointers : No

Read offset correction : 667
Overread into Lead-In and Lead-Out : No
Fill up missing offset samples with silence : Yes
Delete leading and trailing silent blocks : No
Null samples used in CRC calculations : Yes
Used interface : Native Win32 interface for Win NT & 2000

Used output format : User Defined Encoder
Selected bitrate : 896 kBit/s
Quality : High
Add ID3 tag : No
Command line compressor : C:\Program Files\EAC 3\Exact Audio Copy\Flac\flac.exe
Additional command line options : -V -8 %source%


TOC of the extracted CD

Track | Start | Length | Start sector | End sector
––––––––––––––––––––––––––––-
1 | 0:00.00 | 6:47.07 | 0 | 30531
2 | 6:47.07 | 9:02.43 | 30532 | 71224
3 | 15:49.50 | 5:45.22 | 71225 | 97121
4 | 21:34.72 | 15:16.58 | 97122 | 165879
5 | 36:51.55 | 5:19.00 | 165880 | 189804
6 | 42:10.55 | 5:12.27 | 189805 | 213231
7 | 47:23.07 | 5:29.35 | 213232 | 237941
8 | 52:52.42 | 5:05.53 | 237942 | 260869
9 | 57:58.20 | 2:33.02 | 260870 | 272346
10 | 60:31.22 | 9:49.53 | 272347 | 316574
11 | 70:21.00 | 3:40.25 | 316575 | 333099


Range status and errors

Selected range

Filename C:\OdW\Pat Metheny Group\1993 - The Road To You (GED 24601)\Pat Metheny Group - The Road To You (GED 24601).wav

Peak level 99.8 %
Extraction speed 7.6 X
Range quality 100.0 %
Test CRC 4A63B727
Copy CRC 4A63B727
Copy OK

No errors occurred


AccurateRip summary

Track 1 accurately ripped (confidence 70) [96BA55A2] (AR v2)
Track 2 accurately ripped (confidence 70) [11EC6DDB] (AR v2)
Track 3 accurately ripped (confidence 69) [34FDD33E] (AR v2)
Track 4 accurately ripped (confidence 67) [7AD32C00] (AR v2)
Track 5 accurately ripped (confidence 68) [2C4BB147] (AR v2)
Track 6 accurately ripped (confidence 67) [7B9E39A5] (AR v2)
Track 7 accurately ripped (confidence 68) [EF8B1BEB] (AR v2)
Track 8 accurately ripped (confidence 67) [7D88BF9E] (AR v2)
Track 9 accurately ripped (confidence 69) [E22D03DD] (AR v2)
Track 10 accurately ripped (confidence 66) [AFD43F5B] (AR v2)
Track 11 accurately ripped (confidence 64) [A7971598] (AR v2)

All tracks accurately ripped

End of status report

–– CUETools DB Plugin V2.1.6

[CTDB TOCID: ySEpyIsnlx2nen0U5NptwmpUlNc-] found
Submit result: ySEpyIsnlx2nen0U5NptwmpUlNc- has been confirmed
Track | CTDB Status
1 | (95/95) Accurately ripped
2 | (95/95) Accurately ripped
3 | (95/95) Accurately ripped
4 | (95/95) Accurately ripped
5 | (95/95) Accurately ripped
6 | (95/95) Accurately ripped
7 | (95/95) Accurately ripped
8 | (93/95) Accurately ripped
9 | (94/95) Accurately ripped
10 | (92/95) Accurately ripped
11 | (92/95) Accurately ripped


==== Log checksum 48B4DE15520B5E53E6238F308B0D1F77A955F08791079A6AB9ED0B44EAA740C8 ====

foobar2000 1.2 / Dynamic Range Meter 1.1.1
log date: 2016-04-07 22:02:02

––––––––––––––––––––––––––––––––––––––––
Analyzed: Pat Metheny Group / The Road To You (GED 24601)
––––––––––––––––––––––––––––––––––––––––

DR Peak RMS Duration Track
––––––––––––––––––––––––––––––––––––––––
DR14 -0.01 dB -16.22 dB 6:47 01-Have You Heard
DR13 -0.01 dB -16.86 dB 9:03 02-First Circle
DR14 -4.59 dB -22.30 dB 5:45 03-The Road To You
DR13 -0.01 dB -17.01 dB 15:17 04-Half Life Of Absolution
DR13 -0.01 dB -17.01 dB 5:19 05-Last Train Home
DR13 -0.01 dB -15.42 dB 5:12 06-Better Days Ahead
DR13 -0.78 dB -17.84 dB 5:29 07-Naked Moon
DR11 -0.01 dB -13.74 dB 5:06 08-Beat 70
DR13 -6.32 dB -24.68 dB 2:33 09-Letter From Home
DR12 -0.01 dB -14.72 dB 9:50 10-Third Wind
DR12 -5.18 dB -21.89 dB 3:40 11-Solo From 'More Travels'
––––––––––––––––––––––––––––––––––––––––

Number of tracks: 11
Official DR value: DR13

Samplerate: 44100 Hz
Channels: 2
Bits per sample: 16
Bitrate: 816 kbps
Codec: FLAC
================================================================================

Pat Metheny Group - The Road To You: Recorded Live in Europe (1993) [Re-Up]

Pat Metheny Group - The Road To You: Recorded Live in Europe (1993) [Re-Up]

All thanks to original releaser - Olaf der Weisse

More interesting music in My Blog