Tags
Language
Tags

Paul Anka - 2 Gether On 1 (1995)

Posted By: popsakov
Paul Anka - 2 Gether On 1 (1995)

Paul Anka - 2 Gether On 1 (1995)
EAC Rip | FLAC (Img) + Cue + Log ~ 503 Mb | MP3 CBR320 ~ 194 Mb
Full Scans | 01:14:02 | RAR 5% Recovery
Pop, Ballad, Vocal Jazz | RCA Records / BMG Music #74321 29452 2

Paul Anka is one of the primier balladeer's of our time. Anka puts life,love,and heart in all of his music. Every song has a meaning, and Anka really expresses himself with confidence. This album is one of many that have made Paul Anka one of the best ever. This CD includes two albums: Songs I'd Wish I'd Written (1963) and Strictly Nashville (1966).
Paul Anka - 2 Gether On 1 (1995)


***************

Paul Anka - 2 Gether On 1 (1995)

Paul Anka - 2 Gether On 1 (1995)

Track List:

Songs I'd Wish I'd Written (1963)
01. Ramblin' Rose [02:57]
02. I Can't Stop Lovin' You [02:47]
03. The End Of The World [02:58]
04. He'll Have To Go [02:26]
05. All I Have To Do Is Dream [02:09]
06. Can't Get Used To Losin You [02:25]
07. Oh, Lonesome Me [02:16]
08. Save The Last Dance For Me [03:29]
09. Blue On Blue [02:32]
10. Moon River [02:47]
11. It's Not For Me To Say [03:20]
12. Memories Are Made Of This [02:14]
13. You Always Hurt The One You Love [03:53]
14. Cry [03:29]
15. Who's Sorry Now [03:33]

Strictly Nashville (1966)
16. Bonaparte's Retreat [02:26]
17. I Wish [02:19]
18. Oh, Such A Stranger [03:00]
19. There Won't Be Not Runnin' Back (To You) [02:45]
20. I Went To Your Wedding [02:26]
21. The Story Of My Life [02:25]
22. Memphis, Tennesee [02:27]
23. It's Only Make Believe [02:52]
24. Truly Yours [02:23]
25. (I'd Be) A Legend In My Time [02:37]
26. I Didn't Mean To Hurt You [02:43]
27. Once A Day [02:33]

Exact Audio Copy V1.1 from 23. June 2015

EAC extraction logfile from 2. July 2016, 10:31

Paul Anka / 2 Gether On 1

Used drive : PLEXTOR DVDR PX-716A Adapter: 1 ID: 1

Read mode : Secure
Utilize accurate stream : Yes
Defeat audio cache : Yes
Make use of C2 pointers : No

Read offset correction : 30
Overread into Lead-In and Lead-Out : No
Fill up missing offset samples with silence : Yes
Delete leading and trailing silent blocks : No
Null samples used in CRC calculations : Yes
Used interface : Native Win32 interface for Win NT & 2000

Used output format : User Defined Encoder
Selected bitrate : 1024 kBit/s
Quality : High
Add ID3 tag : No
Command line compressor : C:\Program Files (x86)\Exact Audio Copy\wavpack.exe
Additional command line options : -hlm %source%


TOC of the extracted CD

Track | Start | Length | Start sector | End sector
––––––––––––––––––––––––––––-
1 | 0:00.32 | 2:56.68 | 32 | 13299
2 | 2:57.25 | 2:46.57 | 13300 | 25806
3 | 5:44.07 | 2:57.55 | 25807 | 39136
4 | 8:41.62 | 2:25.38 | 39137 | 50049
5 | 11:07.25 | 2:08.57 | 50050 | 59706
6 | 13:16.07 | 2:24.20 | 59707 | 70526
7 | 15:40.27 | 2:15.55 | 70527 | 80706
8 | 17:56.07 | 3:28.28 | 80707 | 96334
9 | 21:24.35 | 2:31.60 | 96335 | 107719
10 | 23:56.20 | 2:46.45 | 107720 | 120214
11 | 26:42.65 | 3:19.72 | 120215 | 135211
12 | 30:02.62 | 2:13.53 | 135212 | 145239
13 | 32:16.40 | 3:52.07 | 145240 | 162646
14 | 36:08.47 | 3:28.70 | 162647 | 178316
15 | 39:37.42 | 3:32.40 | 178317 | 194256
16 | 43:10.07 | 2:26.00 | 194257 | 205206
17 | 45:36.07 | 2:18.25 | 205207 | 215581
18 | 47:54.32 | 2:59.28 | 215582 | 229034
19 | 50:53.60 | 2:44.57 | 229035 | 241391
20 | 53:38.42 | 2:25.53 | 241392 | 252319
21 | 56:04.20 | 2:24.65 | 252320 | 263184
22 | 58:29.10 | 2:26.47 | 263185 | 274181
23 | 60:55.57 | 2:51.13 | 274182 | 287019
24 | 63:46.70 | 2:22.72 | 287020 | 297741
25 | 66:09.67 | 2:36.40 | 297742 | 309481
26 | 68:46.32 | 2:42.55 | 309482 | 321686
27 | 71:29.12 | 2:32.58 | 321687 | 333144


Range status and errors

Selected range

Filename D:\wwphil\Paul Anka - 2 Gether On 1\Paul Anka - 2 Gether On 1.wav

Peak level 99.0 %
Extraction speed 3.8 X
Range quality 100.0 %
Test CRC 29F37C1B
Copy CRC 29F37C1B
Copy OK

No errors occurred


AccurateRip summary

Track 1 accurately ripped (confidence 3) [66AD4369] (AR v2)
Track 2 accurately ripped (confidence 3) [A0FDFF76] (AR v2)
Track 3 accurately ripped (confidence 3) [71F62B65] (AR v2)
Track 4 accurately ripped (confidence 3) [31A3762B] (AR v2)
Track 5 accurately ripped (confidence 3) [DF1C6C9A] (AR v2)
Track 6 accurately ripped (confidence 3) [23D3FE8A] (AR v2)
Track 7 accurately ripped (confidence 3) [34AE5090] (AR v2)
Track 8 accurately ripped (confidence 3) [A57D9DFA] (AR v2)
Track 9 accurately ripped (confidence 3) [9FC89CE8] (AR v2)
Track 10 accurately ripped (confidence 3) [AC0FDD4A] (AR v2)
Track 11 accurately ripped (confidence 3) [C47E95F5] (AR v2)
Track 12 accurately ripped (confidence 3) [06E96448] (AR v2)
Track 13 accurately ripped (confidence 3) [D26FE11E] (AR v2)
Track 14 accurately ripped (confidence 3) [3584A11A] (AR v2)
Track 15 accurately ripped (confidence 3) [14A22ECE] (AR v2)
Track 16 accurately ripped (confidence 3) [5AAC0E74] (AR v2)
Track 17 accurately ripped (confidence 3) [FCE1E1D0] (AR v2)
Track 18 accurately ripped (confidence 3) [1839F624] (AR v2)
Track 19 accurately ripped (confidence 3) [64FCCDF9] (AR v2)
Track 20 accurately ripped (confidence 3) [8F3CAA3F] (AR v2)
Track 21 accurately ripped (confidence 3) [E641E030] (AR v2)
Track 22 accurately ripped (confidence 3) [96D4A08B] (AR v2)
Track 23 accurately ripped (confidence 3) [012623D2] (AR v2)
Track 24 accurately ripped (confidence 3) [DB35AE7B] (AR v2)
Track 25 accurately ripped (confidence 3) [AD66B84E] (AR v2)
Track 26 accurately ripped (confidence 3) [33D47A2C] (AR v2)
Track 27 accurately ripped (confidence 3) [24B28074] (AR v2)

All tracks accurately ripped

End of status report

==== Log checksum AAB3F438F775FB887017FB6E04FB5ABCC23F77EEF9D28020DD3D5EAC793F16C0 ====

[CUETools log; Date: 03.07.2016 1:39:18; Version: 2.1.5]
Pregap length 00:00:32.
[CTDB TOCID: MnvZp9m0HN1Ki.VVcikbRaSle_8-] found.
Track | CTDB Status
1 | (1/1) Accurately ripped
2 | (1/1) Accurately ripped
3 | (1/1) Accurately ripped
4 | (1/1) Accurately ripped
5 | (1/1) Accurately ripped
6 | (1/1) Accurately ripped
7 | (1/1) Accurately ripped
8 | (1/1) Accurately ripped
9 | (1/1) Accurately ripped
10 | (1/1) Accurately ripped
11 | (1/1) Accurately ripped
12 | (1/1) Accurately ripped
13 | (1/1) Accurately ripped
14 | (1/1) Accurately ripped
15 | (1/1) Accurately ripped
16 | (1/1) Accurately ripped
17 | (1/1) Accurately ripped
18 | (1/1) Accurately ripped
19 | (1/1) Accurately ripped
20 | (1/1) Accurately ripped
21 | (1/1) Accurately ripped
22 | (1/1) Accurately ripped
23 | (1/1) Accurately ripped
24 | (1/1) Accurately ripped
25 | (1/1) Accurately ripped
26 | (1/1) Accurately ripped
27 | (1/1) Accurately ripped
[AccurateRip ID: 0047db45-056f50c6-ae11591b] found.
Track [ CRC | V2 ] Status
01 [9abda4f8|66ad4369] (0+3/3) Accurately ripped
02 [1953caef|a0fdff76] (0+3/3) Accurately ripped
03 [66748fd1|71f62b65] (0+3/3) Accurately ripped
04 [78b7c04b|31a3762b] (0+3/3) Accurately ripped
05 [5b5ae217|df1c6c9a] (0+3/3) Accurately ripped
06 [c526f4ca|23d3fe8a] (0+3/3) Accurately ripped
07 [1e94d691|34ae5090] (0+3/3) Accurately ripped
08 [4939a7be|a57d9dfa] (0+3/3) Accurately ripped
09 [f6943eda|9fc89ce8] (0+3/3) Accurately ripped
10 [4ceb1dc6|ac0fdd4a] (0+3/3) Accurately ripped
11 [9cb4f25d|c47e95f5] (0+3/3) Accurately ripped
12 [157c51a4|06e96448] (0+3/3) Accurately ripped
13 [082b3ff7|d26fe11e] (0+3/3) Accurately ripped
14 [1e1a14cb|3584a11a] (0+3/3) Accurately ripped
15 [1cd111eb|14a22ece] (0+3/3) Accurately ripped
16 [eadb138a|5aac0e74] (0+3/3) Accurately ripped
17 [87abfc16|fce1e1d0] (0+3/3) Accurately ripped
18 [8bb6148e|1839f624] (0+3/3) Accurately ripped
19 [80fbfdd4|64fccdf9] (0+3/3) Accurately ripped
20 [4bbc12f5|8f3caa3f] (0+3/3) Accurately ripped
21 [7c9d3478|e641e030] (0+3/3) Accurately ripped
22 [e489e19e|96d4a08b] (0+3/3) Accurately ripped
23 [f067c645|012623d2] (0+3/3) Accurately ripped
24 [d4011ec2|db35ae7b] (0+3/3) Accurately ripped
25 [74ba1b9a|ad66b84e] (0+3/3) Accurately ripped
26 [7e0b3f54|33d47a2c] (0+3/3) Accurately ripped
27 [f46cc46e|24b28074] (0+3/3) Accurately ripped

Track Peak [ CRC32 ] [W/O NULL] [ LOG ]
– 99,0 [29F37C1B] [9043818A] CRC32
01 99,0 [E904B6EC] [63789EB3]
02 99,0 [AEA5F2AD] [F584621D]
03 99,0 [85C75FA3] [9F11E4AF]
04 99,0 [B7B4EF3B] [F26CEA5C]
05 99,0 [B8587E76] [DE3F56AC]
06 99,0 [B954F9CC] [338F8CE4]
07 97,3 [011EE176] [CD4E6857]
08 99,0 [DACEA4D3] [76F12098]
09 99,0 [055AA949] [126F0DCE]
10 90,6 [2D1FC5C8] [B04DB7CF]
11 97,9 [906CAC3D] [7E97C836]
12 99,0 [A44E02C5] [702FA2E3]
13 99,0 [32AEEE01] [F92DD6AD]
14 99,0 [D1777B48] [FF7AAFAB]
15 99,0 [B0FA8BA0] [81646481]
16 99,0 [583F306F] [19427295]
17 92,1 [03A0B550] [EDF1B79C]
18 96,7 [1CD523B3] [46821EBE]
19 99,0 [A28E7F8B] [C228A89A]
20 92,2 [318A9294] [B6F78D2E]
21 93,6 [D842BDA5] [68EA6B51]
22 93,6 [CBEF8549] [C7EE3CC8]
23 99,0 [579A6905] [AFB667C6]
24 99,0 [67DF9766] [61CBFC89]
25 99,0 [A78335A8] [029327EA]
26 99,0 [EAACF437] [CBCE15AB]
27 99,0 [A2FBCD27] [B41D6498]

Paul Anka - 2 Gether On 1 (1995)


See also:

Paul Anka - My Way (1997)

Paul Anka - Rock Swings (2005)

All thanks go to wwphil

>>> My Blog <<<

DOWNLOAD: