Subcategories
Tags
Language
Tags

Paul Weller - Modern Classics: The Greatest Hits (1998) 2CD Limited Edition

Posted By: Designol
Paul Weller - Modern Classics: The Greatest Hits (1998) 2CD Limited Edition

Paul Weller - Modern Classics: The Greatest Hits (1998) 2CD Limited Edition
EAC | FLAC | Image (Cue&Log) ~ 787 Mb | Mp3 (CBR320) ~ 286 Mb | Scans included | 01:51:48
British Trad Rock, Alternative Pop/Rock | Label: Island | # CIDD 8080, 524 609-2

Modern Classics: The Greatest Hits is a compilation album of music by English singer-songwriter Paul Weller, originally released in 1998. It featured most of his solo singles up to that point as well as a new track "Brand New Start". A limited edition of the album came with a bonus 13 track live disc recorded at Victoria Park, London on 8 August 1998.

Wrapping up his contractual commitment to Go! Records, Paul Weller delivered Modern Classics: Greatest Hits, his first compilation of solo material, late in 1998. Modern Classics plays it safe, collecting all of his singles and adding a fine new song, "Brand New Start," which may not at first seem live up to its title, but eventually reveals itself to be a weightier ballad variation of the trad rock of Heavy Soul. Regrettably, the album is not sequenced in chronological order, but there was a consistency to Weller's solo work that makes the compilation hold together well. And while it certainly confirms that his solo work is easily his most conservative music to date, it also proves that it wasn't slight – these singles are uniformly solid, whether it's the driving "Into Tomorrow," the rugged soul-pop of "Uh-Huh Oh-Yeh," the passionate "Sunflower," the ersatz ELO tribute "The Changingman," or ballads like "Broken Stones" and "Mermaids." Like Snap! and The Singular Adventures of the Style Council, Modern Classics is a testament to Weller's strength as a singles artist and a terrifically enjoyable listen in its own right. [The U.K. edition of Modern Classics included a bonus live disc, culled from various shows, which was every bit as good as Live Wood.]

Review by Stephen Thomas Erlewine, Allmusic.com

Paul Weller - Modern Classics: The Greatest Hits (1998) 2CD Limited Edition

Paul Weller - Modern Classics: The Greatest Hits (1998) 2CD Limited Edition



Tracklist:

CD1 - Modern Classics: The Greatest Hits:

01. Out Of The Sinking (3:51)
02. Peacock Suit (3:08)
03. Sunflower (4:11)
04. The Weaver (3:45)
05. Wild Wood (3:23)
06. Above The Clouds (3:52)
07. Uh-Huh Oh-Yeh (3:20)
08. Brushed (3:33)
09. The Changingman (3:32)
10. Friday Street (2:20)
11. You Do Something To Me (3:39)
12. Brand New Start (4:08)
13. Hung Up (2:42)
14. Mermaids (3:04)
15. Broken Stones (3:22)
16. Into Tomorrow (3:14)

CD2 - Live Classics:

01. Into Tomorrow (3:48)
02. Peacock Suit (3:11)
03. Friday Street (2:33)
04. Mermaids (3:16)
05. Out Of The Sinking (3:42)
06. Heavy Soul (8:20)
07. Wild Wood (3:56)
08. Up In Suzes' Room (4:46)
09. Can You Heal Us (Holy Man) (5:16)
10. The Changingman (3:33)
11. Porcelain Gods (5:27)
12. Sunflower (4:45)
13. Broken Stones (4:11)


Exact Audio Copy V1.0 beta 2 from 29. April 2011

Отчёт EAC об извлечении, выполненном 29. апреля 2012, 18:32

Paul Weller / Modern Classics - The Greatest Hits

Дисковод: Optiarc DVD RW AD-7260S Adapter: 0 ID: 1

Режим чтения : Достоверность
Использование точного потока : Да
Отключение кэша аудио : Да
Использование указателей C2 : Нет

Коррекция смещения при чтении : 48
Способность читать области Lead-in и Lead-out : Нет
Заполнение пропущенных сэмплов тишиной : Да
Удаление блоков с тишиной в начале и конце : Нет
При вычислениях CRC использовались нулевые сэмплы : Да
Интерфейс : Встроенный Win32-интерфейс для Win NT/2000

Выходной формат : Пользовательский кодировщик
Выбранный битрейт : 128 kBit/s
Качество : Высокий
Добавление ID3-тега : Нет
Утилита сжатия : C:\Program Files\Exact Audio Copy\FLAC\FLAC.EXE
Дополнительные параметры : -6 -V -T "ARTIST=%artist%" -T "TITLE=%title%" -T "ALBUM=%albumtitle%" -T "DATE=%year%" -T "TRACKNUMBER=%tracknr%" -T "GENRE=%genre%" -T "COMMENT=%comment%" -T "BAND=%albuminterpret%" -T "COMPOSER=%composer%" %haslyrics%–tag-from-


TOC извлечённого CD

Трек | Старт | Длительность | Начальный сектор | Конечный сектор
––––––––––––––––––––––––––––––––––-
1 | 0:00.00 | 3:51.35 | 0 | 17359
2 | 3:51.35 | 3:07.62 | 17360 | 31446
3 | 6:59.22 | 4:10.63 | 31447 | 50259
4 | 11:10.10 | 3:44.50 | 50260 | 67109
5 | 14:54.60 | 3:23.07 | 67110 | 82341
6 | 18:17.67 | 3:51.60 | 82342 | 99726
7 | 22:09.52 | 3:19.38 | 99727 | 114689
8 | 25:29.15 | 3:32.52 | 114690 | 130641
9 | 29:01.67 | 3:32.28 | 130642 | 146569
10 | 32:34.20 | 2:20.30 | 146570 | 157099
11 | 34:54.50 | 3:38.60 | 157100 | 173509
12 | 38:33.35 | 4:07.62 | 173510 | 192096
13 | 42:41.22 | 2:41.60 | 192097 | 204231
14 | 45:23.07 | 3:04.00 | 204232 | 218031
15 | 48:27.07 | 3:22.35 | 218032 | 233216
16 | 51:49.42 | 3:13.55 | 233217 | 247746


Характеристики диапазона извлечения и сообщения об ошибках

Выбранный диапазон

Имя файла D:\FLAC\Paul Weller - Modern Classics - The Greatest Hits - 1998.wav

Пиковый уровень 100.0 %
Скорость извлечения 3.8 X
Качество диапазона 100.0 %
CRC теста 8C4D4F1C
CRC копии 8C4D4F1C
Копирование… OK

Ошибок не произошло

Конец отчёта

==== Контрольная сумма отчёта 199C1F5C01C1D04FAD4F3CCF27C2E116DB6E2354B619A7C042296992243417E0 ====

[CUETools log; Date: 28.04.2018 17:19:55; Version: 2.1.4]
[CTDB TOCID: PhTCeVd6Xb4SbcZOYme3cMbP6VE-] found.
Track | CTDB Status
1 | (220/225) Accurately ripped
2 | (222/225) Accurately ripped
3 | (223/225) Accurately ripped
4 | (223/225) Accurately ripped
5 | (223/225) Accurately ripped
6 | (221/225) Accurately ripped
7 | (220/225) Accurately ripped
8 | (218/225) Accurately ripped
9 | (221/225) Accurately ripped
10 | (220/225) Accurately ripped
11 | (219/225) Accurately ripped
12 | (219/225) Accurately ripped
13 | (222/225) Accurately ripped
14 | (218/225) Accurately ripped
15 | (221/225) Accurately ripped
16 | (223/225) Accurately ripped
[AccurateRip ID: 00210d43-0189a233-d60ce710] found.
Track [ CRC | V2 ] Status
01 [6c5447cb|6145b999] (076+100/250) Accurately ripped
02 [f202a343|873de518] (076+099/250) Accurately ripped
03 [f198aa7c|119c28db] (076+101/251) Accurately ripped
04 [c3d17e00|b0f5cb5a] (077+099/251) Accurately ripped
05 [80ab00cc|d787f548] (079+102/256) Accurately ripped
06 [33d26dc9|881741a7] (078+101/253) Accurately ripped
07 [86a1e544|b0971e78] (076+101/252) Accurately ripped
08 [a509fcf9|ab4baff9] (076+101/252) Accurately ripped
09 [c4f1aadb|74956b62] (078+099/252) Accurately ripped
10 [87078397|a7b17b70] (077+101/252) Accurately ripped
11 [9d7d9912|a5b35d5b] (080+101/254) Accurately ripped
12 [1a707ba2|360171c4] (079+098/251) Accurately ripped
13 [811d66f7|f4569697] (076+101/250) Accurately ripped
14 [cc192888|71f3b5af] (076+101/251) Accurately ripped
15 [dd3f6000|8c4a6cdd] (076+100/249) Accurately ripped
16 [9deb586c|d5b58d72] (076+100/249) Accurately ripped
Offsetted by 512:
01 [ce739289] (024/250) Accurately ripped
02 [1bc903c5] (025/250) Accurately ripped
03 [6a44367c] (025/251) Accurately ripped
04 [ee070400] (025/251) Accurately ripped
05 [9d7150cc] (025/256) Accurately ripped
06 [da3bbfc9] (025/253) Accurately ripped
07 [3ecf53c8] (025/252) Accurately ripped
08 [8bfac025] (025/252) Accurately ripped
09 [341a00af] (025/252) Accurately ripped
10 [1e576683] (025/252) Accurately ripped
11 [59dab512] (025/254) Accurately ripped
12 [cf357fa2] (025/251) Accurately ripped
13 [b6ca98f7] (025/250) Accurately ripped
14 [25394688] (025/251) Accurately ripped
15 [02e15800] (024/249) Accurately ripped
16 [a303066c] (025/249) Accurately ripped
Offsetted by 1268:
01 [a6884418] (000/250) No match (V2 was not tested)
02 [d85a567e] (000/250) No match (V2 was not tested)
03 [62718334] (000/251) No match (V2 was not tested)
04 [025a0bdc] (000/251) No match (V2 was not tested)
05 [e7ee22ec] (000/256) No match (V2 was not tested)
06 [77f342dd] (000/253) No match
07 [006ca741] (000/252) No match (V2 was not tested)
08 [6dc10800] (000/252) No match (V2 was not tested)
09 [0ddab4c3] (000/252) No match (V2 was not tested)
10 [89a1dab3] (000/252) No match (V2 was not tested)
11 [5bfc306a] (000/254) No match (V2 was not tested)
12 [ee20678a] (000/251) No match (V2 was not tested)
13 [420c54cb] (000/250) No match (V2 was not tested)
14 [8cd2b2d4] (000/251) No match (V2 was not tested)
15 [3e728030] (000/249) No match (V2 was not tested)
16 [8887fd58] (000/249) No match (V2 was not tested)

Track Peak [ CRC32 ] [W/O NULL] [ LOG ]
– 100,0 [8C4D4F1C] [BC50E8FA] CRC32
01 100,0 [1C594287] [466C926B]
02 99,8 [E423D060] [08716358]
03 94,8 [FD7785CD] [41BA2ADE]
04 95,1 [EBF67BEF] [570631EE]
05 90,3 [05EBEA89] [9E21C1CD]
06 96,8 [8BBF3EDA] [0C2E411F]
07 94,8 [A9C760D8] [10F3E1EF]
08 99,9 [EFA3CE06] [B587B689]
09 99,9 [109D2DB9] [56EDA290]
10 99,9 [C9885814] [BD3F2F16]
11 89,8 [8116F6AD] [20160B5C]
12 92,8 [898A89B1] [D3541B5A]
13 100,0 [C17A0870] [93EB1114]
14 100,0 [53061A0A] [7415D1C9]
15 100,0 [F77E4BA2] [F0357818]
16 99,6 [2D7D9D30] [0A2C7EBC]

foobar2000 1.2 / Dynamic Range Meter 1.1.1
log date: 2018-04-28 21:22:54

––––––––––––––––––––––––––––––––––––––––
Analyzed: Paul Weller / Modern Classics - The Greatest Hits
––––––––––––––––––––––––––––––––––––––––

DR Peak RMS Duration Track
––––––––––––––––––––––––––––––––––––––––
DR7 0.00 dB -9.15 dB 3:51 01-Out Of The Sinking
DR8 -0.01 dB -9.08 dB 3:08 02-Peacock Suit
DR8 -0.46 dB -9.78 dB 4:11 03-Sunflower
DR8 -0.43 dB -9.80 dB 3:45 04-The Weaver
DR11 -0.89 dB -15.31 dB 3:23 05-Wild Wood
DR8 -0.28 dB -11.39 dB 3:52 06-Above The Clouds
DR8 -0.46 dB -10.44 dB 3:20 07-Uh-Huh Oh-Yeh
DR7 0.00 dB -8.32 dB 3:33 08-Brushed
DR7 0.00 dB -8.47 dB 3:32 09-The Changingman
DR7 -0.01 dB -8.39 dB 2:20 10-Friday Street
DR10 -0.93 dB -13.58 dB 3:39 11-You Do Something To Me
DR9 -0.64 dB -11.80 dB 4:08 12-Brand New Start
DR8 0.00 dB -10.46 dB 2:42 13-Hung Up
DR8 0.00 dB -9.61 dB 3:04 14-Mermaids
DR10 0.00 dB -11.94 dB 3:22 15-Broken Stones
DR8 -0.03 dB -10.04 dB 3:14 16-Into Tomorrow
––––––––––––––––––––––––––––––––––––––––

Number of tracks: 16
Official DR value: DR8

Samplerate: 44100 Hz
Channels: 2
Bits per sample: 16
Bitrate: 941 kbps
Codec: FLAC
================================================================================


Exact Audio Copy V1.0 beta 2 from 29. April 2011

Отчёт EAC об извлечении, выполненном 29. апреля 2012, 19:24

Paul Weller / Live Classics

Дисковод: Optiarc DVD RW AD-7260S Adapter: 0 ID: 1

Режим чтения : Достоверность
Использование точного потока : Да
Отключение кэша аудио : Да
Использование указателей C2 : Нет

Коррекция смещения при чтении : 48
Способность читать области Lead-in и Lead-out : Нет
Заполнение пропущенных сэмплов тишиной : Да
Удаление блоков с тишиной в начале и конце : Нет
При вычислениях CRC использовались нулевые сэмплы : Да
Интерфейс : Встроенный Win32-интерфейс для Win NT/2000

Выходной формат : Пользовательский кодировщик
Выбранный битрейт : 128 kBit/s
Качество : Высокий
Добавление ID3-тега : Нет
Утилита сжатия : C:\Program Files\Exact Audio Copy\FLAC\FLAC.EXE
Дополнительные параметры : -6 -V -T "ARTIST=%artist%" -T "TITLE=%title%" -T "ALBUM=%albumtitle%" -T "DATE=%year%" -T "TRACKNUMBER=%tracknr%" -T "GENRE=%genre%" -T "COMMENT=%comment%" -T "BAND=%albuminterpret%" -T "COMPOSER=%composer%" %haslyrics%–tag-from-


TOC извлечённого CD

Трек | Старт | Длительность | Начальный сектор | Конечный сектор
––––––––––––––––––––––––––––––––––-
1 | 0:00.00 | 3:48.37 | 0 | 17136
2 | 3:48.37 | 3:11.13 | 17137 | 31474
3 | 6:59.50 | 2:33.37 | 31475 | 42986
4 | 9:33.12 | 3:15.63 | 42987 | 57674
5 | 12:49.00 | 3:41.62 | 57675 | 74311
6 | 16:30.62 | 8:20.00 | 74312 | 111811
7 | 24:50.62 | 3:56.25 | 111812 | 129536
8 | 28:47.12 | 4:46.25 | 129537 | 151011
9 | 33:33.37 | 5:16.00 | 151012 | 174711
10 | 38:49.37 | 3:33.25 | 174712 | 190711
11 | 42:22.62 | 5:27.00 | 190712 | 215236
12 | 47:49.62 | 4:44.63 | 215237 | 236599
13 | 52:34.50 | 4:10.40 | 236600 | 255389


Характеристики диапазона извлечения и сообщения об ошибках

Выбранный диапазон

Имя файла D:\FLAC\Paul Weller - Live Classics - 1998.wav

Пиковый уровень 100.0 %
Скорость извлечения 3.9 X
Качество диапазона 100.0 %
CRC теста 6ED49BAC
CRC копии 6ED49BAC
Копирование… OK

Ошибок не произошло

Конец отчёта

==== Контрольная сумма отчёта AC066096A24E1F98E4366E0014383EDAADE87C4A9BA31F6C202B32DE1F959359 ====

[CUETools log; Date: 28.04.2018 17:19:36; Version: 2.1.4]
[CTDB TOCID: l57hW2qq1VQDIy9LpmPiBL_CPso-] found.
Track | CTDB Status
1 | (44/47) Accurately ripped
2 | (44/47) Accurately ripped
3 | (44/47) Accurately ripped
4 | (44/47) Accurately ripped
5 | (44/47) Accurately ripped
6 | (44/47) Accurately ripped
7 | (44/47) Accurately ripped
8 | (44/47) Accurately ripped
9 | (44/47) Accurately ripped
10 | (45/47) Accurately ripped
11 | (45/47) Accurately ripped
12 | (44/47) Accurately ripped
13 | (45/47) Accurately ripped
[AccurateRip ID: 0019c416-0107db07-a60d4d0d] found.
Track [ CRC | V2 ] Status
01 [814ad329|d1a0729d] (12+13/55) Accurately ripped
02 [ecaf4cc7|fc8bf05a] (13+12/56) Accurately ripped
03 [1923b35b|694459b3] (13+13/57) Accurately ripped
04 [7a715ec5|0d583f31] (13+13/57) Accurately ripped
05 [cb27370e|b1cbf7a4] (13+13/57) Accurately ripped
06 [d5b8c072|404f549e] (13+12/56) Accurately ripped
07 [d6bf8799|e216b494] (13+13/57) Accurately ripped
08 [1b7c2b7b|e0b38c3b] (13+13/56) Accurately ripped
09 [ec4443ce|26362361] (13+12/55) Accurately ripped
10 [fa109c12|2833342d] (13+13/56) Accurately ripped
11 [fa89d897|eef34b04] (13+12/54) Accurately ripped
12 [930843fe|d34cbc6e] (13+11/56) Accurately ripped
13 [1b98963e|644c37cc] (13+12/56) Accurately ripped
Offsetted by 457:
01 [830f6f25] (14/55) Accurately ripped
02 [5f8a83d8] (15/56) Accurately ripped
03 [ab2a99d0] (15/57) Accurately ripped
04 [a6c54235] (15/57) Accurately ripped
05 [50b179b0] (15/57) Accurately ripped
06 [40e958d6] (15/56) Accurately ripped
07 [8af6fca4] (16/57) Accurately ripped
08 [2517db07] (15/56) Accurately ripped
09 [1c373714] (15/55) Accurately ripped
10 [58039623] (15/56) Accurately ripped
11 [01128173] (15/54) Accurately ripped
12 [456f257c] (16/56) Accurately ripped
13 [024da83d] (15/56) Accurately ripped

Track Peak [ CRC32 ] [W/O NULL] [ LOG ]
– 100,0 [6ED49BAC] [26AF9BE2] CRC32
01 96,7 [913FFD4D] [196C7B0B]
02 96,8 [FDB8335F] [4056AD6E]
03 96,8 [C1DBCC9E] [F9A08276]
04 100,0 [18795BC4] [1C825BBE]
05 96,8 [ABC9E03E] [05A2A192]
06 96,8 [227EA6E2] [C46C6B17]
07 96,8 [00E3B084] [ACF17E82]
08 96,8 [5F218BA7] [A2FA065C]
09 96,8 [3AC737F7] [BF6A25A0]
10 96,8 [3ADE2921] [BB277A26]
11 100,0 [03FFAE52] [CDB8208E]
12 96,8 [CEA1DBA2] [6D9DF176]
13 96,8 [729B30CB] [1A2E2FF5]

foobar2000 1.2 / Dynamic Range Meter 1.1.1
log date: 2018-04-28 21:22:10

––––––––––––––––––––––––––––––––––––––––
Analyzed: Paul Weller / Live Classics
––––––––––––––––––––––––––––––––––––––––

DR Peak RMS Duration Track
––––––––––––––––––––––––––––––––––––––––
DR7 -0.29 dB -8.29 dB 3:48 01-Into Tomorrow
DR7 -0.28 dB -8.01 dB 3:11 02-Peacock Suit
DR7 -0.28 dB -7.98 dB 2:33 03-Friday Street
DR7 0.00 dB -8.42 dB 3:16 04-Mermaids
DR7 -0.28 dB -7.96 dB 3:42 05-Out Of The Sinking
DR7 -0.28 dB -8.60 dB 8:20 06-Heavy Soul
DR10 -0.28 dB -11.95 dB 3:56 07-Wild Wood
DR8 -0.28 dB -9.36 dB 4:46 08-Up In Suzes' Room
DR7 -0.28 dB -8.81 dB 5:16 09-Can You Heal Us (Holy Man)
DR6 -0.28 dB -7.20 dB 3:33 10-The Changingman
DR7 0.00 dB -7.85 dB 5:27 11-Porcelain Gods
DR7 -0.28 dB -8.39 dB 4:45 12-Sunflower
DR10 -0.28 dB -11.78 dB 4:11 13-Broken Stones
––––––––––––––––––––––––––––––––––––––––

Number of tracks: 13
Official DR value: DR7

Samplerate: 44100 Hz
Channels: 2
Bits per sample: 16
Bitrate: 953 kbps
Codec: FLAC
================================================================================

Paul Weller - Modern Classics: The Greatest Hits (1998) 2CD Limited Edition

Paul Weller - Modern Classics: The Greatest Hits (1998) 2CD Limited Edition

All thanks to original releaser

More interesting music in My Blog