Subcategories

Peggy Lee - Let's Do It: 20 Great Songs (1997)

Posted By: Designol
Peggy Lee - Let's Do It: 20 Great Songs (1997)

Peggy Lee - Let's Do It: 20 Great Songs (1997)
EAC | FLAC | Tracks (Cue&Log) ~ 277 Mb | Mp3 (CBR320) ~ 137 Mb | Scans included | 00:58:45
Vocal Jazz, Swing, Vocal Pop, Standarts | Label: Music Digital/Delta Music | # CD 6102

A prolific singer, remembered as one of the greatest pop song stylists alongside Ella Fitzgerald, Billie Holiday, and Sarah Vaughan.

Peggy Lee's alluring tone, distinctive delivery, breadth of material, and ability to write many of her own songs made her one of the most captivating artists of the vocal era, from her breakthrough on the Benny Goodman hit "Why Don't You Do Right" to her many solo successes, singles including "Mañana," "Lover" and "Fever" that showed her bewitching vocal power, a balance between sultry swing and impeccable musicianship.

Born Norma Egstrom in Jamestown, North Dakota, she suffered the death of her mother at the age of four and endured a difficult stepmother after her father remarried. Given her sense of swing by listening to Count Basie on the radio, she taught herself to sing and made her radio debut at the age of 14. She made the jump to Fargo (where she was christened Peggy Lee), then to Minneapolis and St. Louis to sing with a regional band. Lee twice journeyed to Hollywood to make her fortune, but returned unsuccessful from both trips.

She finally got her big break in 1941, when a vocal group she worked with began appearing at a club in Chicago. While there, she was heard by Benny Goodman, whose regular vocalist Helen Forrest was about to leave his band. Lee recorded with Goodman just a few days later, debuting with the popular "Elmer's Tune" despite a good deal of nerves. That same year, several songs became commercial successes including "I Got It Bad (And That Ain't Good)" and "Winter Weather." In 1943, "Why Don't You Do Right" became her first major hit, but she left the Goodman band (and the music industry altogether) later that year after marrying Goodman's guitarist, Dave Barbour.

After just over a year of domestic life, Peggy Lee returned to music, first as part of an all-star jazz album. Then, in late 1945, Capitol signed her to a solo contract and she hit the charts with her first shot, "Waitin' for the Train to Come In." Lee continued to score during the late '40s, with over two dozen chart entries before the end of the decade, including "It's a Good Day," "Mañana (Is Soon Enough for Me)" – the most popular song of 1948 – and "I Don't Know Enough About You." Many of her singles were done in conjunction with Barbour, her frequent writing and recording partner.

The Man I Love After moving to Decca in 1952, Peggy Lee scored with the single "Lover" and an LP, Songs From Pete Kelly's Blues recorded with Ella Fitzgerald (both singers also made appearances in the film). She spent only five years at Decca however, before moving back to Capitol. There, she distinguished herself through recording a wide variety of material, including songs – and occasionally, entire LPs – influenced by the blues, Latin and cabaret as well as pop. Lee also used many different settings, like an orchestra conducted by none other than Frank Sinatra for 1957's The Man I Love, the George Shearing Quintet for 1959's live appearance Beauty and the Beat, Quincey Jones as arranger and conductor for 1961's If You Go, and arrangements by Benny Carter on 1963's Mink Jazz. Barbour's problems with alcoholism ended their marriage, though they remained good friends until his death in 1965.
Norma Deloris Egstrom from Jamestown, North DakotaPeggy Lee was an early advocate of rock and made a quick transition into rock-oriented material. Given her depth and open mind for great songs no matter the source, it wasn't much of a surprise that she sounded quite comfortable covering the more song-oriented end of late-'60s rock, including great choices by Jimmy Webb, Buffy Sainte-Marie, Burt Bacharach, Randy Newman, Goffin & King and John Sebastian. She nearly brushed the Top Ten in 1969 with Leiber & Stoller's "Is That All There Is?" She continued recording contemporary material until 1972's Norma Deloris Egstrom From Jamestown, North Dakota brought her back to her roots. It was her last LP for Capitol, however. Lee recorded single LPs for Atlantic, A&M, Polydor UK and DRG before effectively retiring at the beginning of the 1980s. She returned in 1988 with two LPs for Music Masters that revisited her earlier successes. Her last album, Moments Like This, was recorded in 1992 for Chesky. Her voice was effectively silenced after a 1998 stroke, and she died of a heart attack at her Bel Air home in early 2002.

John Bush, Allmusic.com

Peggy Lee - Let's Do It: 20 Great Songs (1997)



Tracklist:

01. Elmer's Tune (2:51)
02. My Old Flame (3:08)
03. How Deep Is The Ocean? (3:21)
04. That's The Way It Goes (3:11)
05. I Threw A Kiss In The Ocean (3:00)
06. I Got It Bad And That Ain't Good (3:16)
07. Shady Lady Bird (2:46)
08. Let's Do It (2:02)
09. Somebody Else It Taking My Place (3:09)
10. We'll Meet Again (3:18)
11. Full Moon (2:10)
12. All I Need Is You (3:23)
13. Why Don't You Do Right? (3:13)
14. Not A Care In The World (3:22)
15. How Long Has It Been Going On? (3:16)
16. That Did It Marie (2:30)
17. Not Mine (3:17)
18. These Foolish Things (Remind Me Of You) (2:17)
19. The Lady Is A Tramp (2:12)
20. Winter Weather (3:02)


Exact Audio Copy V1.0 beta 3 from 29. August 2011

Отчёт EAC об извлечении, выполненном 7. января 2016, 2:38

Peggy Lee / Let's Do It

Дисковод: ASUS DRW-1814BLT Adapter: 4 ID: 0

Режим чтения : Достоверность
Использование точного потока : Да
Отключение кэша аудио : Да
Использование указателей C2 : Нет

Коррекция смещения при чтении : 6
Способность читать области Lead-in и Lead-out : Нет
Заполнение пропущенных сэмплов тишиной : Да
Удаление блоков с тишиной в начале и конце : Нет
При вычислениях CRC использовались нулевые сэмплы : Да
Интерфейс : Встроенный Win32-интерфейс для Win NT/2000
Обработка зазоров : Добавлено к предыдущему треку

Выходной формат : Пользовательский кодировщик
Выбранный битрейт : 128 kBit/s
Качество : Высокий
Добавление ID3-тега : Нет
Утилита сжатия : C:\Program Files\Exact Audio Copy\Flac\flac.exe
Дополнительные параметры : -V -8 -T "Genre=%genre%" -T "Artist=%artist%" -T "Title=%title%" -T "Album=%albumtitle%" -T "Date=%year%" -T "Tracknumber=%tracknr%" -T "Comment=EAC1.0b2 FLAC -8" %source%


TOC извлечённого CD

Трек | Старт | Длительность | Начальный сектор | Конечный сектор
––––––––––––––––––––––––––––––––––-
1 | 0:00.00 | 2:51.36 | 0 | 12860
2 | 2:51.36 | 3:08.14 | 12861 | 26974
3 | 5:59.50 | 3:20.54 | 26975 | 42028
4 | 9:20.29 | 3:10.65 | 42029 | 56343
5 | 12:31.19 | 3:00.02 | 56344 | 69845
6 | 15:31.21 | 3:16.18 | 69846 | 84563
7 | 18:47.39 | 2:46.08 | 84564 | 97021
8 | 21:33.47 | 2:02.05 | 97022 | 106176
9 | 23:35.52 | 3:09.14 | 106177 | 120365
10 | 26:44.66 | 3:17.52 | 120366 | 135192
11 | 30:02.43 | 2:10.11 | 135193 | 144953
12 | 32:12.54 | 3:22.58 | 144954 | 160161
13 | 35:35.37 | 3:13.11 | 160162 | 174647
14 | 38:48.48 | 3:22.27 | 174648 | 189824
15 | 42:11.00 | 3:16.20 | 189825 | 204544
16 | 45:27.20 | 2:30.30 | 204545 | 215824
17 | 47:57.50 | 3:17.17 | 215825 | 230616
18 | 51:14.67 | 2:17.13 | 230617 | 240904
19 | 53:32.05 | 2:11.52 | 240905 | 250781
20 | 55:43.57 | 3:01.57 | 250782 | 264413


Трек 1

Имя файла R:\Раздача 57\Peggy Lee - 1997 - Let's Do It\01 Elmer's Tune.wav

Длина предзазора 0:00:02.00

Пиковый уровень 96.6 %
Скорость извлечения 4.8 X
Качество трека 100.0 %
CRC теста 2A16FC7E
CRC копии 2A16FC7E
Трек не обнаружен в базе AccurateRip
Копирование… OK

Трек 2

Имя файла R:\Раздача 57\Peggy Lee - 1997 - Let's Do It\02 My Old Flame.wav

Длина предзазора 0:00:01.57

Пиковый уровень 96.6 %
Скорость извлечения 5.3 X
Качество трека 100.0 %
CRC теста 5B5B94EF
CRC копии 5B5B94EF
Трек не обнаружен в базе AccurateRip
Копирование… OK

Трек 3

Имя файла R:\Раздача 57\Peggy Lee - 1997 - Let's Do It\03 How Deep Is The Ocean.wav

Длина предзазора 0:00:01.57

Пиковый уровень 96.7 %
Скорость извлечения 5.7 X
Качество трека 100.0 %
CRC теста E2843AE6
CRC копии E2843AE6
Трек не обнаружен в базе AccurateRip
Копирование… OK

Трек 4

Имя файла R:\Раздача 57\Peggy Lee - 1997 - Let's Do It\04 That's The Way It Goes.wav

Длина предзазора 0:00:01.57

Пиковый уровень 96.9 %
Скорость извлечения 4.4 X
Качество трека 99.9 %
CRC теста 3161441A
CRC копии 3161441A
Трек не обнаружен в базе AccurateRip
Копирование… OK

Трек 5

Имя файла R:\Раздача 57\Peggy Lee - 1997 - Let's Do It\05 I Threw A Kiss In The Ocean.wav

Длина предзазора 0:00:01.57

Пиковый уровень 96.9 %
Скорость извлечения 5.4 X
Качество трека 100.0 %
CRC теста E761EBAD
CRC копии E761EBAD
Трек не обнаружен в базе AccurateRip
Копирование… OK

Трек 6

Имя файла R:\Раздача 57\Peggy Lee - 1997 - Let's Do It\06 I Got It Bad And That Ain't Good.wav

Длина предзазора 0:00:01.57

Пиковый уровень 96.8 %
Скорость извлечения 6.7 X
Качество трека 100.0 %
CRC теста FE61E015
CRC копии FE61E015
Трек не обнаружен в базе AccurateRip
Копирование… OK

Трек 7

Имя файла R:\Раздача 57\Peggy Lee - 1997 - Let's Do It\07 Shady Lady Bird.wav

Длина предзазора 0:00:01.57

Пиковый уровень 96.5 %
Скорость извлечения 6.9 X
Качество трека 100.0 %
CRC теста 2DF3A66B
CRC копии 2DF3A66B
Трек не обнаружен в базе AccurateRip
Копирование… OK

Трек 8

Имя файла R:\Раздача 57\Peggy Lee - 1997 - Let's Do It\08 Let's Do It.wav

Длина предзазора 0:00:01.57

Пиковый уровень 95.8 %
Скорость извлечения 6.6 X
Качество трека 100.0 %
CRC теста C5E4A902
CRC копии C5E4A902
Трек не обнаружен в базе AccurateRip
Копирование… OK

Трек 9

Имя файла R:\Раздача 57\Peggy Lee - 1997 - Let's Do It\09 Somebody Else It Taking My Place.wav

Длина предзазора 0:00:01.57

Пиковый уровень 97.0 %
Скорость извлечения 7.4 X
Качество трека 100.0 %
CRC теста 80EDD453
CRC копии 80EDD453
Трек не обнаружен в базе AccurateRip
Копирование… OK

Трек 10

Имя файла R:\Раздача 57\Peggy Lee - 1997 - Let's Do It\10 We'll Meet Again.wav

Длина предзазора 0:00:01.57

Пиковый уровень 96.8 %
Скорость извлечения 7.7 X
Качество трека 100.0 %
CRC теста 04584191
CRC копии 04584191
Трек не обнаружен в базе AccurateRip
Копирование… OK

Трек 11

Имя файла R:\Раздача 57\Peggy Lee - 1997 - Let's Do It\11 Full Moon.wav

Длина предзазора 0:00:01.57

Пиковый уровень 97.0 %
Скорость извлечения 5.1 X
Качество трека 99.9 %
CRC теста 84B25821
CRC копии 84B25821
Трек не обнаружен в базе AccurateRip
Копирование… OK

Трек 12

Имя файла R:\Раздача 57\Peggy Lee - 1997 - Let's Do It\12 All I Need Is You.wav

Длина предзазора 0:00:01.57

Пиковый уровень 97.2 %
Скорость извлечения 8.2 X
Качество трека 100.0 %
CRC теста 15C3F7E4
CRC копии 15C3F7E4
Трек не обнаружен в базе AccurateRip
Копирование… OK

Трек 13

Имя файла R:\Раздача 57\Peggy Lee - 1997 - Let's Do It\13 Why Don't You Do Right.wav

Длина предзазора 0:00:01.57

Пиковый уровень 97.2 %
Скорость извлечения 8.4 X
Качество трека 100.0 %
CRC теста ECDB9377
CRC копии ECDB9377
Трек не обнаружен в базе AccurateRip
Копирование… OK

Трек 14

Имя файла R:\Раздача 57\Peggy Lee - 1997 - Let's Do It\14 Not A Care In The World.wav

Длина предзазора 0:00:01.57

Пиковый уровень 96.6 %
Скорость извлечения 8.7 X
Качество трека 100.0 %
CRC теста C2E704CD
CRC копии C2E704CD
Трек не обнаружен в базе AccurateRip
Копирование… OK

Трек 15

Имя файла R:\Раздача 57\Peggy Lee - 1997 - Let's Do It\15 How Long Has It Been Going On.wav

Длина предзазора 0:00:01.57

Пиковый уровень 97.1 %
Скорость извлечения 8.9 X
Качество трека 100.0 %
CRC теста 2E9C1326
CRC копии 2E9C1326
Трек не обнаружен в базе AccurateRip
Копирование… OK

Трек 16

Имя файла R:\Раздача 57\Peggy Lee - 1997 - Let's Do It\16 That Did It Marie.wav

Длина предзазора 0:00:01.57

Пиковый уровень 96.5 %
Скорость извлечения 6.1 X
Качество трека 99.9 %
CRC теста 1E6A5EC8
CRC копии 1E6A5EC8
Трек не обнаружен в базе AccurateRip
Копирование… OK

Трек 17

Имя файла R:\Раздача 57\Peggy Lee - 1997 - Let's Do It\17 Not Mine.wav

Длина предзазора 0:00:01.57

Пиковый уровень 97.1 %
Скорость извлечения 6.8 X
Качество трека 99.9 %
CRC теста D887F396
CRC копии D887F396
Трек не обнаружен в базе AccurateRip
Копирование… OK

Трек 18

Имя файла R:\Раздача 57\Peggy Lee - 1997 - Let's Do It\18 These Foolish Things (Remind Me Of You).wav

Длина предзазора 0:00:01.57

Пиковый уровень 96.0 %
Скорость извлечения 8.9 X
Качество трека 100.0 %
CRC теста 78CF75C7
CRC копии 78CF75C7
Трек не обнаружен в базе AccurateRip
Копирование… OK

Трек 19

Имя файла R:\Раздача 57\Peggy Lee - 1997 - Let's Do It\19 The Lady Is A Tramp.wav

Длина предзазора 0:00:01.57

Пиковый уровень 96.4 %
Скорость извлечения 8.9 X
Качество трека 100.0 %
CRC теста 5544DDB5
CRC копии 5544DDB5
Трек не обнаружен в базе AccurateRip
Копирование… OK

Трек 20

Имя файла R:\Раздача 57\Peggy Lee - 1997 - Let's Do It\20 Winter Weather.wav

Длина предзазора 0:00:01.57

Пиковый уровень 96.7 %
Скорость извлечения 9.5 X
Качество трека 100.0 %
CRC теста D2471681
CRC копии D2471681
Трек не обнаружен в базе AccurateRip
Копирование… OK


Ни одного трека нет в базе AccurateRip

Ошибок не произошло

Конец отчёта

==== Контрольная сумма отчёта 40FCDF1180D987FAA9BF1FB29F89F0DB2ADF80097F981370DFEE76CE8D600B12 ====

[CUETools log; Date: 17.04.2018 7:03:39; Version: 2.1.4]
[CTDB TOCID: H5pdGIrA5QuN_rhxU_bGF7CKJQU-] disk not present in database.
[AccurateRip ID: 002b2716-0276d5e9-120dc514] disk not present in database.

Track Peak [ CRC32 ] [W/O NULL] [ LOG ]
– 97,2 [87545861] [A3C83ACD]
01 96,6 [2A16FC7E] [E61B59DD] CRC32
02 96,6 [5B5B94EF] [D7A39069] CRC32
03 96,7 [E2843AE6] [993C5276] CRC32
04 96,9 [3161441A] [FE2A6C24] CRC32
05 96,9 [E761EBAD] [9E576A20] CRC32
06 96,8 [FE61E015] [D793A9A0] CRC32
07 96,5 [2DF3A66B] [21080A7C] CRC32
08 95,8 [C5E4A902] [2A95E19D] CRC32
09 97,0 [80EDD453] [B748780F] CRC32
10 96,8 [04584191] [F8B760AB] CRC32
11 97,0 [84B25821] [0C0811CB] CRC32
12 97,2 [15C3F7E4] [1BC85CBD] CRC32
13 97,2 [ECDB9377] [184DDF36] CRC32
14 96,6 [C2E704CD] [80320462] CRC32
15 97,1 [2E9C1326] [8C1A3046] CRC32
16 96,5 [1E6A5EC8] [9BE56036] CRC32
17 97,1 [D887F396] [6551ADF6] CRC32
18 96,0 [78CF75C7] [F89EDE03] CRC32
19 96,4 [5544DDB5] [3B06C7B8] CRC32
20 96,7 [D2471681] [A710F515] CRC32

foobar2000 1.2 / Dynamic Range Meter 1.1.1
log date: 2018-04-20 20:24:17

––––––––––––––––––––––––––––––––––––––––
Analyzed: Peggy Lee / Let's Do It
––––––––––––––––––––––––––––––––––––––––

DR Peak RMS Duration Track
––––––––––––––––––––––––––––––––––––––––
DR9 -0.29 dB -10.78 dB 2:51 01-Elmer's Tune
DR7 -0.29 dB -10.03 dB 3:08 02-My Old Flame
DR8 -0.29 dB -10.60 dB 3:21 03-How Deep Is The Ocean?
DR7 -0.27 dB -9.55 dB 3:11 04-That's The Way It Goes
DR8 -0.27 dB -10.36 dB 3:00 05-I Threw A Kiss In The Ocean
DR8 -0.28 dB -9.95 dB 3:16 06-I Got It Bad And That Ain't Good
DR9 -0.31 dB -10.98 dB 2:46 07-Shady Lady Bird
DR8 -0.37 dB -11.01 dB 2:02 08-Let's Do It
DR6 -0.26 dB -8.61 dB 3:09 09-Somebody Else It Taking My Place
DR6 -0.28 dB -8.37 dB 3:18 10-We'll Meet Again
DR6 -0.26 dB -8.10 dB 2:10 11-Full Moon
DR6 -0.24 dB -8.75 dB 3:23 12-All I Need Is You
DR6 -0.25 dB -9.02 dB 3:13 13-Why Don't You Do Right?
DR6 -0.29 dB -9.04 dB 3:22 14-Not A Care In The World
DR5 -0.25 dB -7.03 dB 3:16 15-How Long Has It Been Going On?
DR7 -0.31 dB -9.90 dB 2:30 16-That Did It Marie
DR6 -0.25 dB -8.37 dB 3:17 17-Not Mine
DR8 -0.35 dB -11.88 dB 2:17 18-These Foolish Things (Remind Me Of You)
DR8 -0.31 dB -10.58 dB 2:12 19-The Lady Is A Tramp
DR8 -0.29 dB -10.72 dB 3:02 20-Winter Weather
––––––––––––––––––––––––––––––––––––––––

Number of tracks: 20
Official DR value: DR7

Samplerate: 44100 Hz
Channels: 2
Bits per sample: 16
Bitrate: 622 kbps
Codec: FLAC
================================================================================

Peggy Lee - Let's Do It: 20 Great Songs (1997)

Peggy Lee - Let's Do It: 20 Great Songs (1997)