Subcategories

Pentangle - The Lost Broadcasts 1968-1972 (2004) 2CD

Posted By: Designol
Pentangle - The Lost Broadcasts 1968-1972 (2004) 2CD

Pentangle - The Lost Broadcasts 1968-1972 (2004) 2CD
EAC | FLAC | Tracks (Cue&Log) ~ 735 Mb | Mp3 (CBR320) ~ 340 Mb | Scans included
Progressive Folk, British Folk-Rock, Psychedelic | Label: Hux | # Hux 049 | 02:25:34

This double CD of Pentangle's BBC recordings is comprised primarily of rare and previously unheard tracks. From 1968 to 1973 Pentangle were prolific session guests on BBC radio, their unique fusion of sounds providing access to programmes covering folk, pop and progressive rock. When BBC cupboards were trawled for these recordings in the early nineties they were almost bare - a mere handful of tracks survived in the tape archive (released on the band of joy/strange fruit labels). Here at last, with previously unreleased songs among classics from all six of their albums, is a representative history of the Pentangle at the BBC. The accompanying 12 page booklet includes comprehensive liner notes, a full discography of Pentangle's BBC recordings, and several rare photographs.

Pentangle earned its inclusion in the holy trinity of British folk-rock – along with Fairport Convention and Steeleye Span – through a combination of vision, tenacity, and the virtuoso guitar playing of John Renbourn and Bert Jansch. At their peak they were a force of nature, seamlessly incorporating blues and jazz into the structured world of traditional folk like culinary graduates in their first real kitchen. The Lost Broadcasts: 1968-1972, consisting of 41 tracks from their numerous appearances on BBC radio, serves as a window into the group's most prolific era. Originally released in the mid-'90s on Live at the BBC and On Air as a nine-song set, Broadcasts features 12 cuts from BBC transcription discs and 20-odd tunes recorded off-air from AM broadcasts by devoted fan and collector David Moore. The decidedly lo-fi sound on the majority of cuts may turn away the curious, but fans will grin from ear to ear as the band blows through classics like "Light Flight," "Let No Man Steal Your Thyme," and a truly spooky version of "Hunting Song." While the arrangements closely mirror the original studio takes, the performances expound on them. Jacqui McShee, who was blessed with one of the clearest yet often weak in comparison to Maddy Prior and Sandy Denny voices of the genre, displays complete power on these sessions, making one wonder if the studio was an improper environment for her considerable talents. The previously unreleased "Name of the Game," originally recorded for the soundtrack to a film called Tam Lin, showcases Renbourn and Jansch's dual assault, and Danny Thompson, who was absent from a few recordings due to a wrist injury, provides a wicked bass solo on "I've Got a Feeling." Sound quality aside, Lost Broadcasts delivers what many devotees have been craving for decades, a snapshot of one of British folk's most versatile collectives at their creative peak.

Review by James Christopher Monger, Allmusic.com

Pentangle at Allmusic
Pentangle at Wiki

Tracklist:

CD1:

01. Hear My Call (3:16)
02. Turn Your Money Green (2:42)
03. Travelling Song (2:42)
04. Let No Man Steal Your Thyme (2:26)
05. Soho (3:56)
06. No More My Lord (3:23)
07. Every Night When The Sun Goes In (2:25)
08. I Am Lonely (3:13)
09. Forty-Eight (2:54)
10. Orlando (1:38)
11. Three Dances: Bransle Gay-La Rotta-The Earle Of Salisbury (3:27)
12. The Time Has Gone (3:11)
13. I've Got A Feeling (4:48)
14. Sweet Child (5:05)
15. In Your Mind (2:12)
16. I Loved A Lass (2:37)
17. Sovay (2:34)
18. Sally Go Round The Roses (3:27)
19. Bruton Town (4:56)
20. Cold Mountain (2:03)
21. I Am Lonely (2:35)
22. The Cuckoo (2:59)
23. Light Flight (3:30)

CD2:

01. Hunting Song (7:06)
02. Moondog (2:43)
03. House Carpenter (4:44)
04. Name Of The Game (2:46)
05. Train Song (3:30)
06. Springtime Promises (4:01)
07. Country Blues (1:52)
08. The Trees They Do Grow High (3:44)
09. Lyke Wake Dirge (3:52)
10. Reynardine (4:25)
11. Light Flight (3:30)
12. A Maid That's Deep In Love (5:22)
13. Will The Circle Be Unbroken? (3:46)
14. Lord Franklin (2:38)
15. Lady Of Carlisle (4:20)
16. People Of The Highway (5:14)
17. No Love Is Sorrow (2:53)
18. Jump Baby Jump (4:11)
19. Cherry Tree Carol (3:00)


Exact Audio Copy V1.0 beta 2 from 29. April 2011

EAC extraction logfile from 24. October 2011, 14:49

Pentangle / The Lost Broadcasts 1968 - 1972 - Disc One

Used drive : Optiarc DVD+-RW AD-5560A Adapter: 0 ID: 0

Read mode : Secure
Utilize accurate stream : Yes
Defeat audio cache : Yes
Make use of C2 pointers : No

Read offset correction : 6
Overread into Lead-In and Lead-Out : No
Fill up missing offset samples with silence : Yes
Delete leading and trailing silent blocks : No
Null samples used in CRC calculations : Yes
Used interface : Native Win32 interface for Win NT & 2000
Gap handling : Appended to previous track

Used output format : User Defined Encoder
Selected bitrate : 1024 kBit/s
Quality : High
Add ID3 tag : No
Command line compressor : C:\Program Files\Exact Audio Copy\Flac\flac.exe
Additional command line options : -8 -V -T "ARTIST=%artist%" -T "TITLE=%title%" -T "ALBUM=%albumtitle%" -T "DATE=%year%" -T "TRACKNUMBER=%tracknr%" -T "GENRE=%genre%" -T "PERFORMER=%albuminterpret%" -T "COMPOSER=%composer%" %haslyrics%–tag-from-file=LYRICS


TOC of the extracted CD

Track | Start | Length | Start sector | End sector
––––––––––––––––––––––––––––-
1 | 0:00.00 | 3:16.09 | 0 | 14708
2 | 3:16.09 | 2:42.10 | 14709 | 26868
3 | 5:58.19 | 2:42.19 | 26869 | 39037
4 | 8:40.38 | 2:25.51 | 39038 | 49963
5 | 11:06.14 | 3:56.03 | 49964 | 67666
6 | 15:02.17 | 3:22.40 | 67667 | 82856
7 | 18:24.57 | 2:25.28 | 82857 | 93759
8 | 20:50.10 | 3:12.53 | 93760 | 108212
9 | 24:02.63 | 2:53.55 | 108213 | 121242
10 | 26:56.43 | 1:37.69 | 121243 | 128586
11 | 28:34.37 | 3:26.59 | 128587 | 144095
12 | 32:01.21 | 3:10.61 | 144096 | 158406
13 | 35:12.07 | 4:48.34 | 158407 | 180040
14 | 40:00.41 | 5:05.25 | 180041 | 202940
15 | 45:05.66 | 2:11.53 | 202941 | 212818
16 | 47:17.44 | 2:36.53 | 212819 | 224571
17 | 49:54.22 | 2:34.32 | 224572 | 236153
18 | 52:28.54 | 3:27.13 | 236154 | 251691
19 | 55:55.67 | 4:56.21 | 251692 | 273912
20 | 60:52.13 | 2:03.10 | 273913 | 283147
21 | 62:55.23 | 2:34.51 | 283148 | 294748
22 | 65:29.74 | 2:58.54 | 294749 | 308152
23 | 68:28.53 | 3:29.65 | 308153 | 323892


Track 1

Filename C:\Documents and Settings\admin\Desktop\Pentangle - The Lost Broadcasts @ FLAC\01 Hear My Call.wav

Pre-gap length 0:00:02.00

Peak level 84.0 %
Extraction speed 2.6 X
Track quality 100.0 %
Test CRC 0442D65D
Copy CRC 0442D65D
Accurately ripped (confidence 5) [0DE8F5E9] (AR v1)
Copy OK

Track 2

Filename C:\Documents and Settings\admin\Desktop\Pentangle - The Lost Broadcasts @ FLAC\02 Turn Your Money Green.wav

Peak level 80.8 %
Extraction speed 2.8 X
Track quality 100.0 %
Test CRC 352671EE
Copy CRC 352671EE
Accurately ripped (confidence 5) [720C094E] (AR v1)
Copy OK

Track 3

Filename C:\Documents and Settings\admin\Desktop\Pentangle - The Lost Broadcasts @ FLAC\03 Travelling Song.wav

Peak level 81.0 %
Extraction speed 2.9 X
Track quality 100.0 %
Test CRC 78638C01
Copy CRC 78638C01
Accurately ripped (confidence 5) [3BDA4D7A] (AR v1)
Copy OK

Track 4

Filename C:\Documents and Settings\admin\Desktop\Pentangle - The Lost Broadcasts @ FLAC\04 Let No Man Steal Your Thyme.wav

Peak level 85.6 %
Extraction speed 3.0 X
Track quality 100.0 %
Test CRC BDAC2F66
Copy CRC BDAC2F66
Accurately ripped (confidence 5) [0AA03BB2] (AR v1)
Copy OK

Track 5

Filename C:\Documents and Settings\admin\Desktop\Pentangle - The Lost Broadcasts @ FLAC\05 Soho.wav

Peak level 74.1 %
Extraction speed 2.9 X
Track quality 99.9 %
Test CRC EB4FE8BC
Copy CRC EB4FE8BC
Accurately ripped (confidence 5) [CA744CC5] (AR v1)
Copy OK

Track 6

Filename C:\Documents and Settings\admin\Desktop\Pentangle - The Lost Broadcasts @ FLAC\06 No More My Lord.wav

Peak level 84.8 %
Extraction speed 2.9 X
Track quality 99.9 %
Test CRC F75AEFAF
Copy CRC F75AEFAF
Accurately ripped (confidence 5) [22C223DF] (AR v1)
Copy OK

Track 7

Filename C:\Documents and Settings\admin\Desktop\Pentangle - The Lost Broadcasts @ FLAC\07 Every Night When The Sun Goes In.wav

Peak level 85.3 %
Extraction speed 3.5 X
Track quality 100.0 %
Test CRC 4DBC6958
Copy CRC 4DBC6958
Accurately ripped (confidence 5) [7A043000] (AR v1)
Copy OK

Track 8

Filename C:\Documents and Settings\admin\Desktop\Pentangle - The Lost Broadcasts @ FLAC\08 I Am Lonely.wav

Peak level 85.8 %
Extraction speed 3.8 X
Track quality 100.0 %
Test CRC A06EE0D1
Copy CRC A06EE0D1
Accurately ripped (confidence 5) [8CE90AA5] (AR v1)
Copy OK

Track 9

Filename C:\Documents and Settings\admin\Desktop\Pentangle - The Lost Broadcasts @ FLAC\09 Forty-Eight.wav

Peak level 79.3 %
Extraction speed 3.9 X
Track quality 100.0 %
Test CRC B741841F
Copy CRC B741841F
Accurately ripped (confidence 5) [08476145] (AR v1)
Copy OK

Track 10

Filename C:\Documents and Settings\admin\Desktop\Pentangle - The Lost Broadcasts @ FLAC\10 Orlando.wav

Peak level 88.1 %
Extraction speed 2.5 X
Track quality 99.8 %
Test CRC 43550784
Copy CRC 43550784
Accurately ripped (confidence 5) [3F651397] (AR v1)
Copy OK

Track 11

Filename C:\Documents and Settings\admin\Desktop\Pentangle - The Lost Broadcasts @ FLAC\11 Three Dances- Bransle Gay-La Rotta-The Earle Of Salisbury.wav

Peak level 82.7 %
Extraction speed 3.4 X
Track quality 99.9 %
Test CRC 97196E63
Copy CRC 97196E63
Accurately ripped (confidence 5) [BECB884D] (AR v1)
Copy OK

Track 12

Filename C:\Documents and Settings\admin\Desktop\Pentangle - The Lost Broadcasts @ FLAC\12 The Time Has Gone.wav

Peak level 87.0 %
Extraction speed 4.3 X
Track quality 100.0 %
Test CRC BECAD6F9
Copy CRC BECAD6F9
Accurately ripped (confidence 5) [3B2AD16E] (AR v1)
Copy OK

Track 13

Filename C:\Documents and Settings\admin\Desktop\Pentangle - The Lost Broadcasts @ FLAC\13 I've Got A Feeling.wav

Peak level 82.0 %
Extraction speed 4.7 X
Track quality 100.0 %
Test CRC 703AF6A0
Copy CRC 703AF6A0
Accurately ripped (confidence 5) [D5E9AEF1] (AR v1)
Copy OK

Track 14

Filename C:\Documents and Settings\admin\Desktop\Pentangle - The Lost Broadcasts @ FLAC\14 Sweet Child.wav

Peak level 82.5 %
Extraction speed 4.9 X
Track quality 100.0 %
Test CRC 575F7186
Copy CRC 575F7186
Accurately ripped (confidence 5) [97384D58] (AR v1)
Copy OK

Track 15

Filename C:\Documents and Settings\admin\Desktop\Pentangle - The Lost Broadcasts @ FLAC\15 In Your Mind.wav

Peak level 84.4 %
Extraction speed 4.4 X
Track quality 100.0 %
Test CRC EA3C25BE
Copy CRC EA3C25BE
Accurately ripped (confidence 5) [6F2317E6] (AR v1)
Copy OK

Track 16

Filename C:\Documents and Settings\admin\Desktop\Pentangle - The Lost Broadcasts @ FLAC\16 I Loved A Lass.wav

Peak level 85.9 %
Extraction speed 3.6 X
Track quality 99.9 %
Test CRC F2001DB3
Copy CRC F2001DB3
Accurately ripped (confidence 5) [16E230E6] (AR v1)
Copy OK

Track 17

Filename C:\Documents and Settings\admin\Desktop\Pentangle - The Lost Broadcasts @ FLAC\17 Sovay.wav

Peak level 84.7 %
Extraction speed 4.7 X
Track quality 100.0 %
Test CRC E99701A9
Copy CRC E99701A9
Accurately ripped (confidence 5) [46E45D84] (AR v1)
Copy OK

Track 18

Filename C:\Documents and Settings\admin\Desktop\Pentangle - The Lost Broadcasts @ FLAC\18 Sally Go Round The Roses.wav

Peak level 87.7 %
Extraction speed 4.1 X
Track quality 99.9 %
Test CRC 88FDE826
Copy CRC 88FDE826
Accurately ripped (confidence 5) [DD76B36C] (AR v1)
Copy OK

Track 19

Filename C:\Documents and Settings\admin\Desktop\Pentangle - The Lost Broadcasts @ FLAC\19 Bruton Town.wav

Peak level 85.6 %
Extraction speed 5.5 X
Track quality 100.0 %
Test CRC DB0B5B9A
Copy CRC DB0B5B9A
Accurately ripped (confidence 5) [C66B8ED5] (AR v1)
Copy OK

Track 20

Filename C:\Documents and Settings\admin\Desktop\Pentangle - The Lost Broadcasts @ FLAC\20 Cold Mountain.wav

Peak level 85.1 %
Extraction speed 3.5 X
Track quality 99.9 %
Test CRC A7EE38CD
Copy CRC A7EE38CD
Accurately ripped (confidence 5) [8F67D01B] (AR v1)
Copy OK

Track 21

Filename C:\Documents and Settings\admin\Desktop\Pentangle - The Lost Broadcasts @ FLAC\21 I Am Lonely.wav

Peak level 84.3 %
Extraction speed 3.9 X
Track quality 99.9 %
Test CRC AB0CA7E3
Copy CRC AB0CA7E3
Accurately ripped (confidence 5) [DED6D300] (AR v1)
Copy OK

Track 22

Filename C:\Documents and Settings\admin\Desktop\Pentangle - The Lost Broadcasts @ FLAC\22 The Cuckoo.wav

Peak level 87.1 %
Extraction speed 5.4 X
Track quality 100.0 %
Test CRC 078B9050
Copy CRC 078B9050
Accurately ripped (confidence 5) [98F4731B] (AR v1)
Copy OK

Track 23

Filename C:\Documents and Settings\admin\Desktop\Pentangle - The Lost Broadcasts @ FLAC\23 Light Flight.wav

Peak level 86.4 %
Extraction speed 4.5 X
Track quality 99.9 %
Test CRC 8CE1AC48
Copy CRC 8CE1AC48
Accurately ripped (confidence 5) [18ACC4F2] (AR v1)
Copy OK


All tracks accurately ripped

No errors occurred

End of status report

==== Log checksum F24E8B510D80D6F36C5B95B8E455E792F3B877CE0AA1E891CEF3476BF9979A29 ====

foobar2000 1.1.16 / Dynamic Range Meter 1.1.1
log date: 2012-11-07 14:33:13

––––––––––––––––––––––––––––––––––––––––
Analyzed: Pentangle / The Lost Broadcasts 1968 - 1972 - Disc One
––––––––––––––––––––––––––––––––––––––––

DR Peak RMS Duration Track
––––––––––––––––––––––––––––––––––––––––
DR6 -0.20 dB -8.97 dB 3:16 01-Hear My Call
DR9 -1.84 dB -12.66 dB 2:42 02-Turn Your Money Green
DR9 -1.82 dB -12.71 dB 2:42 03-Travelling Song
DR7 -1.35 dB -10.92 dB 2:26 04-Let No Man Steal Your Thyme
DR9 -2.60 dB -14.06 dB 3:56 05-Soho
DR8 -1.42 dB -12.35 dB 3:23 06-No More My Lord
DR5 -1.38 dB -9.57 dB 2:25 07-Every Night When The Sun Goes In
DR9 -1.32 dB -12.39 dB 3:13 08-I Am Lonely
DR11 -2.01 dB -17.26 dB 2:54 09-Forty-Eight
DR7 -1.10 dB -12.10 dB 1:38 10-Orlando
DR8 -1.65 dB -12.47 dB 3:27 11-Three Dances: Bransle Gay-La Rotta-The Earle Of Salisbury
DR8 -1.20 dB -12.74 dB 3:11 12-The Time Has Gone
DR8 -1.72 dB -13.14 dB 4:48 13-I've Got A Feeling
DR8 -1.66 dB -11.13 dB 5:05 14-Sweet Child
DR7 -1.46 dB -9.49 dB 2:12 15-In Your Mind
DR7 -1.32 dB -9.41 dB 2:37 16-I Loved A Lass
DR8 -1.44 dB -10.74 dB 2:34 17-Sovay
DR6 -1.13 dB -8.36 dB 3:27 18-Sally Go Round The Roses
DR8 -1.35 dB -10.59 dB 4:56 19-Bruton Town
DR7 -1.40 dB -9.27 dB 2:03 20-Cold Mountain
DR5 -1.48 dB -8.48 dB 2:35 21-I Am Lonely
DR7 -1.19 dB -9.75 dB 2:59 22-The Cuckoo
DR7 -1.26 dB -9.29 dB 3:30 23-Light Flight
––––––––––––––––––––––––––––––––––––––––

Number of tracks: 23
Official DR value: DR7

Samplerate: 44100 Hz
Channels: 2
Bits per sample: 16
Bitrate: 756 kbps
Codec: FLAC
================================================================================

Exact Audio Copy V1.0 beta 2 from 29. April 2011

EAC extraction logfile from 24. October 2011, 16:27

Pentangle / The Lost Broadcasts 1968 - 1972 - Disc 2

Used drive : Optiarc DVD+-RW AD-5560A Adapter: 0 ID: 0

Read mode : Secure
Utilize accurate stream : Yes
Defeat audio cache : Yes
Make use of C2 pointers : No

Read offset correction : 6
Overread into Lead-In and Lead-Out : No
Fill up missing offset samples with silence : Yes
Delete leading and trailing silent blocks : No
Null samples used in CRC calculations : Yes
Used interface : Native Win32 interface for Win NT & 2000
Gap handling : Appended to previous track

Used output format : User Defined Encoder
Selected bitrate : 1024 kBit/s
Quality : High
Add ID3 tag : No
Command line compressor : C:\Program Files\Exact Audio Copy\Flac\flac.exe
Additional command line options : -8 -V -T "ARTIST=%artist%" -T "TITLE=%title%" -T "ALBUM=%albumtitle%" -T "DATE=%year%" -T "TRACKNUMBER=%tracknr%" -T "GENRE=%genre%" -T "PERFORMER=%albuminterpret%" -T "COMPOSER=%composer%" %haslyrics%–tag-from-file=LYRICS


TOC of the extracted CD

Track | Start | Length | Start sector | End sector
––––––––––––––––––––––––––––-
1 | 0:00.00 | 7:06.24 | 0 | 31973
2 | 7:06.24 | 2:43.01 | 31974 | 44199
3 | 9:49.25 | 4:43.62 | 44200 | 65486
4 | 14:33.12 | 2:45.52 | 65487 | 77913
5 | 17:18.64 | 3:29.68 | 77914 | 93656
6 | 20:48.57 | 4:01.29 | 93657 | 111760
7 | 24:50.11 | 1:51.41 | 111761 | 120126
8 | 26:41.52 | 3:44.02 | 120127 | 136928
9 | 30:25.54 | 3:52.21 | 136929 | 154349
10 | 34:18.00 | 4:24.71 | 154350 | 174220
11 | 38:42.71 | 3:30.03 | 174221 | 189973
12 | 42:12.74 | 5:21.41 | 189974 | 214089
13 | 47:34.40 | 3:46.14 | 214090 | 231053
14 | 51:20.54 | 2:37.70 | 231054 | 242898
15 | 53:58.49 | 4:19.66 | 242899 | 262389
16 | 58:18.40 | 5:14.33 | 262390 | 285972
17 | 63:32.73 | 2:52.60 | 285973 | 298932
18 | 66:25.58 | 4:10.52 | 298933 | 317734
19 | 70:36.35 | 2:59.65 | 317735 | 331224


Track 1

Filename C:\Documents and Settings\admin\Desktop\Pentangle - The Lost Broadcasts @ FLAC - E.A.C\CD 2\01 Hunting Song.wav

Pre-gap length 0:00:02.00

Peak level 87.9 %
Extraction speed 3.1 X
Track quality 100.0 %
Test CRC 42BE79A5
Copy CRC 42BE79A5
Accurately ripped (confidence 5) [6C072DD6] (AR v1)
Copy OK

Track 2

Filename C:\Documents and Settings\admin\Desktop\Pentangle - The Lost Broadcasts @ FLAC - E.A.C\CD 2\02 Moondog.wav

Peak level 81.4 %
Extraction speed 2.3 X
Track quality 99.9 %
Test CRC FBBBAAD2
Copy CRC FBBBAAD2
Accurately ripped (confidence 5) [3FA610EE] (AR v1)
Copy OK

Track 3

Filename C:\Documents and Settings\admin\Desktop\Pentangle - The Lost Broadcasts @ FLAC - E.A.C\CD 2\03 House Carpenter.wav

Peak level 80.7 %
Extraction speed 2.9 X
Track quality 99.9 %
Test CRC A3B3CC70
Copy CRC A3B3CC70
Accurately ripped (confidence 5) [79108AC9] (AR v1)
Copy OK

Track 4

Filename C:\Documents and Settings\admin\Desktop\Pentangle - The Lost Broadcasts @ FLAC - E.A.C\CD 2\04 Name Of The Game.wav

Peak level 78.9 %
Extraction speed 2.6 X
Track quality 99.9 %
Test CRC B555BEDF
Copy CRC B555BEDF
Accurately ripped (confidence 5) [5E290396] (AR v1)
Copy OK

Track 5

Filename C:\Documents and Settings\admin\Desktop\Pentangle - The Lost Broadcasts @ FLAC - E.A.C\CD 2\05 Train Song.wav

Peak level 83.5 %
Extraction speed 3.7 X
Track quality 100.0 %
Test CRC 1196A2C6
Copy CRC 1196A2C6
Accurately ripped (confidence 5) [CAC5F467] (AR v1)
Copy OK

Track 6

Filename C:\Documents and Settings\admin\Desktop\Pentangle - The Lost Broadcasts @ FLAC - E.A.C\CD 2\06 Springtime Promises.wav

Peak level 71.2 %
Extraction speed 3.9 X
Track quality 100.0 %
Test CRC 6285F055
Copy CRC 6285F055
Accurately ripped (confidence 5) [8655F514] (AR v1)
Copy OK

Track 7

Filename C:\Documents and Settings\admin\Desktop\Pentangle - The Lost Broadcasts @ FLAC - E.A.C\CD 2\07 Country Blues.wav

Peak level 88.7 %
Extraction speed 2.5 X
Track quality 99.9 %
Test CRC D789CE9C
Copy CRC D789CE9C
Accurately ripped (confidence 5) [E1A7ABA6] (AR v1)
Copy OK

Track 8

Filename C:\Documents and Settings\admin\Desktop\Pentangle - The Lost Broadcasts @ FLAC - E.A.C\CD 2\08 The Trees They Do Grow High.wav

Peak level 83.8 %
Extraction speed 4.1 X
Track quality 100.0 %
Test CRC 1C6A4DAA
Copy CRC 1C6A4DAA
Accurately ripped (confidence 5) [83C65962] (AR v1)
Copy OK

Track 9

Filename C:\Documents and Settings\admin\Desktop\Pentangle - The Lost Broadcasts @ FLAC - E.A.C\CD 2\09 Lyke Wake Dirge.wav

Peak level 76.2 %
Extraction speed 4.3 X
Track quality 100.0 %
Test CRC 7C6863F2
Copy CRC 7C6863F2
Accurately ripped (confidence 5) [E5A1A85E] (AR v1)
Copy OK

Track 10

Filename C:\Documents and Settings\admin\Desktop\Pentangle - The Lost Broadcasts @ FLAC - E.A.C\CD 2\10 Reynardine.wav

Peak level 76.5 %
Extraction speed 3.8 X
Track quality 99.9 %
Test CRC 9C0AB6A8
Copy CRC 9C0AB6A8
Accurately ripped (confidence 5) [7D163EB7] (AR v1)
Copy OK

Track 11

Filename C:\Documents and Settings\admin\Desktop\Pentangle - The Lost Broadcasts @ FLAC - E.A.C\CD 2\11 Light Flight.wav

Peak level 83.5 %
Extraction speed 4.6 X
Track quality 100.0 %
Test CRC 04BA385C
Copy CRC 04BA385C
Accurately ripped (confidence 5) [558AEBEF] (AR v1)
Copy OK

Track 12

Filename C:\Documents and Settings\admin\Desktop\Pentangle - The Lost Broadcasts @ FLAC - E.A.C\CD 2\12 A Maid That's Deep In Love.wav

Peak level 83.0 %
Extraction speed 5.0 X
Track quality 100.0 %
Test CRC DFAF4A1C
Copy CRC DFAF4A1C
Accurately ripped (confidence 5) [6013EDC7] (AR v1)
Copy OK

Track 13

Filename C:\Documents and Settings\admin\Desktop\Pentangle - The Lost Broadcasts @ FLAC - E.A.C\CD 2\13 Will The Circle Be Unbroken.wav

Peak level 83.9 %
Extraction speed 4.9 X
Track quality 100.0 %
Test CRC AD3DE9D4
Copy CRC AD3DE9D4
Accurately ripped (confidence 5) [55E21C79] (AR v1)
Copy OK

Track 14

Filename C:\Documents and Settings\admin\Desktop\Pentangle - The Lost Broadcasts @ FLAC - E.A.C\CD 2\14 Lord Franklin.wav

Peak level 80.0 %
Extraction speed 4.7 X
Track quality 100.0 %
Test CRC FBCA5FEB
Copy CRC FBCA5FEB
Accurately ripped (confidence 5) [A8D18B21] (AR v1)
Copy OK

Track 15

Filename C:\Documents and Settings\admin\Desktop\Pentangle - The Lost Broadcasts @ FLAC - E.A.C\CD 2\15 Lady Of Carlisle.wav

Peak level 80.6 %
Extraction speed 5.2 X
Track quality 100.0 %
Test CRC 1977AFA4
Copy CRC 1977AFA4
Accurately ripped (confidence 5) [D0A3A0C5] (AR v1)
Copy OK

Track 16

Filename C:\Documents and Settings\admin\Desktop\Pentangle - The Lost Broadcasts @ FLAC - E.A.C\CD 2\16 People Of The Highway.wav

Peak level 82.6 %
Extraction speed 5.5 X
Track quality 100.0 %
Test CRC 04EAA5AA
Copy CRC 04EAA5AA
Accurately ripped (confidence 5) [A8D12B98] (AR v1)
Copy OK

Track 17

Filename C:\Documents and Settings\admin\Desktop\Pentangle - The Lost Broadcasts @ FLAC - E.A.C\CD 2\17 No Love Is Sorrow.wav

Peak level 87.2 %
Extraction speed 5.2 X
Track quality 100.0 %
Test CRC 33602EE9
Copy CRC 33602EE9
Accurately ripped (confidence 5) [9AC33E82] (AR v1)
Copy OK

Track 18

Filename C:\Documents and Settings\admin\Desktop\Pentangle - The Lost Broadcasts @ FLAC - E.A.C\CD 2\18 Jump Baby Jump.wav

Peak level 81.6 %
Extraction speed 5.6 X
Track quality 100.0 %
Test CRC 4F1E965B
Copy CRC 4F1E965B
Accurately ripped (confidence 4) [4B4E36D2] (AR v1)
Copy OK

Track 19

Filename C:\Documents and Settings\admin\Desktop\Pentangle - The Lost Broadcasts @ FLAC - E.A.C\CD 2\19 Cherry Tree Carol.wav

Peak level 81.3 %
Extraction speed 5.4 X
Track quality 100.0 %
Test CRC EB9FAB45
Copy CRC EB9FAB45
Accurately ripped (confidence 5) [74103302] (AR v1)
Copy OK


All tracks accurately ripped

No errors occurred

End of status report

==== Log checksum 327FF77D8D1BE9C844DEAB5B6F1FEA75890FE54E0CF5670E421933A448A6959B ====

foobar2000 1.1.16 / Dynamic Range Meter 1.1.1
log date: 2012-11-07 14:33:34

––––––––––––––––––––––––––––––––––––––––
Analyzed: Pentangle / The Lost Broadcasts 1968 - 1972 - Disc 2
––––––––––––––––––––––––––––––––––––––––

DR Peak RMS Duration Track
––––––––––––––––––––––––––––––––––––––––
DR7 -1.12 dB -9.62 dB 7:06 01-Hunting Song
DR6 -1.78 dB -11.12 dB 2:43 02-Moondog
DR7 -1.86 dB -11.50 dB 4:44 03-House Carpenter
DR9 -2.06 dB -12.63 dB 2:46 04-Name Of The Game
DR6 -1.56 dB -10.49 dB 3:30 05-Train Song
DR9 -2.94 dB -14.35 dB 4:01 06-Springtime Promises
DR6 -1.04 dB -8.41 dB 1:52 07-Country Blues
DR8 -1.53 dB -11.14 dB 3:44 08-The Trees They Do Grow High
DR8 -2.35 dB -11.62 dB 3:52 09-Lyke Wake Dirge
DR8 -2.32 dB -12.87 dB 4:25 10-Reynardine
DR7 -1.57 dB -10.10 dB 3:30 11-Light Flight
DR6 -1.61 dB -9.13 dB 5:22 12-A Maid That's Deep In Love
DR6 -1.52 dB -8.72 dB 3:46 13-Will The Circle Be Unbroken?
DR9 -1.93 dB -13.81 dB 2:38 14-Lord Franklin
DR7 -1.87 dB -10.87 dB 4:20 15-Lady Of Carlisle
DR10 -1.66 dB -13.68 dB 5:14 16-People Of The Highway
DR9 -1.19 dB -12.42 dB 2:53 17-No Love Is Sorrow
DR10 -1.76 dB -13.69 dB 4:11 18-Jump Baby Jump
DR10 -1.79 dB -13.89 dB 3:00 19-Cherry Tree Carol
––––––––––––––––––––––––––––––––––––––––

Number of tracks: 19
Official DR value: DR8

Samplerate: 44100 Hz
Channels: 2
Bits per sample: 16
Bitrate: 834 kbps
Codec: FLAC
================================================================================

Pentangle - The Lost Broadcasts 1968-1972 (2004) 2CD

Pentangle - The Lost Broadcasts 1968-1972 (2004) 2CD