George Guest, St John's College Choir, Roger Norrington, Schutz Choir - Pergolesi, Scarlatti, Bononcini: Stabat Mater (1995)

Posted By: ArlegZ
George Guest, St John's College Choir, Roger Norrington, Schutz Choir - Pergolesi, Scarlatti, Bononcini: Stabat Mater (1995)

George Guest, St John's College Choir, Roger Norrington, Schütz Choir - Pergolesi, Scarlatti, Bononcini: Stabat Mater (1995)
EAC | FLAC | Image (Cue & Log) ~ 645 Mb | Total time: 141:57 | Scans included
Classical | Label: DECCA | # 443 868-2 | Recorded: 1966, 74, 78, 80

This anthology of devotional music from 18th-century Venice and Naples offers an interesting and varied programme. Best known is Pergolesi’s Stabat mater, but the settings by Domenico Scarlatti and Bononcini stand well in comparison. The motets by Lotti, Caldara and Alessandro Scarlatti are real discoveries; Norrington’s performances of the latter are particularly fine. Guest’s Pergolesi suffers from a focus of sound which makes the interpretation seem somewhat generalised. However, all these performances give pleasure, while the music is melodically fresh and rhythmically vital.
-Terry Barfoot

Performer:
Giovanni Battista Pergolesi - Stabat Mater:
Felicity Palmer, soprano
Alfreda Hodgson, contralto
The Choir of St. John's College, Cambridge
The Argo Chamber Orchestra
Conductor - George Guest
Domenico Scarlatti - Stabat Mater & Alessandro Scarlatti - O Magnum Mysterium; Domine, refugium factus
Charles Spinks, organ
Marylin Sansom, cello
Keith Majoram, bass
Schütz Choir of London
Conductor - Roger Norrington
Giovanni Battista Pergolesi – Magnificat in C major
Elizabeth Vaughan, soprano
Janet Baker, contralto
Ian Partridge, tenor
Christopher Keyte, bass
The Choir of King's College, Cambridge
The Academy of St. Martin-in-the-Fields
Conductor - Sir David Willcocks
Antonio Lotti - Crucifixus; Giovanni Battista Bononcini - Stabat Mater; Antonio Caldara - Crucifixus
Felicity Palmer, soprano
Paul Esswood, countertenor
Philip Langridge, tenor
Christopher Keyte, bass
The Choir of St. John's College, Cambridge
Philomusica of London
Conductor - George Guest

Track List:
CD1:
Pergolesi - Stabat Mater:
01. I. Stabat Mater dolorosa
02. II. Cuius animam gementem
03. III. O quam tristis
04. IV. Quae moerebat et dolebat
05. V. Quis est homo
06. VI. Vidit suum dulcem natum
07. VII. Eia, Mater, fons amoris
08. VIII. Fac ut ardeat
09. IX. Sancta Mater, istud agas
10. X. Fac ut portem
11. XI. Inflammatus et accensus
12. XII. Quando corpus morietur
Domenico Scarlatti - Stabat Mater:
13. I. Stabat Mater dolorosa
14. II. Cuius animam gementem
15. III. Quis non posset contristari
16. IV. Eia, Mater, fons amoris
17. V. Sancta Mater, istud agas
18. VI. Fac me vere tecum flere
19. VII. Inflammatus et accensus
CD2:
Alessandro Scarlatti:
01. O magnum mysterium
02. Domine, refugium factus es nobis
Pergolesi - Magnificat:
03. I. Magnificat
04. II. Et misericordia
05. III. Deposuit potentes
06. IV. Suscepit Israel
07. V. Sicut locutus est - Gloria
Antonio Lotti:
08. Crucifixus
Antonio Bononcini - Stabat Mater:
09. I. Stabat Mater dolorosa
10. II. O quam tristis
11. III. Quis est homo
12. IV. Pro peccatis suae gentis
13. V. Eia, Mater, fons amoris
14. VI. Sancta Mater, istud agas
15. VII. Fac me vere tecum flere
16. VIII. Juxta crucem tecum flere
17. IX. Virgo virginum praeclara
18. X. Fac ut portem Christis mortem
19. XI. Fac me plagis vulnerari
20. XII. Fac me cruce custodiri
21. XIII. Quando corpus morietur
Antonio Caldara:
22. Crucifixus


Exact Audio Copy V1.3 from 2. September 2016

EAC extraction logfile from 7. October 2017, 19:50

The Choir St John's College, The Argo Chamber Orchestra, George Guest / Pergolesi and D.Scarlatti - Stabat Mater

Used drive : PIONEER DVD-RW DVR-218L Adapter: 1 ID: 0

Read mode : Secure
Utilize accurate stream : Yes
Defeat audio cache : Yes
Make use of C2 pointers : No

Read offset correction : 6
Overread into Lead-In and Lead-Out : No
Fill up missing offset samples with silence : Yes
Delete leading and trailing silent blocks : No
Null samples used in CRC calculations : Yes
Used interface : Native Win32 interface for Win NT & 2000

Used output format : User Defined Encoder
Selected bitrate : 128 kBit/s
Quality : High
Add ID3 tag : No
Command line compressor : C:\Program Files\Exact Audio Copy\Flac\flac.exe
Additional command line options : -V -8 -T "Date=%year%" -T "Genre=%genre%" %source%


TOC of the extracted CD

Track | Start | Length | Start sector | End sector
––––––––––––––––––––––––––––-
1 | 0:00.33 | 4:12.00 | 33 | 18932
2 | 4:12.33 | 2:46.47 | 18933 | 31429
3 | 6:59.05 | 2:25.28 | 31430 | 42332
4 | 9:24.33 | 2:47.02 | 42333 | 54859
5 | 12:11.35 | 3:04.48 | 54860 | 68707
6 | 15:16.08 | 4:25.60 | 68708 | 88642
7 | 19:41.68 | 2:40.15 | 88643 | 100657
8 | 22:22.08 | 2:46.25 | 100658 | 113132
9 | 25:08.33 | 5:28.05 | 113133 | 137737
10 | 30:36.38 | 4:07.17 | 137738 | 156279
11 | 34:43.55 | 2:37.05 | 156280 | 168059
12 | 37:20.60 | 4:17.48 | 168060 | 187382
13 | 41:38.33 | 3:14.72 | 187383 | 202004
14 | 44:53.30 | 5:19.35 | 202005 | 225964
15 | 50:12.65 | 4:19.30 | 225965 | 245419
16 | 54:32.20 | 2:21.65 | 245420 | 256059
17 | 56:54.10 | 4:13.18 | 256060 | 275052
18 | 61:07.28 | 3:32.57 | 275053 | 291009
19 | 64:40.10 | 9:04.00 | 291010 | 331809


Range status and errors

Selected range

Filename C:\Program Files\Exact Audio Copy\Flac\Pergolesi and D.Scarlatti - Stabat Mater.wav

Peak level 97.5 %
Extraction speed 2.1 X
Range quality 100.0 %
Test CRC B479F407
Copy CRC B479F407
Copy OK

No errors occurred


AccurateRip summary

Track 1 accurately ripped (confidence 1) [A7DBAB1B] (AR v2)
Track 2 accurately ripped (confidence 1) [B08FB04A] (AR v2)
Track 3 accurately ripped (confidence 1) [015CEEEF] (AR v2)
Track 4 accurately ripped (confidence 1) [32A26ED6] (AR v2)
Track 5 accurately ripped (confidence 1) [CB884792] (AR v2)
Track 6 accurately ripped (confidence 1) [10FABE44] (AR v2)
Track 7 accurately ripped (confidence 1) [6D0A4004] (AR v2)
Track 8 accurately ripped (confidence 1) [6B1BA189] (AR v2)
Track 9 accurately ripped (confidence 1) [61C6D9D5] (AR v2)
Track 10 accurately ripped (confidence 1) [A89FEF8E] (AR v2)
Track 11 accurately ripped (confidence 1) [FE88B920] (AR v2)
Track 12 accurately ripped (confidence 1) [D6A9CA47] (AR v2)
Track 13 accurately ripped (confidence 1) [74C0B780] (AR v2)
Track 14 accurately ripped (confidence 1) [4F167BCE] (AR v2)
Track 15 accurately ripped (confidence 1) [9524C10F] (AR v2)
Track 16 accurately ripped (confidence 1) [D1EF3722] (AR v2)
Track 17 accurately ripped (confidence 1) [602A8023] (AR v2)
Track 18 accurately ripped (confidence 1) [FE262895] (AR v2)
Track 19 accurately ripped (confidence 1) [264F1214] (AR v2)

All tracks accurately ripped

End of status report

==== Log checksum 2A6FF7164C20CF348B41B8B1BAE5F0EB1195A4497EE22BBC90703D88CFC6516C ====


Exact Audio Copy V1.3 from 2. September 2016

EAC extraction logfile from 7. October 2017, 21:11

St. John's College Choir / Pergolesi - Magnificat and Bononcini - Stabat Mater

Used drive : PIONEER DVD-RW DVR-218L Adapter: 1 ID: 0

Read mode : Secure
Utilize accurate stream : Yes
Defeat audio cache : Yes
Make use of C2 pointers : No

Read offset correction : 6
Overread into Lead-In and Lead-Out : No
Fill up missing offset samples with silence : Yes
Delete leading and trailing silent blocks : No
Null samples used in CRC calculations : Yes
Used interface : Native Win32 interface for Win NT & 2000

Used output format : User Defined Encoder
Selected bitrate : 128 kBit/s
Quality : High
Add ID3 tag : No
Command line compressor : C:\Program Files\Exact Audio Copy\Flac\flac.exe
Additional command line options : -V -8 -T "Date=%year%" -T "Genre=%genre%" %source%


TOC of the extracted CD

Track | Start | Length | Start sector | End sector
––––––––––––––––––––––––––––-
1 | 0:00.33 | 6:21.37 | 33 | 28644
2 | 6:21.70 | 4:19.38 | 28645 | 48107
3 | 10:41.33 | 2:50.70 | 48108 | 60927
4 | 13:32.28 | 1:43.60 | 60928 | 68712
5 | 15:16.13 | 1:47.45 | 68713 | 76782
6 | 17:03.58 | 1:50.67 | 76783 | 85099
7 | 18:54.50 | 3:44.58 | 85100 | 101957
8 | 22:39.33 | 3:45.00 | 101958 | 118832
9 | 26:24.33 | 3:22.25 | 118833 | 134007
10 | 29:46.58 | 2:39.22 | 134008 | 145954
11 | 32:26.05 | 2:37.68 | 145955 | 157797
12 | 35:03.73 | 3:56.45 | 157798 | 175542
13 | 39:00.43 | 4:30.40 | 175543 | 195832
14 | 43:31.08 | 1:18.62 | 195833 | 201744
15 | 44:49.70 | 4:42.10 | 201745 | 222904
16 | 49:32.05 | 2:08.55 | 222905 | 232559
17 | 51:40.60 | 1:38.08 | 232560 | 239917
18 | 53:18.68 | 1:57.57 | 239918 | 248749
19 | 55:16.50 | 2:51.25 | 248750 | 261599
20 | 58:08.00 | 2:04.23 | 261600 | 270922
21 | 60:12.23 | 3:13.10 | 270923 | 285407
22 | 63:25.33 | 4:48.12 | 285408 | 307019


Range status and errors

Selected range

Filename C:\Program Files\Exact Audio Copy\Flac\Pergolesi - Magnificat and Bononcini - Stabat Mater.wav

Peak level 91.0 %
Extraction speed 2.1 X
Range quality 100.0 %
Test CRC B8928095
Copy CRC B8928095
Copy OK

No errors occurred


AccurateRip summary

Track 1 accurately ripped (confidence 1) [37A8BB6C] (AR v2)
Track 2 accurately ripped (confidence 1) [28899EF8] (AR v2)
Track 3 accurately ripped (confidence 1) [BA96D16F] (AR v2)
Track 4 accurately ripped (confidence 1) [12BE502A] (AR v2)
Track 5 accurately ripped (confidence 1) [F1320731] (AR v2)
Track 6 accurately ripped (confidence 1) [B16B2D3B] (AR v2)
Track 7 accurately ripped (confidence 1) [3569378D] (AR v2)
Track 8 accurately ripped (confidence 1) [93F1FB36] (AR v2)
Track 9 accurately ripped (confidence 1) [3B546C3F] (AR v2)
Track 10 accurately ripped (confidence 1) [C3DE16DD] (AR v2)
Track 11 accurately ripped (confidence 1) [870239F2] (AR v2)
Track 12 accurately ripped (confidence 1) [17660F1B] (AR v2)
Track 13 accurately ripped (confidence 1) [176208D0] (AR v2)
Track 14 accurately ripped (confidence 1) [DFEA213C] (AR v2)
Track 15 accurately ripped (confidence 1) [22329307] (AR v2)
Track 16 accurately ripped (confidence 1) [AE999D66] (AR v2)
Track 17 accurately ripped (confidence 1) [1A752CD6] (AR v2)
Track 18 accurately ripped (confidence 1) [1A3C9E99] (AR v2)
Track 19 accurately ripped (confidence 1) [AF670234] (AR v2)
Track 20 accurately ripped (confidence 1) [31B501EE] (AR v2)
Track 21 accurately ripped (confidence 1) [431677A1] (AR v2)
Track 22 accurately ripped (confidence 1) [09B02813] (AR v2)

All tracks accurately ripped

End of status report

==== Log checksum 86BF4D3B32EB694FA7DE83F47E168ECC4714E0C00DB5C5FA76760B040900B180 ====

George Guest, St John's College Choir, Roger Norrington, Schutz Choir - Pergolesi, Scarlatti, Bononcini: Stabat Mater (1995)