Subcategories

Pet Shop Boys - Introspective (1988)

Posted By: popsakov
Pet Shop Boys - Introspective (1988)

Pet Shop Boys - Introspective (1988)
EAC Rip | FLAC (Img) + Cue + Log ~ 354 Mb | MP3 CBR320 ~ 137 Mb
Full Scans | RAR 5% Recovery
Electronic, Dance, Pop | EMI USA #E2 90868 | Canada

Featuring a mere six tracks, most of them well over six minutes in length, Introspective was a move back to the clubs for the Pet Shop Boys. Over the course of the album, they incorporated various dance techniques that were currently in vogue, including Latin rhythms and house textures. The title isn't entirely an arch joke, however. Like Actually, Introspective was an exploration of distant, disaffected yuppies, which naturally resulted in a good deal of self-analyzation. Melodically, the essential song structures were as strong and multi-layered as the previous album, yet that was hard to hear beneath the varying rhythmic textures that composed the bulk of each track. Nevertheless, the mixes are more compelling than the remixes on Disco, and the songs include several of their best numbers, including "Left to My Own Devices" and "Domino Dancing," as well as the reconstruction of "Always on My Mind" and a cover of Blaze's club classic, "It's Alright."

~ Stephen Thomas Erlewine, All Music

***************

Pet Shop Boys - Introspective (1988)

Pet Shop Boys - Introspective (1988)

Track List:

01. Left to My Own Devices [8:17]
02. I Want a Dog [6:15]
03. Domino Dancing [7:45]
04. I'm Not Scared [7:26]
05. Always on My Mind / In My House [9:05]
06. It's Alright [9:23]

Exact Audio Copy V1.0 beta 3 from 29. August 2011

Отчёт EAC об извлечении, выполненном 25. января 2014, 0:45

Pet Shop Boys / Introspective

Дисковод: SONY CD-RW CRX210E1 Adapter: 0 ID: 0

Режим чтения : Достоверность
Использование точного потока : Да
Отключение кэша аудио : Да
Использование указателей C2 : Нет

Коррекция смещения при чтении : 6
Способность читать области Lead-in и Lead-out : Нет
Заполнение пропущенных сэмплов тишиной : Да
Удаление блоков с тишиной в начале и конце : Нет
При вычислениях CRC использовались нулевые сэмплы : Да
Интерфейс : Установленный внешний ASPI-интерфейс

Выходной формат : Внутренние WAV-операции
Формат сэмплов : 44.100 Гц; 16 бит; стерео


TOC извлечённого CD

Трек | Старт | Длительность | Начальный сектор | Конечный сектор
––––––––––––––––––––––––––––––––––-
1 | 0:00.33 | 8:17.17 | 33 | 37324
2 | 8:17.50 | 6:15.25 | 37325 | 65474
3 | 14:33.00 | 7:44.45 | 65475 | 100319
4 | 22:17.45 | 7:26.13 | 100320 | 133782
5 | 29:43.58 | 9:04.55 | 133783 | 174637
6 | 38:48.38 | 9:23.35 | 174638 | 216897


Характеристики диапазона извлечения и сообщения об ошибках

Выбранный диапазон

Имя файла D:\music\Rip by moote\Pet Shop Boys - Introspective.wav

Пиковый уровень 100.0 %
Скорость извлечения 3.4 X
Качество диапазона 100.0 %
CRC теста AB0E3939
CRC копии AB0E3939
Копирование… OK

Ошибок не произошло


AccurateRip: сводка

Трек 1 : извлечено точно (доверие 2) [965C478D] (AR v2)
Трек 2 : извлечено точно (доверие 2) [B514E535] (AR v2)
Трек 3 : извлечено точно (доверие 2) [DB438DBC] (AR v2)
Трек 4 : извлечено точно (доверие 2) [9DE783DC] (AR v2)
Трек 5 : извлечено точно (доверие 2) [5DEA5167] (AR v2)
Трек 6 : извлечено точно (доверие 2) [43A05F00] (AR v2)

Все треки извлечены точно

Конец отчёта

==== Контрольная сумма отчёта 439C7051D76860FBC1F942BC4B510DB3FA48C0AA75788C92303AA94F80496BA5 ====

[CUETools log; Date: 12.09.2019 1:27:54; Version: 2.1.6]
Pregap length 00:00:33.
[CTDB TOCID: Jdt4_RZsBUWzbHcnuzOLrQWWfAI-] found.
Track | CTDB Status
1 | ( 23/107) Accurately ripped
2 | ( 24/107) Accurately ripped
3 | ( 25/107) Accurately ripped
4 | ( 24/107) Accurately ripped
5 | ( 7/107) Accurately ripped, or (7/107) differs in 90 samples @04:55:61-04:55:64,04:58:35-04:58:38
6 | ( 20/107) Accurately ripped
[AccurateRip ID: 000b1d98-003b9f59-590b4b06] found.
Track [ CRC | V2 ] Status
01 [cbfec210|965c478d] (0+3/5) Accurately ripped
02 [b2654ddb|b514e535] (0+3/5) Accurately ripped
03 [1ffe760a|db438dbc] (0+3/5) Accurately ripped
04 [efa27a0d|9de783dc] (0+3/5) Accurately ripped
05 [429b79dc|5dea5167] (0+3/5) Accurately ripped
06 [11655dbf|43a05f00] (0+3/5) Accurately ripped
Offsetted by 902:
01 [0428267f] (0/5) No match (V2 was not tested)
02 [3546f78b] (0/5) No match (V2 was not tested)
03 [f24558e0] (0/5) No match (V2 was not tested)
04 [c6a45f15] (0/5) No match (V2 was not tested)
05 [2f25173e] (0/5) No match (V2 was not tested)
06 [0d0534c6] (0/5) No match (V2 was not tested)

Track Peak [ CRC32 ] [W/O NULL] [ LOG ]
– 100,0 [AB0E3939] [09CE1761] CRC32
01 100,0 [943B6806] [8A986D2C]
02 91,5 [BB688261] [E6FD5B50]
03 100,0 [BE33F3D5] [ABC4AB24]
04 99,2 [CEA3825C] [EB2DBC77]
05 100,0 [093DDF0D] [074D47C2]
06 100,0 [6A1199C5] [0099D0C4]

Pet Shop Boys - Introspective (1988)


All thanks go to moote

>>> "Pet Shop Boys" in my Blog <<<

DOWNLOAD: