Tags
Language
Tags

Peter Schilling - Error In The System (1983) [2016]

Posted By: JET 1
Peter Schilling - Error In The System (1983) [2016]

Peter Schilling - Error In The System (1983) [2016]
EAC Rip | FLAC (Tracks) +CUE, LOG | 490 MB
Genre: Synthpop, New Wave | Label: Hot Shot Records | Catalog Number: WHSR015

AFTER ITS RENEWED EXPOSURE AS THE OPENING THEME SONG TO DEUTSCHLAND ’83, PETER SCHILLING’S MAJOR TOM IS COMING HOME AGAIN… By the early 1980s, new wave had edged closer to bombastic pop than its punk origins, no doubt influenced by David Bowie’s shift from new wave pioneer of the 1970s to his New Romantic pop of 1980. Furthermore, the song was an answer to Bowie’s Space Oddity. Peter Schilling’s debut album ERROR IN THE SYSTEM actually arrived a year earlier in Germany (FEHLER IM SYSTEM) (1982) before Elektra released the record in English. What is even more surprising is the durability the record had given how fleeting new wave pop could be in terms of commercial presence. ‘MAJOR TOM’ may have provided Peter with the best hook to gain an international audience but the album boasted even more melodic (and melancholic) anthems. ‘ONLY DREAMS’, ‘LIFETIME GUARANTEE’ and ‘I HAVE NO DESIRE’ are also highlights.
A biting criticism of the U.S.A.’s inflated capitalism of the 1980s, the lyrics are easy to overlook given how upbeat the song sounds. It’s this dichotomy that elevates the album from being defined by ‘MAJOR TOM’, Peter Schilling’s only release with international success. This HOT SHOT RECORDS edition of ERROR IN THE SYSTEM also features a wealth of bonus tracks, including original versions from the album’s German release as well as 12” mixes of ‘MAJOR TOM’ and the albums second single ‘DIE WUSTE LEBT – THE NOAH PLAN’.

Exact Audio Copy V1.2 from 12. August 2016

EAC extraction logfile from 3. September 2016, 13:12

Peter Schilling / Error In The System

Used drive : HL-DT-STDVDRAM GH24NSC0 Adapter: 2 ID: 1

Read mode : Secure
Utilize accurate stream : Yes
Defeat audio cache : Yes
Make use of C2 pointers : No

Read offset correction : 6
Overread into Lead-In and Lead-Out : No
Fill up missing offset samples with silence : Yes
Delete leading and trailing silent blocks : No
Null samples used in CRC calculations : Yes
Used interface : Native Win32 interface for Win NT & 2000
Gap handling : Appended to previous track

Used output format : User Defined Encoder
Selected bitrate : 128 kBit/s
Quality : High
Add ID3 tag : No
Command line compressor : C:\Program Files (x86)\Exact Audio Copy\Flac\flac.exe
Additional command line options : -8 -V -T "ARTIST=%artist%" -T "TITLE=%title%" -T "ALBUM=%albumtitle%" -T "DATE=%year%" -T "TRACKNUMBER=%tracknr%" -T "GENRE=%genre%" -T "PERFORMER=%albuminterpret%" -T "COMPOSER=%composer%" %haslyrics%–tag-from-file=LYRICS="%lyricsfile%"%haslyrics% -T "ALBUMARTIST=%albumartist%" -T "DISCNUMBER=%cdnumber%" -T "TOTALDISCS=%totalcds%" -T "TOTALTRACKS=%numtracks%" -T "COMMENT=%comment%" %source% -o %dest%


TOC of the extracted CD

Track | Start | Length | Start sector | End sector
––––––––––––––––––––––––––––-
1 | 0:00.00 | 3:23.30 | 0 | 15254
2 | 3:23.30 | 6:44.55 | 15255 | 45609
3 | 10:08.10 | 4:18.24 | 45610 | 64983
4 | 14:26.34 | 3:32.60 | 64984 | 80943
5 | 17:59.19 | 4:59.32 | 80944 | 103400
6 | 22:58.51 | 3:42.05 | 103401 | 120055
7 | 26:40.56 | 3:15.47 | 120056 | 134727
8 | 29:56.28 | 3:28.52 | 134728 | 150379
9 | 33:25.05 | 3:29.21 | 150380 | 166075
10 | 36:54.26 | 8:06.33 | 166076 | 202558
11 | 45:00.59 | 4:27.11 | 202559 | 222594
12 | 49:27.70 | 3:27.16 | 222595 | 238135
13 | 52:55.11 | 6:45.37 | 238136 | 268547
14 | 59:40.48 | 3:23.25 | 268548 | 283797
15 | 63:03.73 | 3:30.20 | 283798 | 299567
16 | 66:34.18 | 3:19.06 | 299568 | 314498
17 | 69:53.24 | 4:57.67 | 314499 | 336840
18 | 74:51.16 | 4:47.16 | 336841 | 358381


Track 1

Filename M:\01 - Only Dreams.wav

Pre-gap length 0:00:02.00

Peak level 95.2 %
Extraction speed 4.6 X
Track quality 100.0 %
Test CRC 83B09228
Copy CRC 83B09228
Accurately ripped (confidence 1) [2C086CE7] (AR v2)
Copy OK

Track 2

Filename M:\02 - Lifetime Guarantee.wav

Peak level 95.5 %
Extraction speed 5.2 X
Track quality 99.9 %
Test CRC 0B0D1B9C
Copy CRC 0B0D1B9C
Accurately ripped (confidence 1) [702C5E3F] (AR v2)
Copy OK

Track 3

Filename M:\03 - The Noah Plan.wav

Peak level 95.5 %
Extraction speed 5.3 X
Track quality 99.9 %
Test CRC 09D7B17B
Copy CRC 09D7B17B
Accurately ripped (confidence 1) [D8AFD52C] (AR v2)
Copy OK

Track 4

Filename M:\04 - Error In The System.wav

Peak level 95.5 %
Extraction speed 5.3 X
Track quality 99.9 %
Test CRC 60DD89D5
Copy CRC 60DD89D5
Accurately ripped (confidence 1) [91530348] (AR v2)
Copy OK

Track 5

Filename M:\05 - Major Tom (Coming Home).wav

Peak level 95.5 %
Extraction speed 5.9 X
Track quality 99.9 %
Test CRC 8C00ED97
Copy CRC 8C00ED97
Accurately ripped (confidence 1) [E9B2C783] (AR v2)
Copy OK

Track 6

Filename M:\06 - Major Tom, Part II.wav

Peak level 79.8 %
Extraction speed 5.9 X
Track quality 99.9 %
Test CRC 16E359C0
Copy CRC 16E359C0
Accurately ripped (confidence 1) [DF8AB59E] (AR v2)
Copy OK

Track 7

Filename M:\07 - (Let's Play) U.S.A..wav

Peak level 81.3 %
Extraction speed 6.8 X
Track quality 100.0 %
Test CRC 013F3366
Copy CRC 013F3366
Accurately ripped (confidence 1) [E996E994] (AR v2)
Copy OK

Track 8

Filename M:\08 - I Have No Desire.wav

Peak level 90.3 %
Extraction speed 7.1 X
Track quality 100.0 %
Test CRC 22F1B74A
Copy CRC 22F1B74A
Accurately ripped (confidence 1) [C4F57667] (AR v2)
Copy OK

Track 9

Filename M:\09 - Stille Nacht, Heilige Nacht (Silent Night, Holy Night).wav

Peak level 73.5 %
Extraction speed 7.3 X
Track quality 100.0 %
Test CRC A8B73F4D
Copy CRC A8B73F4D
Accurately ripped (confidence 1) [808B3718] (AR v2)
Copy OK

Track 10

Filename M:\10 - Major Tom (Coming Home) (12'' Special Extended Version).wav

Peak level 95.5 %
Extraction speed 8.3 X
Track quality 100.0 %
Test CRC 47395F9E
Copy CRC 47395F9E
Accurately ripped (confidence 1) [C8C606B9] (AR v2)
Copy OK

Track 11

Filename M:\11 - Die Wüste lebt (12'' Version).wav

Peak level 95.5 %
Extraction speed 8.1 X
Track quality 100.0 %
Test CRC 13B8D51B
Copy CRC 13B8D51B
Accurately ripped (confidence 1) [0D04B144] (AR v2)
Copy OK

Track 12

Filename M:\12 - Fehler im System.wav

Peak level 95.5 %
Extraction speed 8.0 X
Track quality 100.0 %
Test CRC D55E8A9B
Copy CRC D55E8A9B
Accurately ripped (confidence 1) [6D022742] (AR v2)
Copy OK

Track 13

Filename M:\13 - Fast alles konstruiert.wav

Peak level 92.2 %
Extraction speed 8.9 X
Track quality 100.0 %
Test CRC 50699021
Copy CRC 50699021
Accurately ripped (confidence 1) [2703D4A2] (AR v2)
Copy OK

Track 14

Filename M:\14 - …dann trügt der Schein.wav

Peak level 90.2 %
Extraction speed 8.5 X
Track quality 100.0 %
Test CRC E5DFD313
Copy CRC E5DFD313
Accurately ripped (confidence 1) [9A4EEF06] (AR v2)
Copy OK

Track 15

Filename M:\15 - Ich hab' keine Lust.wav

Peak level 95.5 %
Extraction speed 8.7 X
Track quality 100.0 %
Test CRC 571939BA
Copy CRC 571939BA
Accurately ripped (confidence 1) [5BC1795F] (AR v2)
Copy OK

Track 16

Filename M:\16 - U.S.A..wav

Peak level 95.5 %
Extraction speed 8.8 X
Track quality 100.0 %
Test CRC 874B1BA2
Copy CRC 874B1BA2
Accurately ripped (confidence 1) [7AD048AF] (AR v2)
Copy OK

Track 17

Filename M:\17 - Major Tom (völlig losgelöst).wav

Peak level 95.5 %
Extraction speed 9.5 X
Track quality 100.0 %
Test CRC 3E421008
Copy CRC 3E421008
Accurately ripped (confidence 1) [6E98797E] (AR v2)
Copy OK

Track 18

Filename M:\18 - Major Tom (Coming Home) (Special Instrumental Version).wav

Peak level 95.5 %
Extraction speed 9.6 X
Track quality 100.0 %
Test CRC 66CC89E2
Copy CRC 66CC89E2
Accurately ripped (confidence 1) [5E5523A6] (AR v2)
Copy OK


All tracks accurately ripped

No errors occurred

End of status report

–– CUETools DB Plugin V2.1.6

[CTDB TOCID: Ds4G.U.Ohc1u16nqSQly7U3jB.A-] found
Submit result: Ds4G.U.Ohc1u16nqSQly7U3jB.A- has been confirmed
Track | CTDB Status
1 | (6/6) Accurately ripped
2 | (5/6) Accurately ripped, or (1/6) differs in 1035 samples @00:14:68-00:14:69,01:19:44-01:19:45,02:21:34-02:21:35,02:37:58-02:37:59,05:20:62-05:20:63
3 | (5/6) Accurately ripped, or (1/6) differs in 436 samples @02:26:64-02:26:65,02:49:37-02:49:38
4 | (6/6) Accurately ripped
5 | (6/6) Accurately ripped
6 | (6/6) Accurately ripped
7 | (6/6) Accurately ripped
8 | (6/6) Accurately ripped
9 | (6/6) Accurately ripped
10 | (5/6) Accurately ripped, or (1/6) differs in 180 samples @06:08:61
11 | (6/6) Accurately ripped
12 | (6/6) Accurately ripped
13 | (6/6) Accurately ripped
14 | (6/6) Accurately ripped
15 | (6/6) Accurately ripped
16 | (6/6) Accurately ripped
17 | (6/6) Accurately ripped
18 | (6/6) Accurately ripped


==== Log checksum 044B59433A212F619C373A12C5F711EE6878010B94C0C98DDA7DAA7CCC205525 ====

Tracklist ::::
1. Only Dreams
2. Lifetime Gurantee
3. The Noah Plan
4. Error In The System
5. Major Tom (Comming Home)
6. Mayor Tom, Part II
7. (Let's Play) U.S.A.
8. I Have No Desire
9. Stille Nacht, Heilige Nacht
10. Major Tom (Coming Home) (Special Extended Version)
11. Die Wuste lebt -
12. Fehler im System
13. Fast alles konstruiert
14. Dann trugt der Schein
15. Ich habe keine Lust
16. U.S.A.
17. Major Tom (vollig losgelost)
18. Major Tom (Coming Home) [Special Instrumental Version]