Subcategories

Phil Sheeran - Orchid (1998) [Re-Up]

Posted By: Designol
Phil Sheeran - Orchid (1998) [Re-Up]

Phil Sheeran - Orchid (1998)
EAC | FLAC | Image (Cue&Log) ~ 348 Mb | Mp3 (CBR320) ~ 159 Mb | Scans included
Label: Passage | # PS60032-32 | Time: 00:49:15
Crossover Jazz, Smooth Jazz, Fusion, Guitar Jazz

Phil Sheeran proclaims himself a "fingerstyle guitarist" in the liner notes to Orchid, and he gives those agile digits quite a workout even on the more low-key tunes which reflect his intention to create a mood recording. With Sheeran, there is always more than meets the eye - just as he eases our expectations into complacency with gentle declarations like "In My Heart" (on which he and flutist Brandon Fields tease each other back and forth over a swaying percussion groove), he heads for the tropics or does the B.B. King thing ("She Likes the Blues"), all to explosive effect. "Sacred Ground" combines the island panning of Andy Narell, the Native American bamboo flute musings of Richard Warner and Sheeran's own darker acoustic guitar tones - all over Harvey Mason's slick rhythmic pockets. Then "Jungle" finds Sheeran at a unique crossroads - his guitar is gentle but Eric Marienthal's alto fires up over a mix of live Mason and spunky hip-hop machinery. "St. Tropez" seeks a healthy compromise between the fire and calm, offering a cool drive time melody most of the way, but breaking for plucky improvisations by Sheeran and keyboardist/producer Gregg Karukas, whose sonic shifts from Rhodes to organ to ivories form the backbone of every cut.

Review by Jonathan Widran, Allmusic.com

Phil Sheeran - Orchid (1998) [Re-Up]



Tracklist:

01. Orchid (04:48)
02. Ste. Tropez (04:15)
03. The Look of Love (04:26)
04. Riding the Wind (04:56)
05. In My Heart (04:09)
06. First Dance (05:58)
07. Sacred Ground (05:52)
08. Jungle (04:39)
09. She Likes the Blues (05:56)
10. The Winds of Time (04:13)


Exact Audio Copy V1.1 from 23. June 2015

Отчёт EAC об извлечении, выполненном 9. июня 2016, 13:02

Phil Sheeran / Orchid

Дисковод: ASUS DRW-24B3ST Adapter: 0 ID: 0

Режим чтения : Достоверность
Использование точного потока : Да
Отключение кэша аудио : Да
Использование указателей C2 : Нет

Коррекция смещения при чтении : 6
Способность читать области Lead-in и Lead-out : Нет
Заполнение пропущенных сэмплов тишиной : Да
Удаление блоков с тишиной в начале и конце : Нет
При вычислениях CRC использовались нулевые сэмплы : Да
Интерфейс : Установленный внешний ASPI-интерфейс

Выходной формат : Пользовательский кодировщик
Выбранный битрейт : 1024 kBit/s
Качество : Высокий
Добавление ID3-тега : Нет
Утилита сжатия : C:\Program Files (x86)\Exact Audio Copy\FLAC\FLAC.EXE
Дополнительные параметры : -6 -V -T "ARTIST=%artist%" -T "TITLE=%title%" -T "ALBUM=%albumtitle%" -T "DATE=%year%" -T "TRACKNUMBER=%tracknr%" -T "GENRE=%genre%" -T "COMMENT=%comment%" -T "BAND=%albuminterpret%" -T "ALBUMARTIST=%albuminterpret%" -T "COMPOSER=%composer%" %haslyrics%–tag-from-file=LYRICS="%lyricsfile%"%haslyrics% -T "DISCNUMBER=%cdnumber%" -T "TOTALDISCS=%totalcds%" -T "TOTALTRACKS=%numtracks%" %hascover%–picture="%coverfile%"%hascover% %source% -o %dest%


TOC извлечённого CD

Трек | Старт | Длительность | Начальный сектор | Конечный сектор
––––––––––––––––––––––––––––––––––-
1 | 0:00.00 | 4:48.10 | 0 | 21609
2 | 4:48.10 | 4:15.00 | 21610 | 40734
3 | 9:03.10 | 4:26.07 | 40735 | 60691
4 | 13:29.17 | 4:56.40 | 60692 | 82931
5 | 18:25.57 | 4:09.45 | 82932 | 101651
6 | 22:35.27 | 5:58.45 | 101652 | 128546
7 | 28:33.72 | 5:52.13 | 128547 | 154959
8 | 34:26.10 | 4:39.05 | 154960 | 175889
9 | 39:05.15 | 5:56.32 | 175890 | 202621
10 | 45:01.47 | 4:13.23 | 202622 | 221619


Характеристики диапазона извлечения и сообщения об ошибках

Выбранный диапазон

Имя файла C:\Torrents - my\Phil Sheeran - 1998 - Orchid\Phil Sheeran - Orchid.wav

Пиковый уровень 100.0 %
Скорость извлечения 8.3 X
Качество диапазона 100.0 %
CRC теста 019AEDFD
CRC копии 019AEDFD
Копирование… OK

Ошибок не произошло

Конец отчёта

==== Контрольная сумма отчёта E964D4CD18F2D0FAFAA0E42A8DD3E1764D8F4979FE3C9C10124BA1799544AA9E ====

foobar2000 1.2 / Dynamic Range Meter 1.1.1
log date: 2016-06-10 14:19:39

––––––––––––––––––––––––––––––––––––––––
Analyzed: Phil Sheeran / Orchid
––––––––––––––––––––––––––––––––––––––––

DR Peak RMS Duration Track
––––––––––––––––––––––––––––––––––––––––
DR10 0.00 dB -11.50 dB 4:48 01-Orchid
DR9 -0.26 dB -10.90 dB 4:15 02-Ste. Tropez
DR10 -0.70 dB -12.23 dB 4:26 03-The Look of Love
DR10 -0.14 dB -12.27 dB 4:57 04-Riding the Wind
DR10 -0.81 dB -13.09 dB 4:10 05-In My Heart
DR11 0.00 dB -12.75 dB 5:59 06-First Dance
DR9 -0.32 dB -11.98 dB 5:52 07-Sacred Ground
DR11 0.00 dB -12.80 dB 4:39 08-Jungle
DR9 0.00 dB -11.78 dB 5:56 09-She Likes the Blues
DR10 -2.24 dB -16.37 dB 4:13 10-The Winds of Time
––––––––––––––––––––––––––––––––––––––––

Number of tracks: 10
Official DR value: DR10

Samplerate: 44100 Hz
Channels: 2
Bits per sample: 16
Bitrate: 857 kbps
Codec: FLAC
================================================================================

Phil Sheeran - Orchid (1998) [Re-Up]

Phil Sheeran - Orchid (1998) [Re-Up]

All thanks to original releaser - Копысов

More interesting music in My Blog