Tags
Language
Tags
February 2023
Su Mo Tu We Th Fr Sa
29 30 31 1 2 3 4
5 6 7 8 9 10 11
12 13 14 15 16 17 18
19 20 21 22 23 24 25
26 27 28 1 2 3 4

Philippe Herreweghe, Collegium Vocale Gent - Schütz: Geistliche Chormusik (1996)

Posted By: ArlegZ
Philippe Herreweghe, Collegium Vocale Gent - Schütz: Geistliche Chormusik (1996)

Philippe Herreweghe, Collegium Vocale Gent - Schütz: Geistliche Chormusik (1996)
EAC | FLAC | Image (Cue & Log) ~ 249 Mb | Total time: 60:34 | Scans included
Classical | Label: Harmonia Mundi | # HMC 901534 | Recorded: 1994

…This is the best you will ever hear of the "Spiritual Choir-Music of Heinrich Schuetz (1585-1672). This one-disk performance is a selection of ten of the 49 motets in Schuetz's 1648 opus, interspersed with six quite distinct selections from the Kleine Geistliche Konzerte of 1636. The two sources are radically different; the earlier works are in the operatic 'secunda prattica' style of Monteverdi, sung by soloists over decorated basso continuo; the later works are superbly old-fashioned choral polyphony of the 'prima prattica' of composers dead before Schuetz was born. As a concert listening experience, the combination is highly effective, offering a variety and sprightliness that a through-reading of the complete Geistliche Chormusic can't provide.

Performer:
Agnès Mellon, soprano
Mark Padmore, tenor
Peter Kooy, bass
Collegium Vocale Gent
Philippe Herreweghe, conductor

Track List:
01. Herr, auf dich traue ich, SWV 377
02. O lieber Herre Gott, SWV 381
03. Schaffe in mir, Gott, eine reines Herz, SWV 291
04. Die mit Tränen säen, SWV 378
05. Der Herr schauet von Himmel, SWV 392
06. Wann unsre Augen schlafen ein, SWV 316
07. Eile, mich, Gott, zu erretten, SWV 182
08. So fahr ich hin zu Jesu Christ, SWV 379
09. Die Himmel erzählen die Ehre Gottes, SWV 386
10. Unser Wandel ist im Himmel, SWV 390
11. Ich bin eine rufende Stimme, SWV 383
12. O süsser, o freundlicher, SWV 285
13. Herzlich lieb hab ich dich, o Herr, SWV 387
14. Ich liege und schlafe, SWV 310
15. Selig sind die Toten, SWV 391
16. Das ist je gewisslich wahr, SWV 388


Exact Audio Copy V1.3 from 2. September 2016

EAC extraction logfile from 17. January 2020, 11:42

Philippe Herreweghe / Heinrich Schütz, Geistliche Chormusik

Used drive : PLEXTOR DVDR PX-L890SA Adapter: 1 ID: 1

Read mode : Secure
Utilize accurate stream : Yes
Defeat audio cache : Yes
Make use of C2 pointers : No

Read offset correction : 6
Overread into Lead-In and Lead-Out : No
Fill up missing offset samples with silence : Yes
Delete leading and trailing silent blocks : No
Null samples used in CRC calculations : Yes
Used interface : Native Win32 interface for Win NT & 2000

Used output format : User Defined Encoder
Selected bitrate : 640 kBit/s
Quality : High
Add ID3 tag : No
Command line compressor : C:\Program Files (x86)\Exact Audio Copy\FLAC\FLAC.EXE
Additional command line options : -6 -V -T "ARTIST=%artist%" -T "TITLE=%title%" -T "ALBUM=%albumtitle%" -T "DATE=%year%" -T "TRACKNUMBER=%tracknr%" -T "GENRE=%genre%" -T "COMMENT=%comment%" -T "BAND=%albuminterpret%" -T "ALBUMARTIST=%albuminterpret%" -T "COMPOSER=%composer%" %haslyrics%–tag-from-file=LYRICS="%lyricsfile%"%haslyrics% -T "DISCNUMBER=%cdnumber%" -T "TOTALDISCS=%totalcds%" -T "TOTALTRACKS=%numtracks%" %hascover%–picture="%coverfile%"%hascover% %source% -o %dest%


TOC of the extracted CD

Track | Start | Length | Start sector | End sector
––––––––––––––––––––––––––––-
1 | 0:00.32 | 3:16.40 | 32 | 14771
2 | 3:16.72 | 3:18.30 | 14772 | 29651
3 | 6:35.27 | 2:56.23 | 29652 | 42874
4 | 9:31.50 | 4:01.00 | 42875 | 60949
5 | 13:32.50 | 2:38.62 | 60950 | 72861
6 | 16:11.37 | 2:51.50 | 72862 | 85736
7 | 19:03.12 | 3:43.65 | 85737 | 102526
8 | 22:47.02 | 3:13.05 | 102527 | 117006
9 | 26:00.07 | 4:07.13 | 117007 | 135544
10 | 30:07.20 | 3:38.32 | 135545 | 151926
11 | 33:45.52 | 4:07.45 | 151927 | 170496
12 | 37:53.22 | 4:28.00 | 170497 | 190596
13 | 42:21.22 | 6:01.58 | 190597 | 217729
14 | 48:23.05 | 3:12.42 | 217730 | 232171
15 | 51:35.47 | 4:37.63 | 232172 | 253009
16 | 56:13.35 | 4:21.55 | 253010 | 272639


Range status and errors

Selected range

Filename D:\Susa\Schütz Geistliche Chormusik Collegium Vocale Gent Philippe Herreweghe\CD 1\Philippe Herreweghe - Heinrich Schütz, Geistliche Chormusik.wav

Peak level 94.5 %
Extraction speed 1.9 X
Range quality 100.0 %
Test CRC F186DF93
Copy CRC F186DF93
Copy OK

No errors occurred


AccurateRip summary

Track 1 accurately ripped (confidence 14) [2A65175F] (AR v2)
Track 2 accurately ripped (confidence 14) [F7CEA44A] (AR v2)
Track 3 accurately ripped (confidence 13) [C1A02DDC] (AR v2)
Track 4 accurately ripped (confidence 13) [3A0DE2CD] (AR v2)
Track 5 accurately ripped (confidence 13) [D698AFFB] (AR v2)
Track 6 accurately ripped (confidence 13) [A149DDC1] (AR v2)
Track 7 accurately ripped (confidence 13) [06798A8E] (AR v2)
Track 8 accurately ripped (confidence 13) [E2F3867F] (AR v2)
Track 9 accurately ripped (confidence 13) [D1572A7A] (AR v2)
Track 10 accurately ripped (confidence 13) [669E6258] (AR v2)
Track 11 accurately ripped (confidence 13) [6942AA8B] (AR v2)
Track 12 accurately ripped (confidence 13) [C7EABE23] (AR v2)
Track 13 accurately ripped (confidence 13) [13CC1EE7] (AR v2)
Track 14 accurately ripped (confidence 12) [677EFB12] (AR v2)
Track 15 accurately ripped (confidence 14) [70BD2721] (AR v2)
Track 16 accurately ripped (confidence 13) [A5DCA2DE] (AR v2)

All tracks accurately ripped

End of status report

–– CUETools DB Plugin V2.1.6

[CTDB TOCID: 8lQ6K19LBiDSrRXhsGDsqJ2b02Y-] found
Submit result: already submitted
Track | CTDB Status
1 | (39/39) Accurately ripped
2 | (39/39) Accurately ripped
3 | (39/39) Accurately ripped
4 | (39/39) Accurately ripped
5 | (39/39) Accurately ripped
6 | (39/39) Accurately ripped
7 | (39/39) Accurately ripped
8 | (39/39) Accurately ripped
9 | (39/39) Accurately ripped
10 | (39/39) Accurately ripped
11 | (39/39) Accurately ripped
12 | (39/39) Accurately ripped
13 | (39/39) Accurately ripped
14 | (39/39) Accurately ripped
15 | (39/39) Accurately ripped
16 | (39/39) Accurately ripped


==== Log checksum 07CDD13A1D855F269A47617BEEC30F58063EE8AA09EE8E424BCF832B06944F0A ====

Philippe Herreweghe, Collegium Vocale Gent - Schütz: Geistliche Chormusik (1996)

Thanks to the original releaser