Tags
Language
Tags

Phyllis Hyman - Forever With You (1998)

Posted By: BlondStyle
Phyllis Hyman - Forever With You (1998)

Phyllis Hyman - Forever With You (1998)
R&B, Soul, Quiet Storm, Vocal-Jazz | EAC Rip | FLAC, Img+CUE+LOG+Scans (JPEG) | 53:38 | 430,65 Mb
Label: Philadelphia International Records (USA) | Cat.# 53878-30902-9 | Released: 1998-07-28
Phyllis Hyman - Forever With You (1998)

"Forever with You" is the 10th and final studio album by American soul singer-songwriter Phyllis Hyman. It was released by Volcano Records on July 28, 1998. The album was released three years after Hyman's death and contains twelve previously unreleased songs that were recorded between 1985 and 1995 during her time on the Philadelphia International Records label. The album charted on the Billboard Top R&B Albums chart at #66 in 1998.
~Wikipedia

Phyllis Hyman - Forever With You (1998)

Issued three years after Phyllis Hyman's death, Forever With You collects 12 unreleased songs recorded between 1985-1995, during her tenure with Philadelphia International. Not a single track on this set sounds like filler - the whole album is comprised of well-produced, elegant, and sophisticated songs, running a gamut of musical styles, and further showcases the loss that the music world suffered with Hyman's tragic passing. The album opens with the upbeat, Latin-tinged title track, and then heads into quiet storm territory with "Funny How Love Goes" (a duet with newcomer Damon), "Come Right or Not at All," "The Strength of a Woman," and her faithful cover of the Stylistics' "Hurry Up This Way Again." The album veers into left gear with the energetic house track "How Long," which works incredibly well and, had things gone differently, could have opened up a whole different market for Hyman. "Someone to Love," the greatest torch song Barbra Streisand never recorded, is a definite album highlight, and brings to mind the music of classic Hollywood films of the 1940s. Hyman tackles hip-hop lite with "Tell Me What You're Gonna Do," provides a socially conscious quiet storm ballad with "The Kids," and vamps coyly on the sexy "Set a Little Trap," another album highlight. This set closes with the shuffling, hip-hop-laced "No One but You" and the soaring ballad "Souvenirs." Forever With You, which also includes several songs co-written by Hyman, is a must for any fan, and sounds like an actual, cohesive set, as opposed to a compilation of rarities and unreleased material. As always, however, the star is Hyman's tortured, elegant, and ferocious voice, and the unparalleled conviction that she injects into each song. Another four-star set from the great, regal Sophisticated Lady.
~Review by Jose F. Promis

Phyllis Hyman - Forever With You (1998)

Phyllis Hyman - Forever With You (1998)


Release of this album/CD: 1998, July, 27 [CD Philadelphia International Records (USA), Cat.# 53878-30902-9 / UPC: 653878309029]
©&℗ Assorted Music Inc.
Manufactured by Philadelphia International Records.
Printed/Made in U.S.A.


Credits:

A&R [Coordinator] – Elaine "EJ" Johnson
Art Direction, Design – Frist Impression Group Inc., Rubin Benson
Engineer [Assistant] – Gordon Rice (tracks: 12), Jason Perez (tracks: 3, 6), Ken Ross (tracks: 12)
Engineer [Mixing] – Arthur Stoppe (tracks: 12), Bruce Weeden (tracks: 3, 6), Craig White (tracks: 1, 2, 4, 5, 7, 10, 11), Mark Partis (tracks: 8), Scott MacMinn (tracks: 9)
Engineer [Recording] – Angelo Morris (tracks: 3), Arthur Stoppe (tracks: 12), Barry J. Eastmond (tracks: 8), Bruce Weeden (tracks: 3), Charles Barwick (tracks: 6), Craig White (tracks: 1, 2, 4, 5, 7, 10, 11), James P. Gallagher (tracks: 10, 11), Mark Partis (tracks: 8), Scott MacMinn (tracks: 1, 2, 4, 5, 7, 9 to 11)
Executive-Producer – Kenneth Gamble, Leon A. Huff
Lead Vocals – Phyllis Hyman
Liner Notes – Kenneth Gamble
Management – Gracia, Francis & Associates
Mastered By – Peter Humphreys
Music Consultant – Harry J. Coombs
Photography By – Phyllis Cuington


Tracklist:

01. Forever With You (04:20)
02. Funny How Love Goes (Introducing Damon) (04:49)
03. Come Right Or Not At All (04:37)
04. The Strength Of A Woman (04:25)
05. Hurry Up This Way Again (04:22)
06. How Long (04:19)
07. Someone To Love (04:03)
08. Tell Me What You're Gonna Do (04:39)
09. The Kids (04:41)
10. Set A Little Trap (04:20)
11. No One But You (04:33)
12. Souvenirs (04:30)

Exact Audio Copy V1.6 from 23. October 2020

EAC extraction logfile from 22. August 2021, 21:05

Phyllis Hyman / Forever With You

Used drive : Memorex MRX-650LE v7 Adapter: 1 ID: 1

Read mode : Secure
Utilize accurate stream : Yes
Defeat audio cache : Yes
Make use of C2 pointers : No

Read offset correction : 6
Overread into Lead-In and Lead-Out : No
Fill up missing offset samples with silence : Yes
Delete leading and trailing silent blocks : No
Null samples used in CRC calculations : Yes
Used interface : Native Win32 interface for Win NT & 2000

Used output format : User Defined Encoder
Selected bitrate : 768 kBit/s
Quality : High
Add ID3 tag : Yes
Command line compressor : C:\Program Files (x86)\Exact Audio Copy\FLAC\FLAC.EXE
Additional command line options : -6 -V -T "ARTIST=%artist%" -T "TITLE=%title%" -T "ALBUM=%albumtitle%" -T "DATE=%year%" -T "TRACKNUMBER=%tracknr%" -T "GENRE=%genre%" -T "COMMENT=%comment%" -T "BAND=%albuminterpret%" -T "ALBUMARTIST=%albuminterpret%" -T "COMPOSER=%composer%" %haslyrics%–tag-from-file=LYRICS="%lyricsfile%"%haslyrics% -T "DISCNUMBER=%cdnumber%" -T "TOTALDISCS=%totalcds%" -T "TOTALTRACKS=%numtracks%" %hascover%–picture="%coverfile%"%hascover% %source% -o %dest%


TOC of the extracted CD

Track | Start | Length | Start sector | End sector
––––––––––––––––––––––––––––-
1 | 0:00.00 | 4:20.07 | 0 | 19506
2 | 4:20.07 | 4:48.58 | 19507 | 41164
3 | 9:08.65 | 4:37.03 | 41165 | 61942
4 | 13:45.68 | 4:24.62 | 61943 | 81804
5 | 18:10.55 | 4:22.31 | 81805 | 101485
6 | 22:33.11 | 4:18.69 | 101486 | 120904
7 | 26:52.05 | 4:03.13 | 120905 | 139142
8 | 30:55.18 | 4:38.56 | 139143 | 160048
9 | 35:33.74 | 4:41.11 | 160049 | 181134
10 | 40:15.10 | 4:20.14 | 181135 | 200648
11 | 44:35.24 | 4:33.15 | 200649 | 221138
12 | 49:08.39 | 4:30.22 | 221139 | 241410


Range status and errors

Selected range

Filename C:\Users\M@ce\Music\Phyllis Hyman - Forever With You.wav

Peak level 99.9 %
Extraction speed 4.6 X
Range quality 100.0 %
Test CRC BB156774
Copy CRC BB156774
Copy OK

No errors occurred


AccurateRip summary

Track 1 accurately ripped (confidence 2) [B85E95D2] (AR v2)
Track 2 accurately ripped (confidence 2) [357DB8AA] (AR v2)
Track 3 accurately ripped (confidence 2) [A95B0810] (AR v2)
Track 4 accurately ripped (confidence 2) [649414DD] (AR v2)
Track 5 accurately ripped (confidence 2) [DD603125] (AR v2)
Track 6 accurately ripped (confidence 2) [B3DA806C] (AR v2)
Track 7 accurately ripped (confidence 2) [8A15D3ED] (AR v2)
Track 8 accurately ripped (confidence 2) [61EFA997] (AR v2)
Track 9 accurately ripped (confidence 2) [77FD4A20] (AR v2)
Track 10 accurately ripped (confidence 2) [682F36EC] (AR v2)
Track 11 accurately ripped (confidence 2) [310A87D9] (AR v2)
Track 12 accurately ripped (confidence 2) [3FD2AB1F] (AR v2)

All tracks accurately ripped

End of status report

–– CUETools DB Plugin V2.1.6

[CTDB TOCID: 3GwaGcxi2hlQ4a4jLeHCm39RhyI-] found
Submit result: 3GwaGcxi2hlQ4a4jLeHCm39RhyI- has been confirmed
Track | CTDB Status
1 | (6/6) Accurately ripped
2 | (6/6) Accurately ripped
3 | (6/6) Accurately ripped
4 | (6/6) Accurately ripped
5 | (6/6) Accurately ripped
6 | (6/6) Accurately ripped
7 | (6/6) Accurately ripped
8 | (6/6) Accurately ripped
9 | (6/6) Accurately ripped
10 | (6/6) Accurately ripped
11 | (5/6) Accurately ripped
12 | (6/6) Accurately ripped


==== Log checksum FADA3EE12891BC4141F7C8DCD9C3C55316B2476B9162C28CB50A94DAEB403097 ====

––––––––––––––––––––––––––––––––––––––––
Analyzed: Phyllis Hyman / Forever With You
––––––––––––––––––––––––––––––––––––––––

DR Peak RMS Duration Track
––––––––––––––––––––––––––––––––––––––––
DR10 -0.01 dB -11.50 dB 4:20 01-Forever With You
DR9 -0.01 dB -11.02 dB 4:49 02-Funny How Love Goes (Introducing Damon)
DR9 -0.01 dB -10.66 dB 4:37 03-Come Right Or Not At All
DR9 -0.01 dB -11.23 dB 4:25 04-The Strength Of A Woman
DR10 -0.01 dB -12.49 dB 4:22 05-Hurry Up This Way Again
DR8 -0.01 dB -9.71 dB 4:19 06-How Long
DR12 -0.01 dB -16.75 dB 4:03 07-Someone To Love
DR9 -0.01 dB -10.79 dB 4:39 08-Tell Me What You're Gonna Do
DR10 -0.01 dB -11.36 dB 4:41 09-The Kids
DR9 -0.01 dB -11.74 dB 4:20 10-Set A Little Trap
DR10 -0.01 dB -11.11 dB 4:33 11-No One But You
DR10 -0.01 dB -11.80 dB 4:30 12-Souvenirs
––––––––––––––––––––––––––––––––––––––––

Number of tracks: 12
Official DR value: DR10

Samplerate: 44100 Hz
Channels: 2
Bits per sample: 16
Bitrate: 938 kbps
Codec: FLAC
================================================================================

Thanks to my friend, M@ce

See also:
Phyllis Hyman - You Know How To Love Me (1979) [2008, Japan]

♫~Welcome To My Blog~♫

password: BlondStyle