Subcategories

Daniel Barenboim, Boulez Ensemble - Pierre Boulez Saal: Opening Concert 2017 [Blu-Ray] (2020)

Posted By: Vilboa
Daniel Barenboim, Boulez Ensemble - Pierre Boulez Saal: Opening Concert 2017 [Blu-Ray] (2020)

Daniel Barenboim, Boulez Ensemble - Pierre Boulez Saal: Opening Concert 2017 [Blu-Ray] (2020)
BluRay | BDMV | MPEG-4 AVC Video / 31944 kbps / 1080i / 29,970 fps | 144 min | 39,3 Gb
Audio1: Deutsch / LPCM Audio / 2.0 / 24-bit | Audio2: DTS-HD Master Audio / 5.0 / 48 kHz / 1888 kbps / 24-bit
––––––
BluRay-rip | AVC | MKV 1920x1080 / 6215 kbps / 29,97 fps | 144 min | 7,78 Gb
Audio: Deutsch / DTS / 5ch / 48.0 KHz / 24 bits
Classical | Arthaus Musik

In the Pierre Boulez Saal Opening Concert, Daniel Barenboim, the Boulez Ensemble and renowned soloists are celebrating the idea of what this new concert hall of the Barenboim Said-Academy in Berlin stands for: to create a space where beloved classics, modern masterworks of the early 20th century, and music of our time can be heard side by side and inspire audiences and performers alike.
The Boulez Ensemble, which has been founded especially for the new concert hall, consists of musicians drawn from the ranks of the Staatskapelle Berlin, the West-Eastern Divan Orchestra, and of professors from the Barenboim-Said Akademie. For its concerts, it will regularly be joined by guest artists (both singers and instrumentalists) in order to cover a wide array of musical styles and to combine flexibility with a fine sense of each separate musical voice.
Together with conductor Daniel Barenboim the Boulez Ensemble takes its audience on a musical journey from the 18th century to our days. Soprano Anna Prohaska and clarinettist Jörg Widmann present Schubert’s lyrical scene Der Hirt auf dem Felsen, while the latter also partners with the Ensemble’s strings in Mozart’s Piano Quartet. Karim Said and Michael Barenboim take on Berg’s Chamber Concerto, and Widmann performs his own Fantasy for Solo Clarinet. In honour of the recently deceased French composer and conductor Pierre Boulez, to which the concert hall has been dedicated, the programme is opened by his fanfare-like Initiale and closed with Sur Incises.

Cast:
Anna Prohaska, soprano
Jörg Widmann, clarinet
Karim Said, piano
Michael Barenboim, violin
Kian Soltani, violoncello
Yulia Deyneka, viola
Boulez Ensemble
Daniel Barenboim, piano & conductor

Track List
01. Opening
02. Pierre Boulez: Initiale
03. Franz Schubert: Der Hirt auf dem Felsen D 965 for Soprano, Clarinet and Piano
Wolfgang Amadeus Mozart: Piano Quartet in E-flat Major K. 493
04. I. Allegro
05. II. Larghetto
06. III. Allegretto
Alban Berg: Chamber Concerto for Piano and Violin with 13 Wind Instruments
07. I. Thema scherzoso con Variazioni
08. II. Adagio
09. III. Rondo ritmico con Introduzione
10. Jörg Widmann: Fantasie for Clarinet solo
11. Pierre Boulez: sur Incises


Disc Title: Pierre Boulez Saal
Disc Size: 42 250 320 218 bytes
Protection: AACS
Playlist: 00009.MPLS
Size: 41 014 441 344 bytes
Length: 2:23:36.307
Total Bitrate: 38.08 Mbps
Video: MPEG-4 AVC Video / 31944 kbps / 1080i / 29.970 fps / 16:9 / High Profile 4.1
Audio: German / LPCM Audio / 2.0 / 48 kHz / 2304 kbps / 24-bit
Audio: German / DTS-HD Master Audio / 5.0 / 48 kHz / 1888 kbps / 24-bit (DTS Core: 5.0 / 48 kHz / 1509 kbps / 24-bit)


General
Unique ID : 225564729751538228667807308134914450177 (0xA9B22FCE5D1B89B7A2FEAA0147E7E301)
Complete name : C:\Pierre Boulez Saal.mkv
Format : Matroska
Format version : Version 2
File size : 7.79 GiB
Duration : 2h 23mn
Overall bit rate : 7 762 Kbps
Movie name : Pierre Boulez Saal
Encoded date : UTC 2020-02-17 07:34:58
Writing application : DVDFab 9.1.6.8
Writing library : libebml v0.7.8 + libmatroska v0.8.1

Video
ID : 1
Format : AVC
Format/Info : Advanced Video Codec
Format profile : High@L4.1
Format settings, CABAC : Yes
Format settings, ReFrames : 2 frames
Codec ID : V_MPEG4/ISO/AVC
Duration : 2h 23mn
Bit rate : 6 215 Kbps
Width : 1 920 pixels
Height : 1 080 pixels
Display aspect ratio : 16:9
Frame rate mode : Constant
Frame rate : 29.970 fps
Color space : YUV
Chroma subsampling : 4:2:0
Bit depth : 8 bits
Scan type : Progressive
Bits/(Pixel*Frame) : 0.100
Stream size : 6.12 GiB (79%)
Writing library : x264 core 142
Encoding settings : cabac=1 / ref=1 / deblock=1:-1:-1 / analyse=0x3:0 / me=hex / subme=5 / psy=0 / mixed_ref=0 / me_range=16 / chroma_me=1 / trellis=0 / 8x8dct=1 / cqm=0 / deadzone=21,11 / fast_pskip=1 / chroma_qp_offset=0 / threads=8 / lookahead_threads=2 / sliced_threads=0 / nr=0 / decimate=1 / interlaced=0 / bluray_compat=0 / constrained_intra=0 / bframes=2 / b_pyramid=0 / b_adapt=1 / b_bias=0 / direct=1 / weightb=1 / open_gop=0 / weightp=0 / keyint=24 / keyint_min=13 / scenecut=40 / intra_refresh=0 / rc=abr / mbtree=0 / bitrate=6215 / ratetol=1.0 / qcomp=0.60 / qpmin=0 / qpmax=69 / qpstep=4 / ip_ratio=1.40 / pb_ratio=1.30 / aq=1:1.00
Default : Yes
Forced : No
Color primaries : BT.709
Transfer characteristics : BT.709
Matrix coefficients : BT.709
Color range : Limited

Audio
ID : 2
Format : DTS
Format/Info : Digital Theater Systems
Mode : 16
Format settings, Endianness : Big
Codec ID : A_DTS
Duration : 2h 23mn
Bit rate mode : Constant
Bit rate : 1 509 Kbps
Channel(s) : 5 channels
Channel positions : Front: L C R, Side: L R
Sampling rate : 48.0 KHz
Bit depth : 24 bits
Compression mode : Lossy
Stream size : 1.51 GiB (19%)
Language : German
Default : Yes
Forced : No

Menu
00:00:00.000 : en:Chapter 01
00:01:16.576 : en:Chapter 02
00:06:38.030 : en:Chapter 03
00:20:12.711 : en:Chapter 04
00:30:41.406 : en:Chapter 05
00:40:13.210 : en:Chapter 06
00:52:08.859 : en:Chapter 07
01:00:55.485 : en:Chapter 08
01:13:52.961 : en:Chapter 09
01:27:57.538 : en:Chapter 10
01:36:50.604 : en:Chapter 11
02:22:22.433 : en:Chapter 12

All screenshots taken from BDRip

Daniel Barenboim, Boulez Ensemble - Pierre Boulez Saal: Opening Concert 2017 [Blu-Ray] (2020)