Tags
Language
Tags

Pink Floyd - Live In London 1970 (1992)

Posted By: v3122
Pink Floyd - Live In London 1970 (1992)

Pink Floyd - Live In London 1970 (1992)
EAC | Flac(Image) + Cue + Log & MP3 CBR 320Kbps
Black Panther, ABP-064 | Japan | ~ 257 or 120 Mb | Artwork -> 28 Mb
Progressive Rock | Unofficial Release

~ Recorded live in Playhouse Theatre, London 16th September 1970. ~

Pink Floyd - Live In London 1970 (1992):

Pink Floyd - Live In London 1970 (1992)

Tracklist:

01. The Embryo (10:14)
02. Green Is The Colour (3:23)
03. Careful With That Axe, Eugene (7:500
04. If (4:27)
05. Atom Heart Mother (24:43)

Exact Audio Copy V1.0 beta 2 from 29. April 2011

Отчёт EAC об извлечении, выполненном 18. сентября 2011, 17:06

Pink Floyd / Live In London 1970

Дисковод: PLEXTOR CD-R PREMIUM2 Adapter: 0 ID: 0

Режим чтения : Достоверность
Использование точного потока : Да
Отключение кэша аудио : Да
Использование указателей C2 : Нет

Коррекция смещения при чтении : 30
Способность читать области Lead-in и Lead-out : Да
Заполнение пропущенных сэмплов тишиной : Да
Удаление блоков с тишиной в начале и конце : Нет
При вычислениях CRC использовались нулевые сэмплы : Да
Интерфейс : Встроенный Win32-интерфейс для Win NT/2000

Выходной формат : Внутренние WAV-операции
Формат сэмплов : 44.100 Гц; 16 бит; стерео


TOC извлечённого CD

Трек | Старт | Длительность | Начальный сектор | Конечный сектор
––––––––––––––––––––––––––––––––––-
1 | 0:00.33 | 10:15.47 | 33 | 46204
2 | 10:16.05 | 3:23.28 | 46205 | 61457
3 | 13:39.33 | 7:50.10 | 61458 | 96717
4 | 21:29.43 | 4:30.45 | 96718 | 117012
5 | 26:00.13 | 24:46.02 | 117013 | 228464


Характеристики диапазона извлечения и сообщения об ошибках

Выбранный диапазон

Имя файла F:\For rutracker.org\Pink Floyd\Pink Floyd - Live In London 1970\Pink Floyd - Live In London 1970.wav

Пиковый уровень 100.0 %
Скорость извлечения 6.6 X
Качество диапазона 100.0 %
CRC теста E86D8FCD
CRC копии E86D8FCD
Копирование… OK

Ошибок не произошло


AccurateRip: сводка

Трек 1 : извлечено точно (доверие 2) [70629B32] (AR v1)
Трек 2 : извлечено точно (доверие 2) [C0CF5B05] (AR v1)
Трек 3 : извлечено точно (доверие 2) [F36F7699] (AR v1)
Трек 4 : извлечено точно (доверие 2) [F21CD5B3] (AR v1)
Трек 5 : извлечено точно (доверие 2) [15CEEC16] (AR v1)

Все треки извлечены точно

Конец отчёта

==== Контрольная сумма отчёта D6890B13F6C7EB0DB74B372129EBA51CF42A7455D7CCE678A4BC9EDFF9288C85 ====


[CUETools log; Date: 18.09.2011 17:07:44; Version: 2.1.2a]
Pregap length 00:00:33.
[AccurateRip ID: 00086404-0027f898-370be605] found.
Track [ CRC ] Status
01 [70629b32] (2/2) Accurately ripped
02 [c0cf5b05] (2/2) Accurately ripped
03 [f36f7699] (2/2) Accurately ripped
04 [f21cd5b3] (2/2) Accurately ripped
05 [15ceec16] (2/2) Accurately ripped

Track Peak [ CRC32 ] [W/O NULL] [ LOG ]
– 100,0 [E86D8FCD] [95558089] CRC32
01 99,4 [79070A0B] [E3F815AC]
02 76,1 [118350F2] [8C36DC01]
03 89,2 [285C0DFE] [0B96431B]
04 96,8 [FAD7F2A5] [9194365A]
05 100,0 [BE404172] [C7C3FB6C]


Pink Floyd - Live In London 1970 (1992)

All thanks go to Stripakulina

Pink Floyd in my Blog

Download Pink Floyd - Live In London 1970 (1992):