Tags
Language
Tags

Premiata Forneria Marconi - Jet Lag (1977) [2011, Japanese HQCD]

Posted By: v3122
Premiata Forneria Marconi - Jet Lag (1977) [2011, Japanese HQCD]

Premiata Forneria Marconi - Jet Lag (1977)
EAC | Flac(Image) + Cue + Log & MP3 CBR 320Kbps
Victor, VICP-75019 | ~ 396 or 139 Mb | Artwork(png) -> 64 Mb
Progressive Rock / RPI

As PFM's work showed the increasing influence of electric jazz, the releases showed more impressive chops and yet also became less compelling to listen to. Jet Lag is the first release of theirs to cross this line, as it's noticeably less enjoyable than the previous year's Chocolate Kings. Still, it has its moments-the interlaced electric piano and violin of the lengthy title track and the instrumental "Left Handed Theory" salvage an otherwise forgettable effort.

by Paul Collins, allmusic
Premiata Forneria Marconi - Jet Lag (1977):

Premiata Forneria Marconi - Jet Lag (1977) [2011, Japanese HQCD]

Tracklist:

01. Peninsula 02:38
02. Jet Lag 09:12
03. Storia In 'LA' 06:27
04. Breakin' In 04:08
05. Cerco La Lingua 05:34
06. Meridiani 06:00
07. Left-Handed Theory 04:12
08. Traveler 05:45
Bonus Track:
09. La Carrozza Di Hans (Live Recorded At Nottingam University In 1976) 14:45

Exact Audio Copy V1.0 beta 3 from 29. August 2011

EAC extraction logfile from 22. July 2014, 20:53

PFM / Jet Lag HQCD

Used drive : PLEXTOR BD-R PX-B950SA Adapter: 6 ID: 0

Read mode : Secure
Utilize accurate stream : Yes
Defeat audio cache : Yes
Make use of C2 pointers : No

Read offset correction : 6
Overread into Lead-In and Lead-Out : No
Fill up missing offset samples with silence : Yes
Delete leading and trailing silent blocks : No
Null samples used in CRC calculations : Yes
Used interface : Native Win32 interface for Win NT & 2000

Used output format : Internal WAV Routines
Sample format : 44.100 Hz; 16 Bit; Stereo


TOC of the extracted CD

Track | Start | Length | Start sector | End sector
––––––––––––––––––––––––––––-
1 | 0:00.00 | 2:38.27 | 0 | 11876
2 | 2:38.27 | 9:12.59 | 11877 | 53335
3 | 11:51.11 | 6:27.03 | 53336 | 82363
4 | 18:18.14 | 4:08.55 | 82364 | 101018
5 | 22:26.69 | 5:34.13 | 101019 | 126081
6 | 28:01.07 | 6:00.20 | 126082 | 153101
7 | 34:01.27 | 4:12.44 | 153102 | 172045
8 | 38:13.71 | 5:45.70 | 172046 | 197990
9 | 43:59.66 | 14:45.08 | 197991 | 264373


Range status and errors

Selected range

Filename C:\Users\Meijin\Desktop\ALLexxess\PFM\1977 Jet Lag (Mini LP HQCD K2HD Victor Japan 2011)\PFM - Jet Lag HQCD.wav

Peak level 100.0 %
Extraction speed 7.2 X
Range quality 99.9 %
Test CRC EF8269F4
Copy CRC EF8269F4
Copy OK

No errors occurred


AccurateRip summary

Track 1 cannot be verified as accurate (confidence 6) [5FDAA339], AccurateRip returned [13F16A86] (AR v2)
Track 2 cannot be verified as accurate (confidence 6) [9888DD7B], AccurateRip returned [DE107790] (AR v2)
Track 3 cannot be verified as accurate (confidence 6) [629571C0], AccurateRip returned [134427EA] (AR v2)
Track 4 cannot be verified as accurate (confidence 6) [6842C71A], AccurateRip returned [AE1EBBCA] (AR v2)
Track 5 cannot be verified as accurate (confidence 6) [AE54E26F], AccurateRip returned [F0321E5B] (AR v2)
Track 6 cannot be verified as accurate (confidence 6) [754A51D6], AccurateRip returned [B532167B] (AR v2)
Track 7 cannot be verified as accurate (confidence 6) [9B838AFC], AccurateRip returned [A2B5AA58] (AR v2)
Track 8 cannot be verified as accurate (confidence 6) [75947AFE], AccurateRip returned [E2A75CD8] (AR v2)
Track 9 cannot be verified as accurate (confidence 6) [43138A43], AccurateRip returned [42BF05DA] (AR v2)

No tracks could be verified as accurate
You may have a different pressing from the one(s) in the database

End of status report

==== Log checksum BFFD85BD8B44C5E0082E58FCCBE9DBAC9B06A31BF4135A494FEDA12CD20269EB ====


[CUETools log; Date: 09.12.2019 11:46:34; Version: 2.1.4]
[AccurateRip ID: 0011bbcf-0083f763-600dc409] found.
Track [ CRC | V2 ] Status
01 [b7a8a519|5fdaa339] (00+04/22) Accurately ripped
02 [c07618ff|9888dd7b] (00+04/22) Accurately ripped
03 [b7457f2b|629571c0] (00+04/22) Accurately ripped
04 [4c4e1ef3|6842c71a] (00+04/22) Accurately ripped
05 [8c019612|ae54e26f] (00+04/22) Accurately ripped
06 [673809f0|754a51d6] (00+04/22) Accurately ripped
07 [d0e48545|9b838afc] (00+04/22) Accurately ripped
08 [544ecbb0|75947afe] (00+04/22) Accurately ripped
09 [da5a8ad8|43138a43] (00+04/21) Accurately ripped

Track Peak [ CRC32 ] [W/O NULL] [ LOG ]
– 100,0 [EF8269F4] [233FCA82] CRC32
01 100,0 [9888BC1F] [41ED3213]
02 98,8 [C20B473F] [EFC9A277]
03 98,8 [2497FE50] [207BA491]
04 100,0 [9A8B31F9] [C2AEB9EB]
05 100,0 [4273B7F8] [B771F76F]
06 100,0 [30C89B5E] [95AF7A0E]
07 100,0 [295F3EF5] [58260331]
08 98,8 [9832EF84] [150F219C]
09 98,8 [2D4205F7] [B2BAB7C7]


Premiata Forneria Marconi - Jet Lag (1977) [2011, Japanese HQCD]

All thanks go to ALLexxess

Premiata Forneria Marconi in my Blog

Download Premiata Forneria Marconi - Jet Lag (1977):