Tags
Language
Tags
June 2024
Su Mo Tu We Th Fr Sa
26 27 28 29 30 31 1
2 3 4 5 6 7 8
9 10 11 12 13 14 15
16 17 18 19 20 21 22
23 24 25 26 27 28 29
30 1 2 3 4 5 6

Pride Of Lions - Dream Higher (2023) {Japanese Edition}

Posted By: popsakov
Pride Of Lions - Dream Higher (2023) {Japanese Edition}

Pride Of Lions - Dream Higher (2023) {Japanese Edition}
XLD Rip | FLAC (Img) + Cue + Log ~ 411 Mb | MP3 CBR320 ~ 159 Mb
Full Scans | 00:48:37 | RAR 5% Recovery
Hard Rock | Avalon #MICP-11795

Pride of Lions, the revered melodic rock band featuring legendary songwriter and The Ides Of March member Jim Peterik together with powerhouse vocalist Toby Hitchcock, are back with their seventh studio album, “Dream Higher” on June 16, 2023. Once again, Peterik shows why he is a world class songwriter and musician on this new batch of stunning melodic rockers. And his partner in crime in Pride Of Lions, the talented Toby Hitchcock is in as fine a vocal form as he has ever been, belting out these songs with the authority and finesse that only he can.The first single from the album, 'Blind To Reason' is out today.

Jim Peterik has never lost his verve for melodic rock, a style of music he inarguably helped forge. Pride Of Lions showcases everything that you should love about the genre: powerful vocals, thanks to Toby Hitchcock, and unforgettable melodies. Since the start of Pride of Lions, Jim Peterik wanted to take listeners back to the glory of his best, most successful songs. His name is rightfully in the pantheon of great songwriters in melodic rock due to his love for melody and driving rock. His phenomenal rise to the top was borne on the back of amazing songs he co-wrote like “Eye Of The Tiger” from the film “Rocky III” ( an indelible classic), “The Search Is Over”, “High On You”, and “I Can’t Hold Back”. Further hits from films followed like “Burning Heart” from “Rocky IV” and Jim co-wrote the theme song of the seminal animation classic “Heavy Metal” with Sammy Hagar. A long lasting and fruitful relationship started in 1980 between Jim and the southern-rock group .38 Special, where he co-wrote their platinum hits “Hold On Loosely”, “Caught Up In You”, “Wild-Eyed Southern Boys”, “Fantasy Girl”, and “Rockin’ Into The Night”. Jim has also written with the beloved Lynyrd Skynyrd.

***************

Track List:

01. Blind To Reason [4:41]
02. Dream Higher [4:30]
03. My Destiny [3:57]
04. Find Somebody To Love [4:17]
05. Another Life [3:58]
06. Renegate Heart [4:24]
07. Driving And Dreaming [5:12]
08. Through It All [5:21]
09. Everything To Live For [3:24]
10. Generational [4:35]
11. Renegate Heart - Acoustic Version [4:23]

X Lossless Decoder version 20230627 (156.1)

XLD extraction logfile from 2023-07-19 16:51:43 +1000

Pride Of Lions / Dream Higher

Used drive : HL-DT-ST DVDRW GX50N (revision RR06)
Media type : Pressed CD

Ripper mode : XLD Secure Ripper
Disable audio cache : OK for the drive with a cache less than 1375KiB
Make use of C2 pointers : NO
Read offset correction : 6
Max retry count : 20
Gap status : Analyzed, Appended

TOC of the extracted CD
Track | Start | Length | Start sector | End sector
––––––––––––––––––––––––––––-
1 | 00:00:00 | 04:40:12 | 0 | 21011
2 | 04:40:12 | 04:29:22 | 21012 | 41208
3 | 09:09:34 | 03:56:68 | 41209 | 58976
4 | 13:06:27 | 04:16:67 | 58977 | 78243
5 | 17:23:19 | 03:57:57 | 78244 | 96075
6 | 21:21:01 | 04:23:55 | 96076 | 115855
7 | 25:44:56 | 05:11:11 | 115856 | 139191
8 | 30:55:67 | 05:20:18 | 139192 | 163209
9 | 36:16:10 | 03:23:48 | 163210 | 178482
10 | 39:39:58 | 04:34:20 | 178483 | 199052
11 | 44:14:03 | 04:22:59 | 199053 | 218761

AccurateRip Summary
Disc not found in AccurateRip DB.

All Tracks
Filename : /Volumes/Music/My Collection/Pride Of Lions/2023 - Dream Higher/Dream Higher.flac
CRC32 hash (test run) : 4082529D
CRC32 hash : 4082529D
CRC32 hash (skip zero) : C5FA4741
Statistics
Read error : 0
Jitter error (maybe fixed) : 0
Retry sector count : 0
Damaged sector count : 0

Track 01
Pre-gap length : 00:02:00

CRC32 hash (test run) : E0BEDA59
CRC32 hash : E0BEDA59
CRC32 hash (skip zero) : ADA20B18
AccurateRip v1 signature : 3AEB7800
AccurateRip v2 signature : B9778ACB
->Track not present in AccurateRip database.
Statistics
Read error : 0
Jitter error (maybe fixed) : 0
Retry sector count : 0
Damaged sector count : 0

Track 02

CRC32 hash (test run) : C6142E98
CRC32 hash : C6142E98
CRC32 hash (skip zero) : 494E88F3
AccurateRip v1 signature : F8BFFFAE
AccurateRip v2 signature : CB329A4C
->Track not present in AccurateRip database.
Statistics
Read error : 0
Jitter error (maybe fixed) : 0
Retry sector count : 0
Damaged sector count : 0

Track 03

CRC32 hash (test run) : AF1CE207
CRC32 hash : AF1CE207
CRC32 hash (skip zero) : F7E537DC
AccurateRip v1 signature : 1F5EBDDF
AccurateRip v2 signature : A53F700B
->Track not present in AccurateRip database.
Statistics
Read error : 0
Jitter error (maybe fixed) : 0
Retry sector count : 0
Damaged sector count : 0

Track 04

CRC32 hash (test run) : 354677F4
CRC32 hash : 354677F4
CRC32 hash (skip zero) : 6ECDEE52
AccurateRip v1 signature : BA7B2E11
AccurateRip v2 signature : E7629E09
->Track not present in AccurateRip database.
Statistics
Read error : 0
Jitter error (maybe fixed) : 0
Retry sector count : 0
Damaged sector count : 0

Track 05

CRC32 hash (test run) : 16108899
CRC32 hash : 16108899
CRC32 hash (skip zero) : AB908D3C
AccurateRip v1 signature : 53DF8944
AccurateRip v2 signature : 7A2AD6B3
->Track not present in AccurateRip database.
Statistics
Read error : 0
Jitter error (maybe fixed) : 0
Retry sector count : 0
Damaged sector count : 0

Track 06

CRC32 hash (test run) : 9D5225DD
CRC32 hash : 9D5225DD
CRC32 hash (skip zero) : 7BDA91B8
AccurateRip v1 signature : F4563B5C
AccurateRip v2 signature : 19E6D525
->Track not present in AccurateRip database.
Statistics
Read error : 0
Jitter error (maybe fixed) : 0
Retry sector count : 0
Damaged sector count : 0

Track 07

CRC32 hash (test run) : D3A5E410
CRC32 hash : D3A5E410
CRC32 hash (skip zero) : 45672A3B
AccurateRip v1 signature : 1C4E990A
AccurateRip v2 signature : 0E310441
->Track not present in AccurateRip database.
Statistics
Read error : 0
Jitter error (maybe fixed) : 0
Retry sector count : 0
Damaged sector count : 0

Track 08

CRC32 hash (test run) : 429337C9
CRC32 hash : 429337C9
CRC32 hash (skip zero) : C639460F
AccurateRip v1 signature : 258AD644
AccurateRip v2 signature : C0DEEE86
->Track not present in AccurateRip database.
Statistics
Read error : 0
Jitter error (maybe fixed) : 0
Retry sector count : 0
Damaged sector count : 0

Track 09

CRC32 hash (test run) : C968D7BA
CRC32 hash : C968D7BA
CRC32 hash (skip zero) : 99280D39
AccurateRip v1 signature : 644EC617
AccurateRip v2 signature : C91AECA7
->Track not present in AccurateRip database.
Statistics
Read error : 0
Jitter error (maybe fixed) : 0
Retry sector count : 0
Damaged sector count : 0

Track 10

CRC32 hash (test run) : 5F51378A
CRC32 hash : 5F51378A
CRC32 hash (skip zero) : 984BDD38
AccurateRip v1 signature : B795AE90
AccurateRip v2 signature : 76A09E2A
->Track not present in AccurateRip database.
Statistics
Read error : 0
Jitter error (maybe fixed) : 0
Retry sector count : 0
Damaged sector count : 0

Track 11

CRC32 hash (test run) : 9787F9C8
CRC32 hash : 9787F9C8
CRC32 hash (skip zero) : 314ABD71
AccurateRip v1 signature : A405A7BC
AccurateRip v2 signature : F52B7A90
->Track not present in AccurateRip database.
Statistics
Read error : 0
Jitter error (maybe fixed) : 0
Retry sector count : 0
Damaged sector count : 0

No errors occurred

End of status report

––-BEGIN XLD SIGNATURE––-
mrLwzdKrsYXmR4wmV9DCHYkeBoExx64_qx0LctRdPnQqWFGbdsMtk3kZE.lvaYeGB3l7QZ1UbFzyIC20cTB2rbMq_XPKlJOQOepKXQC
––-END XLD SIGNATURE––-

All thanks go to anvador

>>> My Blog <<<

DOWNLOAD: