Tags
Language
Tags

Procol Harum: A Salty Dog (1969) / Home (1970) [2003, BGO Rec. BGOCD558]

Posted By: v3122
Procol Harum: A Salty Dog (1969) / Home (1970) [2003, BGO Rec. BGOCD558]

Procol Harum: A Salty Dog (1969) / Home (1970)
EAC | Flac(Image) + Cue + Log & MP3 CBR 320Kbps
2003 | BGO Rec. BGOCD558 | ~ 467 or 215 Mb | Scans(600dpi, jpg) -> Mb
Psychedelic Rock / Prog Rock / Classic Rock

This is a reissue of Procol Harum's third and fourth albums released in 1969 and 1970. While there was outside and perhaps internal pressure to equal the success of "A Whiter Shade of Pale," this band was not deterred from creating wonderfully creative music that sometimes matched the grandeur of its 1967 smash but just didn't translate into a "hit." A Salty Dog is possibly their finest album as it combines Gary Brooker's majestic and haunting musical themes with Keith Reid's sound poetry and needed bursts from Robin Trower's electric guitar. The chilling title song is every bit the musical statement that "Whiter Shade" was, as was Matthew Fisher's "Wreck of the Hesperus," although Fisher's lead vocal on that song lacks the soulful authority of Brooker. A well-rounded album in every imaginable way (classical, folk, blues, and rock), A Salty Dog was followed by the less artistic Home. That album opened with Trower's unrelenting "Whisky Train," a blues-rock number that perhaps indicated where his heart was during the recording sessions. His guitar work just didn't seem to have the flair and accent as heard on A Salty Dog. The macabre "Dead Man's Dream" is classic Brooker-Reid as it conveys a distinct picture and mood, albeit an unpleasant one. The prevailing theme on Home is one of despair and bitterness, and it resonates to the point of preventing these songs from blossoming. The epic "Whaling Stories" has plenty of build-up but an inadequate denouement. Home is a decent album, but it pales in comparison with A Salty Dog. The seven pages of liner notes offer invaluable insight and historical perspective to these two albums.

by Dave Sleger, AMG
Procol Harum: A Salty Dog (1969) / Home (1970) [2003, BGO Rec. BGOCD558]


Procol Harum: A Salty Dog (1969) / Home (1970):

Procol Harum: A Salty Dog (1969) / Home (1970) [2003, BGO Rec. BGOCD558]

Tracklist CD1 - A Salty Dog:

01. A Salty Dog 4:41
02. The Milk Of Human Kindness 3:49
03. Too Much Between Us 3:49
04. The Devil Came From Kansas 4:41
05. Boredom 4:36
06. Juicy John Pink 2:08
07. Wreck Of The Hesperus 3:50
08. All This And More 3:51
09. Crucifiction Land 4:58
10. Pilgrims Progress 4:32

Exact Audio Copy V1.1 from 23. June 2015

EAC extraction logfile from 17. October 2015, 12:36

Procol Harum / A Salty Dog (BGOCD558) Disc 1

Used drive : PLEXTOR DVDR PX-891SA Adapter: 1 ID: 0

Read mode : Secure
Utilize accurate stream : Yes
Defeat audio cache : Yes
Make use of C2 pointers : No

Read offset correction : 6
Overread into Lead-In and Lead-Out : No
Fill up missing offset samples with silence : Yes
Delete leading and trailing silent blocks : No
Null samples used in CRC calculations : Yes
Used interface : Native Win32 interface for Win NT & 2000

Used output format : User Defined Encoder
Selected bitrate : 128 kBit/s
Quality : High
Add ID3 tag : No
Command line compressor : C:\Program Files (x86)\Exact Audio Copy\Flac\flac.exe
Additional command line options : -V -8 -T "Genre=%genre%" -T "Artist=%artist%" -T "Title=%title%" -T "Album=%albumtitle%" -T "Date=%year%" -T "Tracknumber=%tracknr%" -T "Comment=%comment%" %source%


TOC of the extracted CD

Track | Start | Length | Start sector | End sector
––––––––––––––––––––––––––––-
1 | 0:00.00 | 4:41.15 | 0 | 21089
2 | 4:41.15 | 3:49.32 | 21090 | 38296
3 | 8:30.47 | 3:48.43 | 38297 | 55439
4 | 12:19.15 | 4:40.72 | 55440 | 76511
5 | 17:00.12 | 4:36.05 | 76512 | 97216
6 | 21:36.17 | 2:07.68 | 97217 | 106809
7 | 23:44.10 | 3:49.60 | 106810 | 124044
8 | 27:33.70 | 3:50.45 | 124045 | 141339
9 | 31:24.40 | 4:58.32 | 141340 | 163721
10 | 36:22.72 | 4:32.13 | 163722 | 184134


Range status and errors

Selected range

Filename H:\dafnaplus\Procol Harum\A Salty Dog - Disc 1\Procol Harum - A Salty Dog (BGOCD558) Disc 1.wav

Peak level 98.8 %
Extraction speed 6.9 X
Range quality 99.9 %
Test CRC 3C0D71F3
Copy CRC 3C0D71F3
Copy OK

No errors occurred


AccurateRip summary

Track 1 accurately ripped (confidence 2) [9C1427C2] (AR v2)
Track 2 accurately ripped (confidence 2) [F09734B6] (AR v2)
Track 3 accurately ripped (confidence 2) [845929E5] (AR v2)
Track 4 accurately ripped (confidence 2) [87F62BC2] (AR v2)
Track 5 accurately ripped (confidence 2) [7E5EE37F] (AR v2)
Track 6 accurately ripped (confidence 2) [3DFBE5E8] (AR v2)
Track 7 accurately ripped (confidence 2) [15E7DFCB] (AR v2)
Track 8 accurately ripped (confidence 2) [8145F48C] (AR v2)
Track 9 accurately ripped (confidence 2) [0C663A02] (AR v2)
Track 10 accurately ripped (confidence 2) [BE132A3C] (AR v2)

All tracks accurately ripped

End of status report

–– CUETools DB Plugin V2.1.6

[CTDB TOCID: tGjH2jBnEss7hjzGCljv.DH1XY4-] found
Submit result: tGjH2jBnEss7hjzGCljv.DH1XY4- has been confirmed
Track | CTDB Status
1 | (4/4) Accurately ripped
2 | (4/4) Accurately ripped
3 | (4/4) Accurately ripped
4 | (4/4) Accurately ripped
5 | (4/4) Accurately ripped
6 | (4/4) Accurately ripped
7 | (4/4) Accurately ripped
8 | (4/4) Accurately ripped
9 | (4/4) Accurately ripped
10 | (4/4) Accurately ripped


==== Log checksum 8D725887A9DBC6406E40AB21447B75597CFA28501A98325CBF7B04E95463C276 ====

foobar2000 1.2.9 / Dynamic Range Meter 1.1.1
log date: 2015-10-21 13:39:49

––––––––––––––––––––––––––––––––––––––––
Analyzed: Procol Harum / A Salty Dog (BGOCD558) Disc 1
––––––––––––––––––––––––––––––––––––––––

DR Peak RMS Duration Track
––––––––––––––––––––––––––––––––––––––––
DR9 -3.10 dB -15.71 dB 4:41 01-A Salty Dog
DR9 -0.10 dB -11.40 dB 3:49 02-The Milk Of Human Kindness
DR11 -0.10 dB -14.78 dB 3:49 03-Too Much Between Us
DR9 -0.45 dB -11.17 dB 4:41 04-The Devil Came From Kansas
DR11 -0.10 dB -13.06 dB 4:36 05-Boredom
DR10 -2.60 dB -13.28 dB 2:08 06-Juicy John Pink
DR10 -0.10 dB -10.86 dB 3:50 07-Wreck Of The Hesperus
DR9 -0.10 dB -11.14 dB 3:51 08-All This And More
DR11 -0.10 dB -13.06 dB 4:58 09-Crucifiction Land
DR10 -0.10 dB -11.89 dB 4:32 10-Pilgrims Progress
––––––––––––––––––––––––––––––––––––––––

Number of tracks: 10
Official DR value: DR10

Samplerate: 44100 Hz
Channels: 2
Bits per sample: 16
Bitrate: 727 kbps
Codec: FLAC

[CUETools log; Date: 21.10.2015 13:24:00; Version: 2.1.4]
[CTDB TOCID: tGjH2jBnEss7hjzGCljv.DH1XY4-] found.
Track | CTDB Status
1 | (5/5) Accurately ripped
2 | (5/5) Accurately ripped
3 | (5/5) Accurately ripped
4 | (5/5) Accurately ripped
5 | (5/5) Accurately ripped
6 | (5/5) Accurately ripped
7 | (5/5) Accurately ripped
8 | (5/5) Accurately ripped
9 | (5/5) Accurately ripped
10 | (5/5) Accurately ripped
[AccurateRip ID: 000f63e0-007a5e21-8009970a] found.
Track [ CRC | V2 ] Status
01 [7ac1cb46|9c1427c2] (0+2/6) Accurately ripped
02 [00d03de9|f09734b6] (0+2/6) Accurately ripped
03 [915f798b|845929e5] (0+2/6) Accurately ripped
04 [cec41cfc|87f62bc2] (0+2/6) Accurately ripped
05 [71cc3d2f|7e5ee37f] (0+2/6) Accurately ripped
06 [49ff2794|3dfbe5e8] (0+2/6) Accurately ripped
07 [3ff43323|15e7dfcb] (0+2/6) Accurately ripped
08 [b851b57a|8145f48c] (0+2/6) Accurately ripped
09 [c3f55482|0c663a02] (0+2/6) Accurately ripped
10 [65263f01|be132a3c] (0+2/6) Accurately ripped
Offsetted by 18:
01 [e75fd4bb] (0/6) No match (V2 was not tested)
02 [84715998] (0/6) No match (V2 was not tested)
03 [20f045e0] (0/6) No match (V2 was not tested)
04 [f5de9ea3] (0/6) No match (V2 was not tested)
05 [2efc7f0d] (0/6) No match (V2 was not tested)
06 [64cd3451] (0/6) No match (V2 was not tested)
07 [d23c833a] (0/6) No match (V2 was not tested)
08 [508cb2f4] (0/6) No match (V2 was not tested)
09 [51f59b04] (0/6) No match (V2 was not tested)
10 [8d974401] (0/6) No match (V2 was not tested)

Track Peak [ CRC32 ] [W/O NULL] [ LOG ]
– 98,8 [3C0D71F3] [EA7C5584] CRC32
01 69,9 [2444344C] [1FCFBE68]
02 98,8 [2A662B6B] [9A6D782E]
03 98,8 [3D08F7A7] [1A590A63]
04 94,9 [0AFFA09D] [D13A1D4D]
05 98,8 [9B245449] [F924EFC5]
06 74,1 [6D2C8078] [15CC54B1]
07 98,8 [ED8C8FB3] [19ABD7BB]
08 98,8 [F79F7415] [2539824D]
09 98,8 [8AE86549] [75D4B3C4]
10 98,8 [A86272FB] [B659FCA4]

Procol Harum: A Salty Dog (1969) / Home (1970) [2003, BGO Rec. BGOCD558]

Tracklist CD2 - Home:

01. Whiskey Train 4:32
02. Dead Man's Dream 4:45
03. Still There'll Be More 5:00
04. Nothing That I Don't Know 3:40
05. About To Die 3:41
06. Barnyard Story 2:48
07. Piggy Pig Pig 4:48
08. Whaling Stories 7:09
09. Your Own Choice 3:10

Exact Audio Copy V1.1 from 23. June 2015

EAC extraction logfile from 17. October 2015, 12:16

Procol Harum / Home (BGOCD558) Disc 2

Used drive : PLEXTOR DVDR PX-891SA Adapter: 1 ID: 0

Read mode : Secure
Utilize accurate stream : Yes
Defeat audio cache : Yes
Make use of C2 pointers : No

Read offset correction : 6
Overread into Lead-In and Lead-Out : No
Fill up missing offset samples with silence : Yes
Delete leading and trailing silent blocks : No
Null samples used in CRC calculations : Yes
Used interface : Native Win32 interface for Win NT & 2000

Used output format : User Defined Encoder
Selected bitrate : 128 kBit/s
Quality : High
Add ID3 tag : No
Command line compressor : C:\Program Files (x86)\Exact Audio Copy\Flac\flac.exe
Additional command line options : -V -8 -T "Genre=%genre%" -T "Artist=%artist%" -T "Title=%title%" -T "Album=%albumtitle%" -T "Date=%year%" -T "Tracknumber=%tracknr%" -T "Comment=%comment%" %source%


TOC of the extracted CD

Track | Start | Length | Start sector | End sector
––––––––––––––––––––––––––––-
1 | 0:00.00 | 4:32.20 | 0 | 20419
2 | 4:32.20 | 4:44.42 | 20420 | 41761
3 | 9:16.62 | 5:00.35 | 41762 | 64296
4 | 14:17.22 | 3:40.15 | 64297 | 80811
5 | 17:57.37 | 3:40.38 | 80812 | 97349
6 | 21:38.00 | 2:48.02 | 97350 | 109951
7 | 24:26.02 | 4:48.03 | 109952 | 131554
8 | 29:14.05 | 7:08.57 | 131555 | 163711
9 | 36:22.62 | 3:09.58 | 163712 | 177944


Range status and errors

Selected range

Filename H:\dafnaplus\Procol Harum\Home - Disc 2\Procol Harum - Home (BGOCD558) Disc 2.wav

Peak level 98.8 %
Extraction speed 7.0 X
Range quality 100.0 %
Test CRC 59B32494
Copy CRC 59B32494
Copy OK

No errors occurred


AccurateRip summary

Track 1 accurately ripped (confidence 2) [9D6AC466] (AR v2)
Track 2 accurately ripped (confidence 2) [A4126B83] (AR v2)
Track 3 accurately ripped (confidence 2) [849B8044] (AR v2)
Track 4 accurately ripped (confidence 2) [2ED58627] (AR v2)
Track 5 accurately ripped (confidence 2) [A40D5049] (AR v2)
Track 6 accurately ripped (confidence 2) [5DB41215] (AR v2)
Track 7 accurately ripped (confidence 2) [6F3ECDCB] (AR v2)
Track 8 accurately ripped (confidence 2) [05DE1CD3] (AR v2)
Track 9 accurately ripped (confidence 2) [7C939ECD] (AR v2)

All tracks accurately ripped

End of status report

–– CUETools DB Plugin V2.1.6

[CTDB TOCID: BcmkJjWd0XjwvvaDMGq2Il3A1qo-] found
Submit result: already submitted
Track | CTDB Status
1 | (2/2) Accurately ripped
2 | (2/2) Accurately ripped
3 | (2/2) Accurately ripped
4 | (2/2) Accurately ripped
5 | (2/2) Accurately ripped
6 | (2/2) Accurately ripped
7 | (2/2) Accurately ripped
8 | (2/2) Accurately ripped
9 | (1/2) Accurately ripped, or (1/2) differs in 90 samples @01:15:51,01:16:08


==== Log checksum 1A3AD09E68960361EC1BEFEC3B2A6F6BB9D638328FB0A96098142EEA39E983A9 ====

foobar2000 1.2.9 / Dynamic Range Meter 1.1.1
log date: 2015-10-21 13:40:07

––––––––––––––––––––––––––––––––––––––––
Analyzed: Procol Harum / Home (BGOCD558) Disc 2
––––––––––––––––––––––––––––––––––––––––

DR Peak RMS Duration Track
––––––––––––––––––––––––––––––––––––––––
DR8 -1.10 dB -10.42 dB 4:32 01-Whiskey Train
DR11 -0.19 dB -14.77 dB 4:45 02-Dead Man's Dream
DR10 -0.20 dB -11.62 dB 5:00 03-Still There'll Be More
DR12 -0.10 dB -14.59 dB 3:40 04-Nothing That I Don't Know
DR10 -0.10 dB -11.86 dB 3:41 05-About To Die
DR12 -0.59 dB -17.61 dB 2:48 06-Barnyard Story
DR9 -1.20 dB -12.02 dB 4:48 07-Piggy Pig Pig
DR8 -0.60 dB -12.05 dB 7:09 08-Whaling Stories
DR11 -0.20 dB -13.10 dB 3:10 09-Your Own Choice
––––––––––––––––––––––––––––––––––––––––

Number of tracks: 9
Official DR value: DR10

Samplerate: 44100 Hz
Channels: 2
Bits per sample: 16
Bitrate: 764 kbps
Codec: FLAC

[CUETools log; Date: 21.10.2015 13:25:51; Version: 2.1.4]
[CTDB TOCID: BcmkJjWd0XjwvvaDMGq2Il3A1qo-] found.
Track | CTDB Status
1 | (2/2) Accurately ripped
2 | (2/2) Accurately ripped
3 | (2/2) Accurately ripped
4 | (2/2) Accurately ripped
5 | (2/2) Accurately ripped
6 | (2/2) Accurately ripped
7 | (2/2) Accurately ripped
8 | (2/2) Accurately ripped
9 | (1/2) Accurately ripped, or (1/2) differs in 90 samples @01:15:51,01:16:08
[AccurateRip ID: 000d8bfd-0062f9a5-81094409] found.
Track [ CRC | V2 ] Status
01 [e6347043|9d6ac466] (0+2/5) Accurately ripped
02 [5e97b9ba|a4126b83] (0+2/6) Accurately ripped
03 [baa60d44|849b8044] (0+2/6) Accurately ripped
04 [5bb995f4|2ed58627] (0+2/6) Accurately ripped
05 [0446c319|a40d5049] (0+2/6) Accurately ripped
06 [3f374f4b|5db41215] (0+2/6) Accurately ripped
07 [6f5dc6bd|6f3ecdcb] (0+2/6) Accurately ripped
08 [20739d82|05de1cd3] (0+2/6) Accurately ripped
09 [e4b2db16|7c939ecd] (0+2/5) Accurately ripped
Offsetted by 18:
01 [1f79615b] (0/5) No match (V2 was not tested)
02 [3943db68] (0/6) No match (V2 was not tested)
03 [e7fec8ec] (0/6) No match (V2 was not tested)
04 [1e959864] (0/6) No match (V2 was not tested)
05 [9a2776ab] (0/6) No match (V2 was not tested)
06 [f281e231] (0/6) No match (V2 was not tested)
07 [f964a04d] (0/6) No match (V2 was not tested)
08 [bd55ca86] (0/6) No match (V2 was not tested)
09 [8e7793c0] (0/5) No match (V2 was not tested)

Track Peak [ CRC32 ] [W/O NULL] [ LOG ]
– 98,8 [59B32494] [110D7F2F] CRC32
01 88,1 [1023A391] [3C8AF21F]
02 97,7 [93155D88] [0B5947AA]
03 97,7 [43CE72FF] [83B3D6E5]
04 98,8 [CA772C8F] [772D183C]
05 98,8 [8B66BE2B] [FCB14C41]
06 93,3 [73415B96] [3E32EC23]
07 87,0 [B9FF76EF] [3100823B]
08 93,3 [8A54B6E1] [47DBB286]
09 97,7 [397BFA66] [7D4F15E2]

Procol Harum: A Salty Dog (1969) / Home (1970) [2003, BGO Rec. BGOCD558]

All thanks go to dafnaplus

Procol Harum in my Blog

Download Procol Harum: A Salty Dog (1969) / Home (1970):