Subcategories
Tags
Language
Tags

R.E.M. - Out Of Time (1991) 2CD, 25th Anniversary Edition 2016 [Re-Up]

Posted By: Designol
R.E.M. - Out Of Time (1991) 2CD, 25th Anniversary Edition 2016 [Re-Up]

R.E.M. - Out Of Time (1991) 2CD, 25th Anniversary Edition
EAC | FLAC | Tracks (Cue&Log) ~ 839 Mb | Mp3 (CBR320) ~ 272 Mb | Scans ~ 235 Mb
Label: Concord Bicycle Music | # 0888072010239, CRE00231 | Time: 01:58:36
Alternative Pop/Rock, College Rock, Jangle Pop, Folk Rock

Out of Time is the seventh studio album by American alternative rock band R.E.M., released on March 12, 1991 by Warner Bros. Records. With Out of Time, R.E.M.'s status grew from that of a cult band to a massive international act. The record topped the album sales charts in both the U.S. and the United Kingdom, spending 109 weeks on American album charts and enjoying two separate spells at the summit, and spending 183 weeks on the British charts and a single week at the top. The album has sold over four and a half million copies in the U.S. and over 18 million copies worldwide. The album won three Grammy Awards in 1992: one as Best Alternative Music Album, and two for the first single, "Losing My Religion." R.E.M. celebrated the 25th anniversary of their 1991 blockbuster Out of Time by releasing a deluxe edition of the album. This was their first release with Concord Bicycle, who signed a licensing deal for the band's Warner albums in 2015, and it's appropriately splashy: there's a standard double-CD set with a full disc of unreleased material.

Hiding political tics behind faux-formalist boilerplate, pop aesthetes accused them of imposing Solidarity and Agent Orange on their musical material, but in fact such subjects signaled an other-directedness as healthy as Michael Stipe's newfound elocution. Admittedly, with this one beginning "The world is collapsing around our ears," I wondered briefly whether "Losing My Religion" was about music itself, but when Stipe says they thought about calling it Love Songs, he's not just mumbling "Dixie." Being R.E.M., they mean to capture moods or limn relationships rather than describe feelings or, God knows, incidents, and while some will find the music too pleasing, it matches the words hurt for hurt and surge for surge. The Kate Pierson cameos, the cellos, and Mark Bingham's organic string arrangements are Murmur without walls–beauty worthy of DeBarge, of the sweetest soukous, of a massed choir singing "I Want To Know What Love Is."

Review by Robert Christgau (A)

Along with Nevermind, released a half year later, R.E.M.’s Out of Time was the early-’90s major-label ideal: A blockbuster that multiplied the band’s following without losing existing fans.

It was probably overstated, but a few years ago the podcast 99% Invisible made a provocative argument for R.E.M.’s Out of Time as the most politically significant album in American history—not for its content, but for its packaging. The band, the story goes, was wary of releasing the CD in a longbox, the superfluous cardboard packaging that compact discs came in during the format’s early years, so an idealistic Warner Brothers executive pitched them on the idea of putting that wasted packaging to use. The back of the box would include a Rock the Vote petition lobbying senators to support a bill enabling citizens to register to vote at DMVs or through the mail. Those petitions flowed into Congress by the thousands, and the bill eventually passed, leading to a historic influx of new young voters.

The podcast’s numbers are a little fuzzy, so it may be a stretch to directly credit R.E.M. for the bill’s passage. But if nothing else, the story speaks to the band’s stature at the time. In 1991, R.E.M. weren’t just huge; they were important, and the Rock the Vote petition certainly wouldn’t have had the same impact if it hadn’t been packaged around such an enormously popular record. Out of Time gave the band their biggest hit single, netted them three Grammys, and eventually sold more than 18 million copies worldwide, numbers that insured the band the capital to do more or less whatever they wanted for the rest of their career. Along with Nevermind, released a half year later, it was the ideal every major label aspired to during their great independent-artist grab of the early ’90s: a blockbuster that multiplied the band’s following without ticking off existing fans.

Out of Time is a weird entry in R.E.M.’s discography, although in fairness the same can be said of almost every album R.E.M. released during that stretch. Numb from a year on the road, the band largely cast aside the usual electric guitars to fiddle with other instruments, most prominently the mandolin, which Peter Buck claimed he was still teaching himself when he stumbled upon the riff for “Losing My Religion.” Twenty-five years later, that single remains the most perfect pop song R.E.M. ever crafted, but it was hardly a fluke. The longing harpsichord on the album’s other great ballad, “Half a World Away,” is almost as enchanting, while the Beach Boys-bright “Near Wild Heaven” is almost overwhelming in its beauty and generosity. The whole record is flush with violins and cellos, revealing a range and sophistication that none of its predecessors had ever even hinted at.

Of course, Out of Time is sometimes remembered as much for its stylistic overreach as much as it is for all that elegance. It’s the album with “Country Feedback,” the rawest expression of sheer remorse the band ever captured on tape, but also the album with “Shiny Happy People,” a song that to this day many R.E.M. diehards would just as soon will out of existence. On one side it’s got bassist Mike Mills’ most sublime lead vocal turn on string-swept “Texarkana”; on the other it’s got KRS-One on “Radio Song” wailing like the Big Bopper over a wacky organ lick. Somehow, making one of the fiercest rappers of his era sound like such a colossal clown remains the album’s most perplexing legacy.

A quarter century removed from its release, though, those missteps are easy to write off as endearing period trappings. If anything, the album now sounds more like the masterpiece it felt just short of at the time, a work nearly on par with its more universally regarded, nocturnal sequel Automatic for the People. Warner Brothers’ anniversary reissue gives the album the usual deluxe treatment, with a second disc of demos mostly of interest for the glimpse they provide into the band’s process. “Losing My Religion,” for instance, is presented as both a somewhat uncertain instrumental and as a lean, string-less rock song. You can also hear Michael Stipe not quite hit the high notes on an early version of “Near Wild Heaven.”

Much more worthwhile is a third disc included on pricier versions of the reissue: a live, Unplugged-esque performance for a West Virginia public radio broadcast. Since the band had opted against a big tour behind Out of Time, they sound refreshed and just a little under-rehearsed. Stipe’s reverential, beat-poetry recitation of KRS-One’s “Radio Song” verse aside, the band goes out of their way not to take themselves too seriously. Mills leads a demure rendition of the Troggs’ flower-power standard “Love Is All Around,” then Billy Bragg and Robyn Hitchcock join in to bring some honky-tonk rowdiness to a giddy cover of Jimmie Dale Gilmore’s “Dallas.” R.E.M. were one of the biggest bands in the world, but even coming off of their most high-minded record to date—and performing on a day that West Virginia’s governor had christened “R.E.M. Day,” at that—they still sounded like the same gang of old friends who drunkenly recorded a jingle for their favorite barbeque spot for an early B-side. The weight of their newfound importance would eventually take a toll on the group. It hadn’t yet.

Review by Evan Rytlewski, Pitchfork.com

The supporting tour for Green exhausted R.E.M., and they spent nearly a year recuperating before reconvening for Out of Time. Where previous R.E.M. records captured a stripped-down live sound, Out of Time was lush with sonic detail, featuring string sections, keyboards, mandolins, and cameos from everyone from rapper KRS-One to the B-52's Kate Pierson. The scope of R.E.M.'s ambitions is impressive, and the record sounds impeccable, its sunny array of pop and folk songs as refreshing as Michael Stipe's decision to abandon explicitly political lyrics for the personal. Several R.E.M. classics – including Mike Mills' Byrds-y "Near Wild Heaven," the haunting "Country Feedback," and the masterpiece "Losing My Religion" – are present, but the album is more notable for its production than its songwriting. Most of the songs are slight but pleasant, or are awkward experiments, like "Radio Song"'s stab at funk, and while this sounds fine as the record is playing, there's not much substantive material to make the record worth returning to. [R.E.M. celebrated the 25th anniversary of their 1991 blockbuster Out of Time by releasing a deluxe edition of the album. This was their first release with Concord Bicycle, who signed a licensing deal for the band's Warner albums in 2015, and it's appropriately splashy: there's a standard double-CD set with a full disc of unreleased material, plus a box that adds another CD and a Blu-Ray (additionally, there's a triple-LP set containing the music from the double-CD). A remastered version of the album opens up the set – it's available as the Hi-Resolution Audio on the Blu-Ray, which also contains a 5.1 mix of the record – and the third disc in the box is an excellent but widely bootlegged 1991 performance of Live at Mountain Stage, where R.E.M. can be heard playing loose, limber acoustic versions of recent songs. All this sounds good and crisp, but the real news is the bonus disc of demos. These aren't so much rough versions of completed songs but rather working tapes: as the disc unfurls, the songs come into shape, the instrumentals gaining wordless melodies that eventually evolve into the songs we know. Some surprises are here: there's an unfinished, untitled demo, a version of "Texarkana" where Michael Stipe sings lead, and "Radio Song," which always had a funky undercurrent, while "Me on Keyboard" – a "Me in Honey" with an organ pushed forward – feels bubblegum in a way the finished version never does. This isn't the kind of thing that will generate many spins, but the demo disc does put Out of Time in a good light, as it reveals the craft behind the songs while also silently emphasizing how gorgeous Scott Litt and R.E.M.'s production for the final album actually is.]

Review by Stephen Thomas Erlewine, Allmusic.com

R.E.M. - Out Of Time (1991) 2CD, 25th Anniversary Edition 2016 [Re-Up]



Tracklist:

CD1 - Out of Time (44:07)

01. Radio Song (4:15)
02. Losing My Religion (4:28)
03. Low (4:56)
04. Near Wild Heaven (3:19)
05. Endgame (3:50)
06. Shiny Happy People (3:46)
07. Belong (4:07)
08. Half A World Away (3:28)
09. Texarkana (3:40)
10. Country Feedback (4:09)
11. Me In Honey (4:08)


CD2 - Out of Time Demos (1:14:29)

01. Losing My Religion 1 (4:00)
02. Near Wild Heaven 1 (4:05)
03. Shiny Happy People 1 (3:14)
04. Texarkana 1 (3:47)
05. Untitled Demo 2 (3:31)
06. Radio - Acoustic [Radio Song 1 Demo] (4:13)
07. Near Wild Heaven 2 (3:37)
08. Shiny Happy People 2 (3:55)
09. Slow Sad Rocker (4:30)
10. Radio - Band [Radio Song 3 Demo] (4:22)
11. Losing My Religion 2 (4:34)
12. Belong (4:16)
13. Blackbirds [Hald A World Away Demo] (3:25)
14. Texarkana (4:03)
15. Country Feedback (4:09)
16. Me On Keyboard [Me In Honey Demo] (3:43)
17. Low (4:52)
18. 40 Sec [40 Second Song Demo] (1:22)
19. Fretless 1 (4:51)


Exact Audio Copy V1.0 beta 3 from 29. August 2011

EAC extraction logfile from 24. March 2017, 20:10

R.E.M. / Out of Time [25th Anniversary Edition]

Used drive : ASUS DRW-24F1ST a Adapter: 0 ID: 0

Read mode : Secure
Utilize accurate stream : Yes
Defeat audio cache : Yes
Make use of C2 pointers : No

Read offset correction : 6
Overread into Lead-In and Lead-Out : No
Fill up missing offset samples with silence : Yes
Delete leading and trailing silent blocks : No
Null samples used in CRC calculations : Yes
Used interface : Native Win32 interface for Win NT & 2000
Gap handling : Appended to previous track

Used output format : User Defined Encoder
Selected bitrate : 128 kBit/s
Quality : High
Add ID3 tag : No
Command line compressor : C:\Program Files (x86)\Exact Audio Copy\FLAC\FLAC.EXE
Additional command line options : -8 -V -T "ARTIST=%artist%" -T "TITLE=%title%" -T "ALBUM=%albumtitle%" -T "DATE=%year%" -T "TRACKNUMBER=%tracknr%" -T "TOTALTRACKS=%numtracks%" -T "GENRE=%genre%" -T "ALBUMARTIST=%albumartist%" -T "ALBUM ARTIST=%albumartist%" -T "COMMENT=EAC Secure Mode, Test & Copy, AccurateRip, FLAC -8" %source%


TOC of the extracted CD

Track | Start | Length | Start sector | End sector
––––––––––––––––––––––––––––-
1 | 0:00.00 | 4:15.10 | 0 | 19134
2 | 4:15.10 | 4:28.32 | 19135 | 39266
3 | 8:43.42 | 4:56.21 | 39267 | 61487
4 | 13:39.63 | 3:19.27 | 61488 | 76439
5 | 16:59.15 | 3:50.18 | 76440 | 93707
6 | 20:49.33 | 3:45.59 | 93708 | 110641
7 | 24:35.17 | 4:06.41 | 110642 | 129132
8 | 28:41.58 | 3:27.71 | 129133 | 144728
9 | 32:09.54 | 3:39.42 | 144729 | 161195
10 | 35:49.21 | 4:09.24 | 161196 | 179894
11 | 39:58.45 | 4:08.10 | 179895 | 198504


Track 1

Filename K:\EAC\01 - Radio Song.wav

Pre-gap length 0:00:02.00

Peak level 100.0 %
Extraction speed 4.4 X
Track quality 100.0 %
Test CRC AED37C33
Copy CRC AED37C33
Accurately ripped (confidence 6) [6B9441CC] (AR v2)
Copy OK

Track 2

Filename K:\EAC\02 - Losing My Religion.wav

Peak level 100.0 %
Extraction speed 4.9 X
Track quality 100.0 %
Test CRC 93E0D7CD
Copy CRC 93E0D7CD
Accurately ripped (confidence 6) [60B5D3B9] (AR v2)
Copy OK

Track 3

Filename K:\EAC\03 - Low.wav

Peak level 99.9 %
Extraction speed 5.5 X
Track quality 100.0 %
Test CRC 72B27C89
Copy CRC 72B27C89
Accurately ripped (confidence 6) [F2059524] (AR v2)
Copy OK

Track 4

Filename K:\EAC\04 - Near Wild Heaven.wav

Peak level 100.0 %
Extraction speed 5.5 X
Track quality 100.0 %
Test CRC DC27DADC
Copy CRC DC27DADC
Accurately ripped (confidence 6) [B8A740E7] (AR v2)
Copy OK

Track 5

Filename K:\EAC\05 - Endgame.wav

Peak level 97.9 %
Extraction speed 6.0 X
Track quality 100.0 %
Test CRC 2BE5EA3C
Copy CRC 2BE5EA3C
Accurately ripped (confidence 6) [8B07BEC2] (AR v2)
Copy OK

Track 6

Filename K:\EAC\06 - Shiny Happy People.wav

Peak level 100.0 %
Extraction speed 6.3 X
Track quality 100.0 %
Test CRC 0C61756C
Copy CRC 0C61756C
Accurately ripped (confidence 6) [15C5D89E] (AR v2)
Copy OK

Track 7

Filename K:\EAC\07 - Belong.wav

Peak level 100.0 %
Extraction speed 6.6 X
Track quality 100.0 %
Test CRC 07BF9636
Copy CRC 07BF9636
Accurately ripped (confidence 6) [D04B9A11] (AR v2)
Copy OK

Track 8

Filename K:\EAC\08 - Half A World Away.wav

Peak level 99.4 %
Extraction speed 6.7 X
Track quality 100.0 %
Test CRC 72705E15
Copy CRC 72705E15
Accurately ripped (confidence 6) [191C2CAF] (AR v2)
Copy OK

Track 9

Filename K:\EAC\09 - Texarkana.wav

Peak level 99.5 %
Extraction speed 6.9 X
Track quality 100.0 %
Test CRC 95699E07
Copy CRC 95699E07
Accurately ripped (confidence 6) [A339765E] (AR v2)
Copy OK

Track 10

Filename K:\EAC\10 - Country Feedback.wav

Peak level 100.0 %
Extraction speed 6.5 X
Track quality 99.9 %
Test CRC FD272ACA
Copy CRC FD272ACA
Accurately ripped (confidence 6) [7F243FCA] (AR v2)
Copy OK

Track 11

Filename K:\EAC\11 - Me In Honey.wav

Peak level 100.0 %
Extraction speed 7.6 X
Track quality 100.0 %
Test CRC E44FF3BF
Copy CRC E44FF3BF
Accurately ripped (confidence 6) [D489E91F] (AR v2)
Copy OK


All tracks accurately ripped

No errors occurred

End of status report

==== Log checksum 356DCDF099F132F1EA7F2D1F0C0D02DFF0CFAC0B201A33340BE2A390BF8A678C ====

[CUETools log; Date: 10.04.2018 20:36:04; Version: 2.1.4]
[CTDB TOCID: JJf3w7_MWPv3Uv65RE60uLPZMxA-] found.
Track | CTDB Status
1 | (158/158) Accurately ripped
2 | (158/158) Accurately ripped
3 | (158/158) Accurately ripped
4 | (157/158) Accurately ripped
5 | (157/158) Accurately ripped
6 | (157/158) Accurately ripped
7 | (156/158) Accurately ripped
8 | (157/158) Accurately ripped
9 | (157/158) Accurately ripped
10 | (157/158) Accurately ripped
11 | (156/158) Accurately ripped
[AccurateRip ID: 001286ba-009f2410-710a560b] found.
Track [ CRC | V2 ] Status
01 [fc98fc2e|6b9441cc] (00+29/63) Accurately ripped
02 [91b2dfd0|60b5d3b9] (00+29/63) Accurately ripped
03 [28709cd4|f2059524] (00+29/63) Accurately ripped
04 [aa895bc2|b8a740e7] (00+29/63) Accurately ripped
05 [959051b3|8b07bec2] (00+29/63) Accurately ripped
06 [cdf48cd0|15c5d89e] (00+29/63) Accurately ripped
07 [62118260|d04b9a11] (00+29/63) Accurately ripped
08 [980ff52e|191c2caf] (00+29/63) Accurately ripped
09 [d16dd020|a339765e] (00+29/63) Accurately ripped
10 [bd70ab39|7f243fca] (00+29/63) Accurately ripped
11 [0069490e|d489e91f] (00+29/63) Accurately ripped
Offsetted by 384:
01 [33af7971] (00/63) No match (V2 was not tested)
02 [d27f80d2] (00/63) No match (V2 was not tested)
03 [02771e88] (00/63) No match (V2 was not tested)
04 [2ad6df52] (00/63) No match (V2 was not tested)
05 [872ce10e] (00/63) No match (V2 was not tested)
06 [b14f0c1c] (00/63) No match (V2 was not tested)
07 [4849eeea] (00/63) No match (V2 was not tested)
08 [2941d5c6] (00/63) No match (V2 was not tested)
09 [a11dab89] (00/63) No match (V2 was not tested)
10 [b6a13346] (00/63) No match (V2 was not tested)
11 [9e318e72] (00/63) No match (V2 was not tested)

Track Peak [ CRC32 ] [W/O NULL] [ LOG ]
– 100,0 [8B5532DD] [4E8862A1]
01 100,0 [AED37C33] [A4938189] CRC32
02 100,0 [93E0D7CD] [9603E679] CRC32
03 99,9 [72B27C89] [20C795DF] CRC32
04 100,0 [DC27DADC] [4756864E] CRC32
05 97,9 [2BE5EA3C] [377490CB] CRC32
06 100,0 [0C61756C] [D2FAE471] CRC32
07 100,0 [07BF9636] [204CA0AA] CRC32
08 99,4 [72705E15] [5433136E] CRC32
09 99,5 [95699E07] [706301CF] CRC32
10 100,0 [FD272ACA] [72917952] CRC32
11 100,0 [E44FF3BF] [81F3CF7E] CRC32

foobar2000 1.2 / Dynamic Range Meter 1.1.1
log date: 2018-04-10 20:31:20

––––––––––––––––––––––––––––––––––––––––
Analyzed: R.E.M. / 1991 - Out of Time (25th Anniversary Edition 2CD)
––––––––––––––––––––––––––––––––––––––––

DR Peak RMS Duration Track
––––––––––––––––––––––––––––––––––––––––
DR7 0.00 dB -8.65 dB 4:15 01-Radio Song
DR7 0.00 dB -8.43 dB 4:28 02-Losing My Religion
DR6 0.00 dB -9.50 dB 4:56 03-Low
DR6 0.00 dB -8.07 dB 3:19 04-Near Wild Heaven
DR9 -0.18 dB -10.67 dB 3:50 05-Endgame
DR7 0.00 dB -8.16 dB 3:46 06-Shiny Happy People
DR6 0.00 dB -7.99 dB 4:07 07-Belong
DR7 -0.05 dB -8.72 dB 3:28 08-Half A World Away
DR6 -0.04 dB -7.11 dB 3:40 09-Texarkana
DR6 0.00 dB -7.56 dB 4:09 10-Country Feedback
DR6 0.00 dB -7.21 dB 4:08 11-Me In Honey
––––––––––––––––––––––––––––––––––––––––

Number of tracks: 11
Official DR value: DR7

Samplerate: 44100 Hz
Channels: 2
Bits per sample: 16
Bitrate: 1054 kbps
Codec: FLAC
================================================================================


Exact Audio Copy V1.0 beta 3 from 29. August 2011

EAC extraction logfile from 24. March 2017, 21:25

R.E.M. / Demos [Out of Time 25th Anniversary Edition Disc 2]

Used drive : ASUS DRW-24F1ST a Adapter: 0 ID: 0

Read mode : Secure
Utilize accurate stream : Yes
Defeat audio cache : Yes
Make use of C2 pointers : No

Read offset correction : 6
Overread into Lead-In and Lead-Out : No
Fill up missing offset samples with silence : Yes
Delete leading and trailing silent blocks : No
Null samples used in CRC calculations : Yes
Used interface : Native Win32 interface for Win NT & 2000
Gap handling : Appended to previous track

Used output format : User Defined Encoder
Selected bitrate : 128 kBit/s
Quality : High
Add ID3 tag : No
Command line compressor : C:\Program Files (x86)\Exact Audio Copy\FLAC\FLAC.EXE
Additional command line options : -8 -V -T "ARTIST=%artist%" -T "TITLE=%title%" -T "ALBUM=%albumtitle%" -T "DATE=%year%" -T "TRACKNUMBER=%tracknr%" -T "TOTALTRACKS=%numtracks%" -T "GENRE=%genre%" -T "ALBUMARTIST=%albumartist%" -T "ALBUM ARTIST=%albumartist%" -T "COMMENT=EAC Secure Mode, Test & Copy, AccurateRip, FLAC -8" %source%


TOC of the extracted CD

Track | Start | Length | Start sector | End sector
––––––––––––––––––––––––––––-
1 | 0:00.00 | 4:00.11 | 0 | 18010
2 | 4:00.11 | 4:04.55 | 18011 | 36365
3 | 8:04.66 | 3:13.53 | 36366 | 50893
4 | 11:18.44 | 3:47.29 | 50894 | 67947
5 | 15:05.73 | 3:31.12 | 67948 | 83784
6 | 18:37.10 | 4:12.71 | 83785 | 102755
7 | 22:50.06 | 3:36.73 | 102756 | 119028
8 | 26:27.04 | 3:55.25 | 119029 | 136678
9 | 30:22.29 | 4:29.65 | 136679 | 156918
10 | 34:52.19 | 4:21.72 | 156919 | 176565
11 | 39:14.16 | 4:33.73 | 176566 | 197113
12 | 43:48.14 | 4:15.44 | 197114 | 216282
13 | 48:03.58 | 3:24.56 | 216283 | 231638
14 | 51:28.39 | 4:02.44 | 231639 | 249832
15 | 55:31.08 | 4:09.35 | 249833 | 268542
16 | 59:40.43 | 3:43.08 | 268543 | 285275
17 | 63:23.51 | 4:52.08 | 285276 | 307183
18 | 68:15.59 | 1:22.00 | 307184 | 313333
19 | 69:37.59 | 4:51.16 | 313334 | 335174


Track 1

Filename K:\EAC\01 - Losing My Religion 1.wav

Pre-gap length 0:00:02.00

Peak level 100.0 %
Extraction speed 4.8 X
Track quality 100.0 %
Test CRC A4DEBF81
Copy CRC A4DEBF81
Accurately ripped (confidence 8) [9EEE5974] (AR v2)
Copy OK

Track 2

Filename K:\EAC\02 - Near Wild Heaven 1.wav

Peak level 100.0 %
Extraction speed 5.3 X
Track quality 100.0 %
Test CRC DD2D24E6
Copy CRC DD2D24E6
Accurately ripped (confidence 8) [54B4A491] (AR v2)
Copy OK

Track 3

Filename K:\EAC\03 - Shiny Happy People 1.wav

Peak level 100.0 %
Extraction speed 5.4 X
Track quality 100.0 %
Test CRC 1BBDD906
Copy CRC 1BBDD906
Accurately ripped (confidence 8) [4E23721E] (AR v2)
Copy OK

Track 4

Filename K:\EAC\04 - Texarkana 1.wav

Peak level 99.3 %
Extraction speed 5.1 X
Track quality 99.9 %
Test CRC 16413CCA
Copy CRC 16413CCA
Accurately ripped (confidence 8) [73F870C1] (AR v2)
Copy OK

Track 5

Filename K:\EAC\05 - Untitled Demo 2.wav

Peak level 100.0 %
Extraction speed 5.3 X
Track quality 99.9 %
Test CRC 9692F4CF
Copy CRC 9692F4CF
Accurately ripped (confidence 8) [27EAD2AB] (AR v2)
Copy OK

Track 6

Filename K:\EAC\06 - Radio - Acoustic [Radio Song 1 Demo].wav

Peak level 99.5 %
Extraction speed 5.8 X
Track quality 99.9 %
Test CRC 8AB1C624
Copy CRC 8AB1C624
Accurately ripped (confidence 8) [A58E16A4] (AR v2)
Copy OK

Track 7

Filename K:\EAC\07 - Near Wild Heaven 2.wav

Peak level 100.0 %
Extraction speed 6.7 X
Track quality 100.0 %
Test CRC 67B265A9
Copy CRC 67B265A9
Accurately ripped (confidence 8) [22628D4F] (AR v2)
Copy OK

Track 8

Filename K:\EAC\08 - Shiny Happy People 2.wav

Peak level 100.0 %
Extraction speed 7.0 X
Track quality 100.0 %
Test CRC 63F998D7
Copy CRC 63F998D7
Accurately ripped (confidence 8) [C020E39D] (AR v2)
Copy OK

Track 9

Filename K:\EAC\09 - Slow Sad Rocker.wav

Peak level 92.0 %
Extraction speed 7.4 X
Track quality 100.0 %
Test CRC 511F30D4
Copy CRC 511F30D4
Accurately ripped (confidence 8) [6563947E] (AR v2)
Copy OK

Track 10

Filename K:\EAC\10 - Radio - Band [Radio Song 3 Demo].wav

Peak level 100.0 %
Extraction speed 6.8 X
Track quality 99.9 %
Test CRC 85F5E9EF
Copy CRC 85F5E9EF
Accurately ripped (confidence 8) [8BBAF4BB] (AR v2)
Copy OK

Track 11

Filename K:\EAC\11 - Losing My Religion 2.wav

Peak level 100.0 %
Extraction speed 8.0 X
Track quality 100.0 %
Test CRC 92B39776
Copy CRC 92B39776
Accurately ripped (confidence 8) [5B19DAF9] (AR v2)
Copy OK

Track 12

Filename K:\EAC\12 - Belong.wav

Peak level 100.0 %
Extraction speed 8.3 X
Track quality 100.0 %
Test CRC 8345084E
Copy CRC 8345084E
Accurately ripped (confidence 8) [422FBCBF] (AR v2)
Copy OK

Track 13

Filename K:\EAC\13 - Blackbirds [Hald A World Away Demo].wav

Peak level 79.3 %
Extraction speed 8.1 X
Track quality 100.0 %
Test CRC 9E7CE33A
Copy CRC 9E7CE33A
Accurately ripped (confidence 8) [066D2AF4] (AR v2)
Copy OK

Track 14

Filename K:\EAC\14 - Texarkana.wav

Peak level 100.0 %
Extraction speed 8.5 X
Track quality 100.0 %
Test CRC E9243043
Copy CRC E9243043
Accurately ripped (confidence 8) [7E176647] (AR v2)
Copy OK

Track 15

Filename K:\EAC\15 - Country Feedback.wav

Peak level 100.0 %
Extraction speed 8.7 X
Track quality 100.0 %
Test CRC A6BB61D9
Copy CRC A6BB61D9
Accurately ripped (confidence 8) [2330186F] (AR v2)
Copy OK

Track 16

Filename K:\EAC\16 - Me On Keyboard [Me In Honey Demo].wav

Peak level 100.0 %
Extraction speed 7.6 X
Track quality 99.9 %
Test CRC 3B3440B1
Copy CRC 3B3440B1
Accurately ripped (confidence 8) [A4F2D46D] (AR v2)
Copy OK

Track 17

Filename K:\EAC\17 - Low.wav

Peak level 97.9 %
Extraction speed 9.4 X
Track quality 100.0 %
Test CRC 788D0C5C
Copy CRC 788D0C5C
Accurately ripped (confidence 8) [7C7D8133] (AR v2)
Copy OK

Track 18

Filename K:\EAC\18 - 40 Sec [40 Second Song Demo].wav

Peak level 87.3 %
Extraction speed 5.4 X
Track quality 99.8 %
Test CRC 470E4181
Copy CRC 470E4181
Accurately ripped (confidence 8) [0E24CF8B] (AR v2)
Copy OK

Track 19

Filename K:\EAC\19 - Fretless 1.wav

Peak level 99.2 %
Extraction speed 9.6 X
Track quality 100.0 %
Test CRC 1134A90E
Copy CRC 1134A90E
Accurately ripped (confidence 8) [A3533B1B] (AR v2)
Copy OK


All tracks accurately ripped

No errors occurred

End of status report

==== Log checksum AA7954E7C9851F0D7E788687CEF07203C2136B965868265B732E8B8F6B3B1D37 ====

[CUETools log; Date: 10.04.2018 20:36:24; Version: 2.1.4]
[CTDB TOCID: aa3Hpe9sdCap36yeFCA9uix_tHQ-] found.
Track | CTDB Status
1 | (77/77) Accurately ripped
2 | (77/77) Accurately ripped
3 | (77/77) Accurately ripped
4 | (77/77) Accurately ripped
5 | (77/77) Accurately ripped
6 | (77/77) Accurately ripped
7 | (77/77) Accurately ripped
8 | (77/77) Accurately ripped
9 | (76/77) Accurately ripped
10 | (77/77) Accurately ripped
11 | (77/77) Accurately ripped
12 | (77/77) Accurately ripped
13 | (77/77) Accurately ripped
14 | (76/77) Accurately ripped
15 | (75/77) Accurately ripped
16 | (76/77) Accurately ripped
17 | (76/77) Accurately ripped
18 | (77/77) Accurately ripped
19 | (75/77) Accurately ripped
[AccurateRip ID: 00332af6-02cec0e0-1e117513] found.
Track [ CRC | V2 ] Status
01 [5b826628|9eee5974] (00+27/27) Accurately ripped
02 [018fb427|54b4a491] (00+27/27) Accurately ripped
03 [0acecdac|4e23721e] (00+27/27) Accurately ripped
04 [8dba463b|73f870c1] (00+27/27) Accurately ripped
05 [4ca87ad3|27ead2ab] (00+27/27) Accurately ripped
06 [36694e25|a58e16a4] (00+27/27) Accurately ripped
07 [206c3b74|22628d4f] (00+27/27) Accurately ripped
08 [4f8d3203|c020e39d] (00+27/27) Accurately ripped
09 [4624bd64|6563947e] (00+27/27) Accurately ripped
10 [6ef3d375|8bbaf4bb] (00+27/27) Accurately ripped
11 [33012ea1|5b19daf9] (00+27/27) Accurately ripped
12 [42bca77e|422fbcbf] (00+27/27) Accurately ripped
13 [5818e901|066d2af4] (00+27/27) Accurately ripped
14 [3b02403e|7e176647] (00+27/27) Accurately ripped
15 [9be66b12|2330186f] (00+27/27) Accurately ripped
16 [30f4fba7|a4f2d46d] (00+27/27) Accurately ripped
17 [d7f7b4f2|7c7d8133] (00+27/27) Accurately ripped
18 [074445ac|0e24cf8b] (00+27/27) Accurately ripped
19 [718f8dc6|a3533b1b] (00+27/27) Accurately ripped

Track Peak [ CRC32 ] [W/O NULL] [ LOG ]
– 100,0 [81D4BF41] [C57039EF]
01 100,0 [A4DEBF81] [C830BD32] CRC32
02 100,0 [DD2D24E6] [733D5CCF] CRC32
03 100,0 [1BBDD906] [B4E4E552] CRC32
04 99,3 [16413CCA] [5FFEF3D1] CRC32
05 100,0 [9692F4CF] [B86B4E0C] CRC32
06 99,5 [8AB1C624] [D88A16C2] CRC32
07 100,0 [67B265A9] [B8882D5D] CRC32
08 100,0 [63F998D7] [3B2628DA] CRC32
09 91,9 [511F30D4] [DB8C2D76] CRC32
10 100,0 [85F5E9EF] [6D79BD5A] CRC32
11 100,0 [92B39776] [F332AA86] CRC32
12 100,0 [8345084E] [990E09DB] CRC32
13 79,3 [9E7CE33A] [6A28B224] CRC32
14 100,0 [E9243043] [760CE495] CRC32
15 100,0 [A6BB61D9] [A8586F8F] CRC32
16 100,0 [3B3440B1] [C52A8A81] CRC32
17 97,9 [788D0C5C] [DED51659] CRC32
18 87,3 [470E4181] [C122ED71] CRC32
19 99,2 [1134A90E] [2604092F] CRC32

foobar2000 1.2 / Dynamic Range Meter 1.1.1
log date: 2018-04-10 20:31:54

––––––––––––––––––––––––––––––––––––––––
Analyzed: R.E.M. / 1991 - Out of Time (25th Anniversary Edition 2CD)
––––––––––––––––––––––––––––––––––––––––

DR Peak RMS Duration Track
––––––––––––––––––––––––––––––––––––––––
DR9 0.00 dB -10.52 dB 4:00 01-Losing My Religion 1
DR8 0.00 dB -9.15 dB 4:05 02-Near Wild Heaven 1
DR9 0.00 dB -9.63 dB 3:14 03-Shiny Happy People 1
DR8 -0.06 dB -9.06 dB 3:47 04-Texarkana 1
DR9 0.00 dB -9.63 dB 3:31 05-Untitled Demo 2
DR8 -0.04 dB -9.62 dB 4:13 06-Radio - Acoustic [Radio Song 1 Demo]
DR8 0.00 dB -8.85 dB 3:37 07-Near Wild Heaven 2
DR9 0.00 dB -9.90 dB 3:55 08-Shiny Happy People 2
DR7 -0.72 dB -9.63 dB 4:30 09-Slow Sad Rocker
DR8 0.00 dB -8.83 dB 4:22 10-Radio - Band [Radio Song 3 Demo]
DR8 0.00 dB -8.92 dB 4:34 11-Losing My Religion 2
DR8 0.00 dB -9.67 dB 4:16 12-Belong
DR8 -2.01 dB -11.03 dB 3:25 13-Blackbirds [Hald A World Away Demo]
DR7 0.00 dB -8.35 dB 4:03 14-Texarkana
DR9 0.00 dB -10.62 dB 4:09 15-Country Feedback
DR8 0.00 dB -8.74 dB 3:43 16-Me On Keyboard [Me In Honey Demo]
DR9 -0.18 dB -12.37 dB 4:52 17-Low
DR9 -1.17 dB -12.03 dB 1:22 18-40 Sec [40 Second Song Demo]
DR8 -0.07 dB -10.27 dB 4:51 19-Fretless 1
––––––––––––––––––––––––––––––––––––––––

Number of tracks: 19
Official DR value: DR8

Samplerate: 44100 Hz
Channels: 2
Bits per sample: 16
Bitrate: 868 kbps
Codec: FLAC
================================================================================

R.E.M. - Out Of Time (1991) 2CD, 25th Anniversary Edition 2016 [Re-Up]

R.E.M. - Out Of Time (1991) 2CD, 25th Anniversary Edition 2016 [Re-Up]

All thanks to original releaser

More interesting music in My Blog