Subcategories

Radioactive - Legacy (2013) {3CD Box Set}

Posted By: popsakov
Radioactive - Legacy (2013) {3CD Box Set}

Radioactive - Legacy (2013) {3CD Box Set}
EAC Rip | FLAC (Img) + Cue + Log ~ 1,39 Gb | MP3 CBR320 ~ 459 Mb
Full Scans ~ 149 Mb | RAR 5% Recovery
Melodic Rock, AOR | Escape Music #ESM257

Escape Music is pleased to announce the release of Tommy Denander - Radioactive all three albums re-issue plus six bonus tracks as a triple CD box set “Ceremony Of Innocence” complete re-work and re-mix, “Taken” complete reworked and remix and “Yeah" all will be re-mastered at 24 bits!

Tommy's biography:

With more than 30 years as a pro guitarist, song writer and producer Tommy is ranked as one of the finest guitar players in the world by many today, often featured in the biggest guitar magazines around the world including many cover stories, he was even recently featured in Guitar Player Magazine.

Tommy even has his own signature guitar for VGS that features the incredible Evertune bridge and True Temperment frets.

He has worked on more than 2300 albums including several US nr 1's, more than 50 Gold and Platinum plus movies like Alice In Wonderland with Johnny Depp, Oscar nominated Gorillas In The Mist with Sigourney Weaver and Baltic Storm with Donald Sutherland.

Among his work we find names like Michael Jackson, Paul Stanley, Alice Cooper, Ricky Martin, Celine Dion, Toto, Tokio Hotel, Backstreet Boys, Richard Marx, Peter Cetera, American Idol, Glee, David Archuleta and 100's more big selling acts.

Tommy's work within the melodic rock scene is matched by almost none and reads like a real who's who from Steve Perry, Bobby Kimball, Richard Page, Michael McDonald, Jimi Jamison, Joe Lynn Turner, Tommy Funderburk, Graham Bonnet, Joseph Williams, Fergie Frederiksen, Robin Beck, Fee Waybill, Bill Champlin, Kelly Keagy, Dan Reed, Joey Tempest, Harry Hess, Stan Bush, Jim Peterik, Jeff Scott Soto, Mitch Malloy, Fiona, Chris Ousey, Steve Overland, Robert Hart, Jim Jidhed and Gary Barden to bands like Prisoner, Rainmaker, Talisman, Phenomena, The Poodles, H.E.A.T, Houston, Street Talk, Talk Of The Town, Spin Gallery, Sha-Boom, Mecca, AOR, Rage Of Angels, Liberty & Justice, Silver, Lion's Share, Ambition and so on!!!

In 1991 he started his own project called Radioactive and have so far released 3 great albums that are highly praised by both media and fans.

So with Tommy's track record it comes as little surprise to see the gigantic list of big names who have graced these 3 albums including -

Jeff Porcaro, Mike Porcaro, Steve Porcaro, David Paich, David Foster, Bobby Kimball, Fergie Frederiksen, Joseph Williams, David Hungate, Yngwie Malmsteen, Neal Schon, Fee Waybill, Michael Thompson, Jason Scheff, Vince Dicola, Marcel Jacob, Tony Franklin, Vinnie Colaiuta, Michael Landau, Kelly Keagy, Alex Ligertwood, Abe Laboriel, Greg Phillinganes, Neil Stubenhaus, Randy Goodrum, Bruce Gaitsch, Dean Parks, Rev Dave Boruff, Gary Barden, Robin Beck, James Christian, Andreas Carlsson, Phillip Bardowell, Bruce Kulick, John jr Robinson, Steve George plus many more

Long out of print and often sought after, Escape Music can now proudly offer all 3 Radioactive albums including the Japanese bonus tracks and 3 unreleased songs in a special box set.

The first album "Ceremony Of Innocence" and third album "Taken" have been reworked and remixed with new artists added.
~ escape-music.com
***************

Radioactive - Legacy (2013) {3CD Box Set}

CD1: Radioactive - Legacy - Ceremony Of Innocence (2001/2013)
EAC Rip | FLAC (Img) + Cue + Log ~ 478 Mb | MP3 CBR320 ~ 158 Mb | RAR 5% Recovery

Track List CD1:

01. The Story Of Love [04:47]
02. Crimes Of Passion [04:12]
03. On My Own [04:24]
04. Grace [05:39]
05. Waiting For A Miracle [04:47]
06. LA Movies [05:11]
07. Ceremony Of Innocence [04:54]
08. Liquid [05:22]
09. Haunt Me Tonight [04:54]
10. A Case Of Right Or Wrong [03:24]
11. Silent Cries [03:35]
12. When You're In Love [05:45]
13. Remember My Conscience (bonus track) [04:49]
14. Shooting Stars (new song) [04:15]

Exact Audio Copy V1.0 beta 3 from 29. August 2011

EAC extraction logfile from 13. September 2014, 20:56

Radioactive / Legacy - Ceremony Of Innocence

Used drive : SlimtypeDVD A DS8A5SH Adapter: 0 ID: 1

Read mode : Secure
Utilize accurate stream : Yes
Defeat audio cache : Yes
Make use of C2 pointers : No

Read offset correction : 6
Overread into Lead-In and Lead-Out : No
Fill up missing offset samples with silence : Yes
Delete leading and trailing silent blocks : No
Null samples used in CRC calculations : Yes
Used interface : Native Win32 interface for Win NT & 2000

Used output format : User Defined Encoder
Selected bitrate : 320 kBit/s
Quality : High
Add ID3 tag : No
Command line compressor : C:\Program Files (x86)\Exact Audio Copy\Flac\flac.exe
Additional command line options : -V -8 -T "Date=%year%" -T "Genre=%genre%" %source%


TOC of the extracted CD

Track | Start | Length | Start sector | End sector
––––––––––––––––––––––––––––-
1 | 0:00.00 | 4:46.30 | 0 | 21479
2 | 4:46.30 | 4:11.70 | 21480 | 40374
3 | 8:58.25 | 4:23.56 | 40375 | 60155
4 | 13:22.06 | 5:38.03 | 60156 | 85508
5 | 19:00.09 | 4:46.57 | 85509 | 107015
6 | 23:46.66 | 5:10.27 | 107016 | 130292
7 | 28:57.18 | 4:53.18 | 130293 | 152285
8 | 33:50.36 | 5:21.46 | 152286 | 176406
9 | 39:12.07 | 4:53.48 | 176407 | 198429
10 | 44:05.55 | 3:23.19 | 198430 | 213673
11 | 47:28.74 | 3:34.71 | 213674 | 229794
12 | 51:03.70 | 5:44.28 | 229795 | 255622
13 | 56:48.23 | 4:48.21 | 255623 | 277243
14 | 61:36.44 | 4:14.34 | 277244 | 296327


Range status and errors

Selected range

Filename D:\My Music\Radioactive - 2013 Legacy\CD1 - Ceremony Of Innocence\Radioactive - Legacy - Ceremony Of Innocence.wav

Peak level 96.9 %
Extraction speed 1.9 X
Range quality 100.0 %
Test CRC 4500362F
Copy CRC 4500362F
Copy OK

No errors occurred


AccurateRip summary

Track 1 accurately ripped (confidence 2) [571160A0] (AR v2)
Track 2 accurately ripped (confidence 2) [7CE44A33] (AR v2)
Track 3 accurately ripped (confidence 2) [44F9E3F9] (AR v2)
Track 4 accurately ripped (confidence 2) [A4E94010] (AR v2)
Track 5 accurately ripped (confidence 2) [D168E40B] (AR v2)
Track 6 accurately ripped (confidence 2) [70499D66] (AR v2)
Track 7 accurately ripped (confidence 2) [3DED8A35] (AR v2)
Track 8 accurately ripped (confidence 2) [BCE8B7F3] (AR v2)
Track 9 accurately ripped (confidence 2) [64207616] (AR v2)
Track 10 accurately ripped (confidence 2) [53492519] (AR v2)
Track 11 accurately ripped (confidence 2) [D54BC2A4] (AR v2)
Track 12 accurately ripped (confidence 2) [EFD6D4DE] (AR v2)
Track 13 accurately ripped (confidence 2) [B7BC8C6C] (AR v2)
Track 14 accurately ripped (confidence 2) [045632E4] (AR v2)

All tracks accurately ripped

End of status report

==== Log checksum D7BF4BB298E3B1752D3CBF792EF57E446CBD8AA2BF24B9E9A0815BB33DA5695E ====

foobar2000 1.2.6 / Dynamic Range Meter 1.1.1
log date: 2015-05-01 01:25:54

––––––––––––––––––––––––––––––––––––––––
Analyzed: Radioactive / Legacy - Ceremony Of Innocence
––––––––––––––––––––––––––––––––––––––––

DR Peak RMS Duration Track
––––––––––––––––––––––––––––––––––––––––
DR13 -0.27 dB -15.25 dB 4:46 01-The Story Of Love
DR12 -0.27 dB -13.07 dB 4:12 02-Crimes Of Passion
DR12 -0.27 dB -12.78 dB 4:24 03-On My Own
DR11 -0.27 dB -12.79 dB 5:38 04-Grace
DR12 -0.27 dB -13.72 dB 4:47 05-Waiting For A Miracle
DR14 -0.27 dB -15.34 dB 5:10 06-LA Movies
DR13 -0.27 dB -14.54 dB 4:53 07-Ceremony Of Innocence
DR14 -0.27 dB -16.40 dB 5:22 08-Liquid
DR12 -0.27 dB -15.39 dB 4:54 09-Haunt Me Tonight
DR12 -0.27 dB -13.58 dB 3:23 10-A Case Of Right Or Wrong
DR12 -0.27 dB -13.41 dB 3:35 11-Silent Cries
DR13 -0.27 dB -14.17 dB 5:44 12-When You're In Love
DR11 -0.27 dB -12.67 dB 4:48 13-Remember My Conscience (bonus track)
DR12 -0.27 dB -14.05 dB 4:14 14-Shooting Stars (new song)
––––––––––––––––––––––––––––––––––––––––

Number of tracks: 14
Official DR value: DR12

Samplerate: 44100 Hz
Channels: 2
Bits per sample: 16
Bitrate: 965 kbps
Codec: FLAC
================================================================================

[CUETools log; Date: 01.05.2015 1:25:49; Version: 2.1.5]
[CTDB TOCID: TTnDG.Sx3lVA7vOIX3BEBHOqpIA-] found.
Track | CTDB Status
1 | (6/6) Accurately ripped
2 | (6/6) Accurately ripped
3 | (6/6) Accurately ripped
4 | (6/6) Accurately ripped
5 | (6/6) Accurately ripped
6 | (6/6) Accurately ripped
7 | (6/6) Accurately ripped
8 | (6/6) Accurately ripped
9 | (6/6) Accurately ripped
10 | (6/6) Accurately ripped
11 | (6/6) Accurately ripped
12 | (6/6) Accurately ripped
13 | (6/6) Accurately ripped
14 | (6/6) Accurately ripped
[AccurateRip ID: 00224008-016d345a-bb0f6f0e] found.
Track [ CRC | V2 ] Status
01 [4d3a1888|571160a0] (2+4/6) Accurately ripped
02 [eca2dad4|7ce44a33] (2+4/6) Accurately ripped
03 [db9f80ca|44f9e3f9] (2+4/6) Accurately ripped
04 [473555c6|a4e94010] (2+4/6) Accurately ripped
05 [31f039eb|d168e40b] (2+4/6) Accurately ripped
06 [deeed427|70499d66] (2+4/6) Accurately ripped
07 [1abe6f91|3ded8a35] (2+4/6) Accurately ripped
08 [50cb04bb|bce8b7f3] (2+4/6) Accurately ripped
09 [b317c1cf|64207616] (2+4/6) Accurately ripped
10 [49c53713|53492519] (2+4/6) Accurately ripped
11 [18ee0151|d54bc2a4] (2+4/6) Accurately ripped
12 [3fe5417a|efd6d4de] (2+4/6) Accurately ripped
13 [f37380c1|b7bc8c6c] (2+4/6) Accurately ripped
14 [c2b6f2cc|045632e4] (2+4/6) Accurately ripped

Track Peak [ CRC32 ] [W/O NULL] [ LOG ]
– 96,9 [4500362F] [8F4D79FB] CRC32
01 96,9 [36B3A164] [3A5F6A5F]
02 96,9 [610DC309] [E7944271]
03 96,9 [E86008EB] [3E1DFAD8]
04 96,9 [904BBD32] [84CADF1B]
05 96,9 [C836ED5C] [A6051615]
06 96,9 [BDAF5B26] [5371A49B]
07 96,9 [917A5AE4] [194DF7A3]
08 96,9 [AEE28251] [592EA81D]
09 96,9 [0E721AAB] [8AEA20C1]
10 96,9 [8808866E] [67D31CEE]
11 96,9 [5984EB8C] [C7D733CC]
12 96,9 [EE311C21] [2792C5AD]
13 96,9 [005EE7F0] [583449F6]
14 96,9 [FC1721B8] [306DD52A]

***************

Radioactive - Legacy (2013) {3CD Box Set}

CD2: Radioactive - Legacy - Yeah (2003/2013)
EAC Rip | FLAC (Img) + Cue + Log ~ 503 Mb | MP3 CBR320 ~ 156 Mb | RAR 5% Recovery

Track List CD2:

01. Yeah [04:03]
02. Demon [03:58]
03. Don't Give Up [05:18]
04. Lies Feed On Lies [04:41]
05. I Should Have Known Better [04:34]
06. Over You [04:50]
07. Fire Within [04:47]
08. Not That Innocent [05:35]
09. Make It Mine [04:02]
10. Souls On Fire [04:39]
11. 7 AM [04:32]
12. Until I Change Your Heart [04:20]
13. Somewhere, Someday (bonus track) [05:08]
14. Juliet (new song) [04:27]

Exact Audio Copy V1.0 beta 3 from 29. August 2011

EAC extraction logfile from 13. September 2014, 19:59

Radioactive / Legacy - Yeah

Used drive : SlimtypeDVD A DS8A5SH Adapter: 0 ID: 1

Read mode : Secure
Utilize accurate stream : Yes
Defeat audio cache : Yes
Make use of C2 pointers : No

Read offset correction : 6
Overread into Lead-In and Lead-Out : No
Fill up missing offset samples with silence : Yes
Delete leading and trailing silent blocks : No
Null samples used in CRC calculations : Yes
Used interface : Native Win32 interface for Win NT & 2000

Used output format : User Defined Encoder
Selected bitrate : 320 kBit/s
Quality : High
Add ID3 tag : No
Command line compressor : C:\Program Files (x86)\Exact Audio Copy\Flac\flac.exe
Additional command line options : -V -8 -T "Date=%year%" -T "Genre=%genre%" %source%


TOC of the extracted CD

Track | Start | Length | Start sector | End sector
––––––––––––––––––––––––––––-
1 | 0:00.00 | 4:02.25 | 0 | 18174
2 | 4:02.25 | 3:57.12 | 18175 | 35961
3 | 7:59.37 | 5:17.38 | 35962 | 59774
4 | 13:17.00 | 4:40.07 | 59775 | 80781
5 | 17:57.07 | 4:33.63 | 80782 | 101319
6 | 22:30.70 | 4:49.35 | 101320 | 123029
7 | 27:20.30 | 4:46.65 | 123030 | 144544
8 | 32:07.20 | 5:34.47 | 144545 | 169641
9 | 37:41.67 | 4:01.20 | 169642 | 187736
10 | 41:43.12 | 4:38.30 | 187737 | 208616
11 | 46:21.42 | 4:31.63 | 208617 | 229004
12 | 50:53.30 | 4:19.50 | 229005 | 248479
13 | 55:13.05 | 5:07.57 | 248480 | 271561
14 | 60:20.62 | 4:26.21 | 271562 | 291532


Range status and errors

Selected range

Filename D:\My Music\Radioactive - 2013 Legacy\CD2 - Yeah\Radioactive - Legacy - Yeah.wav

Peak level 97.9 %
Extraction speed 1.9 X
Range quality 100.0 %
Test CRC 499EC7BD
Copy CRC 499EC7BD
Copy OK

No errors occurred


AccurateRip summary

Track 1 accurately ripped (confidence 2) [D704AA56] (AR v2)
Track 2 accurately ripped (confidence 2) [F8D5EF1B] (AR v2)
Track 3 accurately ripped (confidence 2) [33715049] (AR v2)
Track 4 accurately ripped (confidence 2) [C3B46543] (AR v2)
Track 5 accurately ripped (confidence 2) [4317DFD7] (AR v2)
Track 6 accurately ripped (confidence 2) [B6691356] (AR v2)
Track 7 accurately ripped (confidence 2) [F2CF4B94] (AR v2)
Track 8 accurately ripped (confidence 2) [23015FD4] (AR v2)
Track 9 accurately ripped (confidence 2) [56162D34] (AR v2)
Track 10 accurately ripped (confidence 2) [407537B3] (AR v2)
Track 11 accurately ripped (confidence 2) [5A115239] (AR v2)
Track 12 accurately ripped (confidence 2) [4D86EC68] (AR v2)
Track 13 accurately ripped (confidence 2) [D24545D1] (AR v2)
Track 14 accurately ripped (confidence 2) [89F5EDCB] (AR v2)

All tracks accurately ripped

End of status report

==== Log checksum 68F888B42F36877E4D72BA69EEC3F51500FEFC49D24FB6B210A5773D78A49663 ====

foobar2000 1.2.6 / Dynamic Range Meter 1.1.1
log date: 2015-05-01 01:27:07

––––––––––––––––––––––––––––––––––––––––
Analyzed: Radioactive / Legacy - Yeah
––––––––––––––––––––––––––––––––––––––––

DR Peak RMS Duration Track
––––––––––––––––––––––––––––––––––––––––
DR6 -0.18 dB -8.00 dB 4:02 01-Yeah
DR6 -0.18 dB -7.04 dB 3:57 02-Demon
DR6 -0.18 dB -7.52 dB 5:18 03-Don't Give Up
DR6 -0.18 dB -7.34 dB 4:40 04-Lies Feed On Lies
DR6 -0.18 dB -7.48 dB 4:34 05-I Should Have Known Better
DR6 -0.18 dB -7.82 dB 4:49 06-Over You
DR6 -0.18 dB -6.57 dB 4:47 07-Fire Within
DR6 -0.18 dB -7.48 dB 5:35 08-Not That Innocent
DR6 -0.18 dB -6.82 dB 4:01 09-Make It Mine
DR6 -0.18 dB -7.20 dB 4:38 10-Souls On Fire
DR6 -0.18 dB -7.23 dB 4:32 11-7 AM
DR6 -0.18 dB -7.53 dB 4:20 12-Until I Change Your Heart
DR6 -0.18 dB -7.64 dB 5:08 13-Somewhere, Someday (bonus track)
DR7 -0.54 dB -8.76 dB 4:26 14-Juliet (new song)
––––––––––––––––––––––––––––––––––––––––

Number of tracks: 14
Official DR value: DR6

Samplerate: 44100 Hz
Channels: 2
Bits per sample: 16
Bitrate: 1033 kbps
Codec: FLAC
================================================================================

[CUETools log; Date: 01.05.2015 1:27:08; Version: 2.1.5]
[CTDB TOCID: aAHMEZWSEVll4fdqEyRE3ova_Zc-] found.
Track | CTDB Status
1 | (6/6) Accurately ripped
2 | (6/6) Accurately ripped
3 | (6/6) Accurately ripped
4 | (6/6) Accurately ripped
5 | (6/6) Accurately ripped
6 | (6/6) Accurately ripped
7 | (6/6) Accurately ripped
8 | (6/6) Accurately ripped
9 | (6/6) Accurately ripped
10 | (6/6) Accurately ripped
11 | (6/6) Accurately ripped
12 | (6/6) Accurately ripped
13 | (6/6) Accurately ripped
14 | (6/6) Accurately ripped
[AccurateRip ID: 00211d35-0162fe43-c30f2f0e] found.
Track [ CRC | V2 ] Status
01 [71685003|d704aa56] (0+2/2) Accurately ripped
02 [da630c2d|f8d5ef1b] (0+2/2) Accurately ripped
03 [50ec5cfd|33715049] (0+2/2) Accurately ripped
04 [ab310ca7|c3b46543] (0+2/2) Accurately ripped
05 [dccc9905|4317dfd7] (0+2/2) Accurately ripped
06 [84ca90f7|b6691356] (0+2/2) Accurately ripped
07 [f93c634f|f2cf4b94] (0+2/2) Accurately ripped
08 [199f8631|23015fd4] (0+2/2) Accurately ripped
09 [0fc58a91|56162d34] (0+2/2) Accurately ripped
10 [628373b0|407537b3] (0+2/2) Accurately ripped
11 [18780f2d|5a115239] (0+2/2) Accurately ripped
12 [81fae7de|4d86ec68] (0+2/2) Accurately ripped
13 [b2bac025|d24545d1] (0+2/2) Accurately ripped
14 [9a36ff5f|89f5edcb] (0+2/2) Accurately ripped

Track Peak [ CRC32 ] [W/O NULL] [ LOG ]
– 97,9 [499EC7BD] [4741A715] CRC32
01 97,9 [33F33A11] [7C558D63]
02 97,9 [2E051CBD] [0E093BC5]
03 97,9 [46142467] [EFAAF7C8]
04 97,9 [6A603CBF] [D6917753]
05 97,9 [F2E51E55] [FDC4CD1F]
06 97,9 [87E9A28B] [BE8A06C9]
07 97,9 [69018A70] [975531AC]
08 97,9 [EE708B2D] [7DC95366]
09 97,9 [59988493] [0F1272EA]
10 97,9 [DC8A5AB1] [0DC768BC]
11 97,9 [DEC4F9BD] [AD1853BE]
12 97,9 [64A1848C] [BBA3484D]
13 97,9 [F34FB5EB] [A41A8DD6]
14 93,9 [E4614022] [8FC1AF2B]

***************

Radioactive - Legacy (2013) {3CD Box Set}

CD3: Radioactive - Legacy - Taken (2005/2013)
EAC Rip | FLAC (Img) + Cue + Log ~ 443 Mb | MP3 CBR320 ~ 144 Mb | RAR 5% Recovery

Track List CD3:

01. C.O.W [00:49]
02. Taken [03:26]
03. Stronger Than Yesterday [03:46]
04. Hit Her Where It Hurts [04:03]
05. Easy's Get Harder [04:25]
06. This I Promise You [04:15]
07. Forgivness [04:10]
08. Shattered [04:23]
09. Premonition [03:48]
10. Carry On [04:20]
11. Love Is On Your Mind [03:31]
12. Sinner [03:57]
13. Never Gonna Let Her Go [05:51]
14. The Darkness Inside (bonus track) [04:33]
15. Feel My Heart Again (new song) [04:50]

Exact Audio Copy V1.0 beta 3 from 29. August 2011

EAC extraction logfile from 13. September 2014, 22:13

Radioactive / Legacy - Taken

Used drive : SlimtypeDVD A DS8A5SH Adapter: 0 ID: 1

Read mode : Secure
Utilize accurate stream : Yes
Defeat audio cache : Yes
Make use of C2 pointers : No

Read offset correction : 6
Overread into Lead-In and Lead-Out : No
Fill up missing offset samples with silence : Yes
Delete leading and trailing silent blocks : No
Null samples used in CRC calculations : Yes
Used interface : Native Win32 interface for Win NT & 2000

Used output format : User Defined Encoder
Selected bitrate : 320 kBit/s
Quality : High
Add ID3 tag : No
Command line compressor : C:\Program Files (x86)\Exact Audio Copy\Flac\flac.exe
Additional command line options : -V -8 -T "Date=%year%" -T "Genre=%genre%" %source%


TOC of the extracted CD

Track | Start | Length | Start sector | End sector
––––––––––––––––––––––––––––-
1 | 0:00.00 | 0:48.53 | 0 | 3652
2 | 0:48.53 | 3:25.29 | 3653 | 19056
3 | 4:14.07 | 3:45.54 | 19057 | 35985
4 | 7:59.61 | 4:02.64 | 35986 | 54199
5 | 12:02.50 | 4:24.04 | 54200 | 74003
6 | 16:26.54 | 4:14.25 | 74004 | 93078
7 | 20:41.04 | 4:09.29 | 93079 | 111782
8 | 24:50.33 | 4:22.59 | 111783 | 131491
9 | 29:13.17 | 3:47.47 | 131492 | 148563
10 | 33:00.64 | 4:19.15 | 148564 | 168003
11 | 37:20.04 | 3:30.05 | 168004 | 183758
12 | 40:50.09 | 3:56.55 | 183759 | 201513
13 | 44:46.64 | 5:50.13 | 201514 | 227776
14 | 50:37.02 | 4:32.57 | 227777 | 248233
15 | 55:09.59 | 4:49.01 | 248234 | 269909


Range status and errors

Selected range

Filename D:\My Music\Radioactive - 2013 Legacy\CD3 - Taken\Radioactive - Legacy - Taken.wav

Peak level 97.9 %
Extraction speed 1.9 X
Range quality 100.0 %
Test CRC 167FC705
Copy CRC 167FC705
Copy OK

No errors occurred


AccurateRip summary

Track 1 accurately ripped (confidence 2) [0EBBA21D] (AR v2)
Track 2 accurately ripped (confidence 2) [5BBBC6F6] (AR v2)
Track 3 accurately ripped (confidence 2) [A4254517] (AR v2)
Track 4 accurately ripped (confidence 2) [6415D5F6] (AR v2)
Track 5 accurately ripped (confidence 2) [AA50E0D0] (AR v2)
Track 6 accurately ripped (confidence 2) [5F84D1C6] (AR v2)
Track 7 accurately ripped (confidence 2) [A012A278] (AR v2)
Track 8 accurately ripped (confidence 2) [889A87C8] (AR v2)
Track 9 accurately ripped (confidence 2) [AD839950] (AR v2)
Track 10 accurately ripped (confidence 2) [2EAF4B4B] (AR v2)
Track 11 accurately ripped (confidence 2) [3E868811] (AR v2)
Track 12 accurately ripped (confidence 2) [E37475C8] (AR v2)
Track 13 accurately ripped (confidence 2) [8859E5DF] (AR v2)
Track 14 accurately ripped (confidence 2) [376ECFD4] (AR v2)
Track 15 accurately ripped (confidence 2) [925951F4] (AR v2)

All tracks accurately ripped

End of status report

==== Log checksum 1EE1BF383EA63BEABA9C0FC1EC2FB6B6FFFE09BF10D405D66E941E91C5E34801 ====

foobar2000 1.2.6 / Dynamic Range Meter 1.1.1
log date: 2015-05-01 01:27:49

––––––––––––––––––––––––––––––––––––––––
Analyzed: Radioactive / Legacy - Taken
––––––––––––––––––––––––––––––––––––––––

DR Peak RMS Duration Track
––––––––––––––––––––––––––––––––––––––––
DR10 -1.78 dB -13.67 dB 0:49 01-C.O.W
DR9 -0.30 dB -10.40 dB 3:25 02-Taken
DR10 -0.30 dB -11.94 dB 3:46 03-Stronger Than Yesterday
DR9 -0.20 dB -10.22 dB 4:03 04-Hit Her Where It Hurts
DR10 -0.20 dB -10.77 dB 4:24 05-Easy's Get Harder
DR10 -0.50 dB -11.93 dB 4:14 06-This I Promise You
DR10 -0.20 dB -11.49 dB 4:09 07-Forgivness
DR10 -0.20 dB -11.00 dB 4:23 08-Shattered
DR11 -0.30 dB -12.78 dB 3:48 09-Premonition
DR9 -0.20 dB -10.43 dB 4:19 10-Carry On
DR10 -0.30 dB -11.09 dB 3:30 11-Love Is On Your Mind
DR12 -0.42 dB -13.90 dB 3:57 12-Sinner
DR12 -0.18 dB -14.56 dB 5:50 13-Never Gonna Let Her Go
DR11 -0.30 dB -12.61 dB 4:33 14-The Darkness Inside (bonus track)
DR11 -0.30 dB -12.50 dB 4:49 15-Feel My Heart Again (new song)
––––––––––––––––––––––––––––––––––––––––

Number of tracks: 15
Official DR value: DR10

Samplerate: 44100 Hz
Channels: 2
Bits per sample: 16
Bitrate: 980 kbps
Codec: FLAC
================================================================================

[CUETools log; Date: 01.05.2015 1:27:47; Version: 2.1.5]
[CTDB TOCID: 980kqr9zVT974ica.tbQneiSkUg-] found.
Track | CTDB Status
1 | (6/6) Accurately ripped
2 | (6/6) Accurately ripped
3 | (6/6) Accurately ripped
4 | (6/6) Accurately ripped
5 | (6/6) Accurately ripped
6 | (6/6) Accurately ripped
7 | (6/6) Accurately ripped
8 | (6/6) Accurately ripped
9 | (6/6) Accurately ripped
10 | (6/6) Accurately ripped
11 | (6/6) Accurately ripped
12 | (6/6) Accurately ripped
13 | (6/6) Accurately ripped
14 | (6/6) Accurately ripped
15 | (6/6) Accurately ripped
[AccurateRip ID: 001e1348-015f9841-cd0e0e0f] found.
Track [ CRC | V2 ] Status
01 [eb7a01b0|0ebba21d] (2+4/6) Accurately ripped
02 [4d4ddead|5bbbc6f6] (2+4/6) Accurately ripped
03 [c47ac382|a4254517] (2+4/6) Accurately ripped
04 [f6a9dfd9|6415d5f6] (2+4/6) Accurately ripped
05 [8474ed4b|aa50e0d0] (2+4/6) Accurately ripped
06 [11e4dc01|5f84d1c6] (2+4/6) Accurately ripped
07 [2ad18ef8|a012a278] (2+4/6) Accurately ripped
08 [ed52ad90|889a87c8] (2+4/6) Accurately ripped
09 [d6278051|ad839950] (2+4/6) Accurately ripped
10 [507dc39d|2eaf4b4b] (2+4/6) Accurately ripped
11 [e8ff4db5|3e868811] (2+4/6) Accurately ripped
12 [473db7e0|e37475c8] (2+4/6) Accurately ripped
13 [01e693d6|8859e5df] (2+4/6) Accurately ripped
14 [2ad60740|376ecfd4] (2+4/6) Accurately ripped
15 [a7b18328|925951f4] (2+4/6) Accurately ripped

Track Peak [ CRC32 ] [W/O NULL] [ LOG ]
– 97,9 [167FC705] [64354DCC] CRC32
01 81,4 [474A3B7E] [FDAC9D2E]
02 96,6 [F0F04E75] [C0EF0B05]
03 96,6 [D3A70BBB] [DE149862]
04 97,7 [F2E67168] [F8BC6ECA]
05 97,7 [8F480452] [42B6A2E6]
06 94,4 [BE0592B6] [C826C165]
07 97,7 [D769D8BD] [2314B317]
08 97,7 [EE3DB529] [77903D82]
09 96,6 [DF8BE31A] [2F8AE3EA]
10 97,7 [F8A4AEA9] [710F4CED]
11 96,6 [BE482E99] [F2BF4927]
12 95,2 [519D4A87] [2D11D0A4]
13 97,9 [420925E6] [D20F1E95]
14 96,6 [E850C8BC] [7034B328]
15 96,6 [11F164A9] [E6B3433C]

Radioactive - Legacy (2013) {3CD Box Set}


All thanks go to kolushew

>>> My Blog <<<

DOWNLOAD: