Subcategories
Tags
Language
Tags

Rainbow - The Singles Box Set 1975-1986 (2014)

Posted By: v3122
Rainbow - The Singles Box Set 1975-1986 (2014)

Rainbow - The Singles Box Set 1975-1986 (2014)
EAC | Flac(Image) + Cue + Log & MP3 CBR 320Kbps
19CD | Polydor/Universal Music, 0600753460535 | ~ 1364 or 451 Mb | Scans(jpg, 600dpi) -> 323 Mb
Hard Rock | Remastered

As one of the cornerstones of British Rock, Rainbow, led by the never-predictable but ever-astonishing guitarist, Ritchie Blackmore, became synonymous with some of the most well regarded and popular charting Rock songs of the seventies and eighties. From the mystic and quasi-religious ‘Man On A Silver Mountain’ to the solid gold anthems of ‘All Night Long’, ‘Long Live Rock And Roll’ and ‘Since You Been Gone’, each year in the decade of Rainbow was marked by some of the best songs and performances captured both on record and in-concert.

Passing through the band were some of the best the genre had to offer. Vocalists Ronnie James Dio and Graham Bonnet, bass player and producer Roger Glover and drummer Cozy Powell, each brought their individual talent to the table to record some of Rock’s best loved hard rock on those timeless albums and singles.

~ amazon
CD01: Man On The Silver Mountain

01 Man On The Silver Mountain (7" Edit) (3:57)
02 Snake Charmer (4:28)

Exact Audio Copy V1.0 beta 3 from 29. August 2011

EAC extraction logfile from 3. April 2014, 11:20

Rainbow / The Singles Box Set 1975-1986 CD1

Used drive : ATAPI iHAS124 B Adapter: 1 ID: 0

Read mode : Secure
Utilize accurate stream : Yes
Defeat audio cache : Yes
Make use of C2 pointers : No

Read offset correction : 6
Overread into Lead-In and Lead-Out : No
Fill up missing offset samples with silence : Yes
Delete leading and trailing silent blocks : No
Null samples used in CRC calculations : Yes
Used interface : Installed external ASPI interface

Used output format : User Defined Encoder
Selected bitrate : 128 kBit/s
Quality : High
Add ID3 tag : Yes
Command line compressor : C:\Program Files (x86)\Exact Audio Copy\Flac\flac.exe
Additional command line options : -V -8 %source%


TOC of the extracted CD

Track | Start | Length | Start sector | End sector
––––––––––––––––––––––––––––-
1 | 0:00.00 | 3:59.07 | 0 | 17931
2 | 3:59.07 | 4:32.51 | 17932 | 38382


Range status and errors

Selected range

Filename G:\CD\Rainbow - The Singles Box Set 1975-1986 CD1.wav

Peak level 96.6 %
Extraction speed 5.6 X
Range quality 100.0 %
Test CRC DD6ECFCC
Copy CRC DD6ECFCC
Copy OK

No errors occurred


AccurateRip summary

Track 1 accurately ripped (confidence 1) [A6D2FB7E] (AR v2)
Track 2 accurately ripped (confidence 1) [38973CF1] (AR v2)

All tracks accurately ripped

End of status report

–– CUETools DB Plugin V2.1.3

[CTDB TOCID: 6Rli6MLhIf5uBNyvCFg3jzcOFrM-] found, Submit result: 6Rli6MLhIf5uBNyvCFg3jzcOFrM- has been confirmed
[fdfa3024] (2/2) Accurately ripped


==== Log checksum C9EEEC15E1A6755545F14AE73E645F3979A44B3959BA8002B7BED9AD92B21952 ====


CD02: Still I'm Sad

01 Still I'm Sad (3:53)
02 The Temple Of The King (4:43)

Exact Audio Copy V1.0 beta 3 from 29. August 2011

EAC extraction logfile from 3. April 2014, 11:17

Rainbow / The Singles Box Set 1975-1986 CD2

Used drive : ATAPI iHAS124 B Adapter: 1 ID: 0

Read mode : Secure
Utilize accurate stream : Yes
Defeat audio cache : Yes
Make use of C2 pointers : No

Read offset correction : 6
Overread into Lead-In and Lead-Out : No
Fill up missing offset samples with silence : Yes
Delete leading and trailing silent blocks : No
Null samples used in CRC calculations : Yes
Used interface : Installed external ASPI interface

Used output format : User Defined Encoder
Selected bitrate : 128 kBit/s
Quality : High
Add ID3 tag : Yes
Command line compressor : C:\Program Files (x86)\Exact Audio Copy\Flac\flac.exe
Additional command line options : -V -8 %source%


TOC of the extracted CD

Track | Start | Length | Start sector | End sector
––––––––––––––––––––––––––––-
1 | 0:00.00 | 3:55.65 | 0 | 17689
2 | 3:55.65 | 4:43.49 | 17690 | 38963


Range status and errors

Selected range

Filename G:\CD\Rainbow - The Singles Box Set 1975-1986 CD2.wav

Peak level 96.6 %
Extraction speed 5.6 X
Range quality 100.0 %
Test CRC 27DAC7D9
Copy CRC 27DAC7D9
Copy OK

No errors occurred


AccurateRip summary

Track 1 accurately ripped (confidence 1) [372C77E3] (AR v2)
Track 2 accurately ripped (confidence 1) [834668F1] (AR v2)

All tracks accurately ripped

End of status report

–– CUETools DB Plugin V2.1.3

[CTDB TOCID: KlNKfXj2UqrgXJ1uwBeB.zsc3Wg-] found, Submit result: already submitted
[83f20e9b] (2/2) Accurately ripped


==== Log checksum 50BAC3E29E79E448BE624EABB6C76179831B21C78CD21CF2B49C8DB95AFAF315 ====


CD03: Man On The Silver Mountain

01 Man On The Silver Mountain (Album Version) (4:36)
02 Snake Charmer (4:28)
03 If You Don't Like Rock N Roll (2:35)
04 Sixteenth Century Greensleeves (3:35)

Exact Audio Copy V1.0 beta 3 from 29. August 2011

EAC extraction logfile from 4. April 2014, 8:50

Rainbow / The Singles Box Set 1975-1986 CD3

Used drive : ATAPI iHAS124 B Adapter: 1 ID: 0

Read mode : Secure
Utilize accurate stream : Yes
Defeat audio cache : Yes
Make use of C2 pointers : No

Read offset correction : 6
Overread into Lead-In and Lead-Out : No
Fill up missing offset samples with silence : Yes
Delete leading and trailing silent blocks : No
Null samples used in CRC calculations : Yes
Used interface : Installed external ASPI interface

Used output format : User Defined Encoder
Selected bitrate : 128 kBit/s
Quality : High
Add ID3 tag : Yes
Command line compressor : C:\Program Files (x86)\Exact Audio Copy\Flac\flac.exe
Additional command line options : -V -8 %source%


TOC of the extracted CD

Track | Start | Length | Start sector | End sector
––––––––––––––––––––––––––––-
1 | 0:00.00 | 4:38.65 | 0 | 20914
2 | 4:38.65 | 4:32.38 | 20915 | 41352
3 | 9:11.28 | 2:37.71 | 41353 | 53198
4 | 11:49.24 | 3:31.21 | 53199 | 69044


Range status and errors

Selected range

Filename G:\CD\Rainbow - The Singles Box Set 1975-1986 CD3.wav

Peak level 96.5 %
Extraction speed 6.2 X
Range quality 100.0 %
Test CRC EA25642B
Copy CRC EA25642B
Copy OK

No errors occurred


AccurateRip summary

Track 1 accurately ripped (confidence 1) [8837B226] (AR v2)
Track 2 accurately ripped (confidence 1) [261E086C] (AR v2)
Track 3 accurately ripped (confidence 1) [098246FF] (AR v2)
Track 4 accurately ripped (confidence 1) [0EE2BAA3] (AR v2)

All tracks accurately ripped

End of status report

–– CUETools DB Plugin V2.1.3

[CTDB TOCID: rO5Ogu8JP2MBLkDW2yHbY4Jh.8s-] found, Submit result: rO5Ogu8JP2MBLkDW2yHbY4Jh.8s- has been confirmed
[09a8f472] (1/1) Accurately ripped


==== Log checksum 752B6A7851F7D0710DAF086325FC146FBEBC16A4D4DD6BF85FD4F6617B978590 ====


CD04: Run With The Wolf

01 Starstruck (4:06)
02 Run With The Wolf (3:48)

Exact Audio Copy V1.0 beta 3 from 29. August 2011

EAC extraction logfile from 4. April 2014, 11:09

Rainbow / The Singles Box Set 1975-1986 CD4 - Starstrack

Used drive : ATAPI iHAS124 B Adapter: 1 ID: 0

Read mode : Secure
Utilize accurate stream : Yes
Defeat audio cache : Yes
Make use of C2 pointers : No

Read offset correction : 6
Overread into Lead-In and Lead-Out : No
Fill up missing offset samples with silence : Yes
Delete leading and trailing silent blocks : No
Null samples used in CRC calculations : Yes
Used interface : Installed external ASPI interface

Used output format : User Defined Encoder
Selected bitrate : 128 kBit/s
Quality : High
Add ID3 tag : Yes
Command line compressor : C:\Program Files (x86)\Exact Audio Copy\Flac\flac.exe
Additional command line options : -V -8 %source%


TOC of the extracted CD

Track | Start | Length | Start sector | End sector
––––––––––––––––––––––––––––-
1 | 0:00.00 | 4:08.35 | 0 | 18634
2 | 4:08.35 | 3:43.01 | 18635 | 35360


Range status and errors

Selected range

Filename G:\CD\Rainbow - The Singles Box Set 1975-1986 CD4.wav

Peak level 96.6 %
Extraction speed 5.5 X
Range quality 100.0 %
Test CRC B7F6144F
Copy CRC B7F6144F
Copy OK

No errors occurred


AccurateRip summary

Track 1 accurately ripped (confidence 1) [36E5AD63] (AR v2)
Track 2 accurately ripped (confidence 1) [C297C303] (AR v2)

All tracks accurately ripped

End of status report

–– CUETools DB Plugin V2.1.3

[CTDB TOCID: EtO0SPW_YGzFPugDvyI_9hKhJKo-] found, Submit result: already submitted
[87883ac4] (2/2) Accurately ripped


==== Log checksum 74746343E6AD139D32826590FD95F1D109A6BEA36B3A99395AB58459935516A6 ====


CD05: Live

01 Kill The King (Live / Edit) (4:41)
02 Man On The Silver Mountain (Live) (5:08)
03 Mistreated (Live / 7" Edit) (7:15)

Exact Audio Copy V1.0 beta 3 from 29. August 2011

EAC extraction logfile from 5. April 2014, 12:22

Rainbow / The Singles Box Set 1975-1986 CD5 - Kill The King (Live)

Used drive : ATAPI iHAS124 B Adapter: 1 ID: 0

Read mode : Secure
Utilize accurate stream : Yes
Defeat audio cache : Yes
Make use of C2 pointers : No

Read offset correction : 6
Overread into Lead-In and Lead-Out : No
Fill up missing offset samples with silence : Yes
Delete leading and trailing silent blocks : No
Null samples used in CRC calculations : Yes
Used interface : Installed external ASPI interface

Used output format : User Defined Encoder
Selected bitrate : 128 kBit/s
Quality : High
Add ID3 tag : Yes
Command line compressor : C:\Program Files (x86)\Exact Audio Copy\Flac\flac.exe
Additional command line options : -V -8 %source%


TOC of the extracted CD

Track | Start | Length | Start sector | End sector
––––––––––––––––––––––––––––-
1 | 0:00.00 | 4:45.54 | 0 | 21428
2 | 4:45.54 | 5:07.17 | 21429 | 44470
3 | 9:52.71 | 7:16.37 | 44471 | 77207


Range status and errors

Selected range

Filename G:\CD\Rainbow - The Singles Box Set 1975-1986 CD5.wav

Peak level 96.6 %
Extraction speed 6.5 X
Range quality 100.0 %
Test CRC 1B30D918
Copy CRC 1B30D918
Copy OK

No errors occurred


AccurateRip summary

Track 1 accurately ripped (confidence 1) [EED9CBA9] (AR v2)
Track 2 accurately ripped (confidence 1) [C0762855] (AR v2)
Track 3 accurately ripped (confidence 1) [E4782475] (AR v2)

All tracks accurately ripped

End of status report

–– CUETools DB Plugin V2.1.3

[CTDB TOCID: f6A5ufC55xcH.SRJ8jI_N.Eiv3k-] found, Submit result: f6A5ufC55xcH.SRJ8jI_N.Eiv3k- has been confirmed
[337a6c59] (1/1) Accurately ripped


==== Log checksum CC27DF0EEAA386E26B423FC4CC26ED05F50E341A7C51EDA175E893E62A69FAD1 ====


CD06: Long Live Rock 'N' Roll

01 Long Live Rock 'N' Roll (4:25)
02 Sensitive To Light (3:08)

Exact Audio Copy V1.0 beta 3 from 29. August 2011

EAC extraction logfile from 5. April 2014, 12:32

Rainbow / The Singles Box Set 1975-1986 CD6 - Long Live Rock'N'Roll

Used drive : ATAPI iHAS124 B Adapter: 1 ID: 0

Read mode : Secure
Utilize accurate stream : Yes
Defeat audio cache : Yes
Make use of C2 pointers : No

Read offset correction : 6
Overread into Lead-In and Lead-Out : No
Fill up missing offset samples with silence : Yes
Delete leading and trailing silent blocks : No
Null samples used in CRC calculations : Yes
Used interface : Installed external ASPI interface

Used output format : User Defined Encoder
Selected bitrate : 128 kBit/s
Quality : High
Add ID3 tag : Yes
Command line compressor : C:\Program Files (x86)\Exact Audio Copy\Flac\flac.exe
Additional command line options : -V -8 %source%


TOC of the extracted CD

Track | Start | Length | Start sector | End sector
––––––––––––––––––––––––––––-
1 | 0:00.00 | 4:24.09 | 0 | 19808
2 | 4:24.09 | 3:02.44 | 19809 | 33502


Range status and errors

Selected range

Filename G:\CD\Rainbow - The Singles Box Set 1975-1986 CD6.wav

Peak level 96.6 %
Extraction speed 5.5 X
Range quality 100.0 %
Test CRC FBC2050A
Copy CRC FBC2050A
Copy OK

No errors occurred


AccurateRip summary

Track 1 accurately ripped (confidence 1) [F3CCFE1F] (AR v2)
Track 2 accurately ripped (confidence 1) [00DFA191] (AR v2)

All tracks accurately ripped

End of status report

–– CUETools DB Plugin V2.1.3

[CTDB TOCID: JJPthyjsywDvbDpnN4MqYukSr5Y-] found, Submit result: JJPthyjsywDvbDpnN4MqYukSr5Y- has been confirmed
[817bf66b] (1/1) Accurately ripped


==== Log checksum CEC21D43E0F6809E45AD00B0632DD9F0DC88182A12FA58311A6CF96D6EFC114D ====


CD07: L.A. Connection

01 L.A. Connection (7" Edit) (3:41)
02 Lady Of The Lake (3:38)

Exact Audio Copy V1.0 beta 3 from 29. August 2011

EAC extraction logfile from 5. April 2014, 12:39

Rainbow / The Singles Box Set 1975-1986 CD7 - L.A. Connection

Used drive : ATAPI iHAS124 B Adapter: 1 ID: 0

Read mode : Secure
Utilize accurate stream : Yes
Defeat audio cache : Yes
Make use of C2 pointers : No

Read offset correction : 6
Overread into Lead-In and Lead-Out : No
Fill up missing offset samples with silence : Yes
Delete leading and trailing silent blocks : No
Null samples used in CRC calculations : Yes
Used interface : Installed external ASPI interface

Used output format : User Defined Encoder
Selected bitrate : 128 kBit/s
Quality : High
Add ID3 tag : Yes
Command line compressor : C:\Program Files (x86)\Exact Audio Copy\Flac\flac.exe
Additional command line options : -V -8 %source%


TOC of the extracted CD

Track | Start | Length | Start sector | End sector
––––––––––––––––––––––––––––-
1 | 0:00.00 | 3:43.72 | 0 | 16796
2 | 3:43.72 | 3:38.51 | 16797 | 33197


Range status and errors

Selected range

Filename G:\CD\Rainbow - The Singles Box Set 1975-1986 CD7.wav

Peak level 96.6 %
Extraction speed 5.6 X
Range quality 100.0 %
Test CRC DA512DD5
Copy CRC DA512DD5
Copy OK

No errors occurred


AccurateRip summary

Track 1 accurately ripped (confidence 1) [D72EC68F] (AR v2)
Track 2 accurately ripped (confidence 1) [017F5343] (AR v2)

All tracks accurately ripped

End of status report

–– CUETools DB Plugin V2.1.3

[CTDB TOCID: bG7OLijA7sSNq7jof_WJuZ7lWwY-] found, Submit result: bG7OLijA7sSNq7jof_WJuZ7lWwY- has been confirmed
[895b9cf8] (1/1) Accurately ripped


==== Log checksum DF59718A2546CEC279962D1AE053FE78F714795F4EDDC26938294298FBCBA205 ====


CD08: Since You Been Gone

01 Since You Been Gone (Album Version) (3:16)
02 Bad Girl (4:48)

Exact Audio Copy V1.0 beta 3 from 29. August 2011

EAC extraction logfile from 5. April 2014, 12:45

Rainbow / The Singles Box Set 1975-1986 CD8 - Since You Been Gone

Used drive : ATAPI iHAS124 B Adapter: 1 ID: 0

Read mode : Secure
Utilize accurate stream : Yes
Defeat audio cache : Yes
Make use of C2 pointers : No

Read offset correction : 6
Overread into Lead-In and Lead-Out : No
Fill up missing offset samples with silence : Yes
Delete leading and trailing silent blocks : No
Null samples used in CRC calculations : Yes
Used interface : Installed external ASPI interface

Used output format : User Defined Encoder
Selected bitrate : 128 kBit/s
Quality : High
Add ID3 tag : Yes
Command line compressor : C:\Program Files (x86)\Exact Audio Copy\Flac\flac.exe
Additional command line options : -V -8 %source%


TOC of the extracted CD

Track | Start | Length | Start sector | End sector
––––––––––––––––––––––––––––-
1 | 0:00.00 | 3:20.20 | 0 | 15019
2 | 3:20.20 | 4:51.74 | 15020 | 36918


Range status and errors

Selected range

Filename G:\CD\Rainbow - The Singles Box Set 1975-1986 CD8.wav

Peak level 96.6 %
Extraction speed 5.6 X
Range quality 100.0 %
Test CRC 83528638
Copy CRC 83528638
Copy OK

No errors occurred


AccurateRip summary

Track 1 accurately ripped (confidence 1) [CC451776] (AR v2)
Track 2 accurately ripped (confidence 1) [B5B16254] (AR v2)

All tracks accurately ripped

End of status report

–– CUETools DB Plugin V2.1.3

[CTDB TOCID: q3ASG3UgjPK6mUtG7DqMxDFvIeQ-] found, Submit result: q3ASG3UgjPK6mUtG7DqMxDFvIeQ- has been confirmed
[a7156dad] (1/1) Accurately ripped


==== Log checksum A63F0C1586AE83D3DEE7B16DEED347E2D1AACD8243F3F5070015215953E75E7B ====


CD09: Since You Been Gone

01 Since You Been Gone (Album Version) (3:16)
02 No Time To Lose (3:41)

Exact Audio Copy V1.0 beta 3 from 29. August 2011

EAC extraction logfile from 5. April 2014, 12:55

Rainbow / The Singles Box Set 1975-1986 CD9 - Since You Been Gone

Used drive : ATAPI iHAS124 B Adapter: 1 ID: 0

Read mode : Secure
Utilize accurate stream : Yes
Defeat audio cache : Yes
Make use of C2 pointers : No

Read offset correction : 6
Overread into Lead-In and Lead-Out : No
Fill up missing offset samples with silence : Yes
Delete leading and trailing silent blocks : No
Null samples used in CRC calculations : Yes
Used interface : Installed external ASPI interface

Used output format : User Defined Encoder
Selected bitrate : 128 kBit/s
Quality : High
Add ID3 tag : Yes
Command line compressor : C:\Program Files (x86)\Exact Audio Copy\Flac\flac.exe
Additional command line options : -V -8 %source%


TOC of the extracted CD

Track | Start | Length | Start sector | End sector
––––––––––––––––––––––––––––-
1 | 0:00.00 | 3:20.20 | 0 | 15019
2 | 3:20.20 | 3:44.25 | 15020 | 31844


Range status and errors

Selected range

Filename G:\CD\Rainbow - The Singles Box Set 1975-1986 CD9.wav

Peak level 96.6 %
Extraction speed 5.6 X
Range quality 100.0 %
Test CRC 8F40B119
Copy CRC 8F40B119
Copy OK

No errors occurred


AccurateRip summary

Track 1 accurately ripped (confidence 1) [061265E8] (AR v2)
Track 2 accurately ripped (confidence 1) [117B4804] (AR v2)

All tracks accurately ripped

End of status report

–– CUETools DB Plugin V2.1.3

[CTDB TOCID: 43UDfPdU.25ASo4Mei0zThNiV6s-] found, Submit result: 43UDfPdU.25ASo4Mei0zThNiV6s- has been confirmed
[03c2a137] (1/1) Accurately ripped


==== Log checksum 9003271FEC8C548B8B8EACE02742886377B724E2260992F9D091D17BA7EEB6E4 ====


CD10: All Night Long

01 All Night Long (Album Version) (3:49)
02 Weiss Heim (5:10)

Exact Audio Copy V1.0 beta 3 from 29. August 2011

EAC extraction logfile from 5. April 2014, 13:02

Rainbow / The Singles Box Set 1975-1986 CD10 - All Night Long

Used drive : ATAPI iHAS124 B Adapter: 1 ID: 0

Read mode : Secure
Utilize accurate stream : Yes
Defeat audio cache : Yes
Make use of C2 pointers : No

Read offset correction : 6
Overread into Lead-In and Lead-Out : No
Fill up missing offset samples with silence : Yes
Delete leading and trailing silent blocks : No
Null samples used in CRC calculations : Yes
Used interface : Installed external ASPI interface

Used output format : User Defined Encoder
Selected bitrate : 128 kBit/s
Quality : High
Add ID3 tag : Yes
Command line compressor : C:\Program Files (x86)\Exact Audio Copy\Flac\flac.exe
Additional command line options : -V -8 %source%


TOC of the extracted CD

Track | Start | Length | Start sector | End sector
––––––––––––––––––––––––––––-
1 | 0:00.00 | 3:53.19 | 0 | 17493
2 | 3:53.19 | 5:13.31 | 17494 | 40999


Range status and errors

Selected range

Filename G:\CD\Rainbow - The Singles Box Set 1975-1986 CD10.wav

Peak level 96.6 %
Extraction speed 5.7 X
Range quality 100.0 %
Test CRC 59433E29
Copy CRC 59433E29
Copy OK

No errors occurred


AccurateRip summary

Track 1 accurately ripped (confidence 1) [3E49E5FE] (AR v2)
Track 2 accurately ripped (confidence 1) [9894AF54] (AR v2)

All tracks accurately ripped

End of status report

–– CUETools DB Plugin V2.1.3

[CTDB TOCID: RXiZ72Mb120hA6od7AHmDjKJnxg-] found, Submit result: RXiZ72Mb120hA6od7AHmDjKJnxg- has been confirmed
[66fc11c1] (1/1) Accurately ripped


==== Log checksum B7B5775759B7C6180884F4A4535463A17AD0AD1C68437E7EFDC475955DDB4605 ====


CD11: I Surrender

01 I Surrender (3:22)
02 Vielleicht Das Nachster Mal (3:20)

Exact Audio Copy V1.0 beta 3 from 29. August 2011

EAC extraction logfile from 5. April 2014, 13:10

Rainbow / The Singles Box Set 1975-1986 CD11 - I Surrender

Used drive : ATAPI iHAS124 B Adapter: 1 ID: 0

Read mode : Secure
Utilize accurate stream : Yes
Defeat audio cache : Yes
Make use of C2 pointers : No

Read offset correction : 6
Overread into Lead-In and Lead-Out : No
Fill up missing offset samples with silence : Yes
Delete leading and trailing silent blocks : No
Null samples used in CRC calculations : Yes
Used interface : Installed external ASPI interface

Used output format : User Defined Encoder
Selected bitrate : 128 kBit/s
Quality : High
Add ID3 tag : Yes
Command line compressor : C:\Program Files (x86)\Exact Audio Copy\Flac\flac.exe
Additional command line options : -V -8 %source%


TOC of the extracted CD

Track | Start | Length | Start sector | End sector
––––––––––––––––––––––––––––-
1 | 0:00.00 | 3:28.03 | 0 | 15602
2 | 3:28.03 | 3:20.18 | 15603 | 30620


Range status and errors

Selected range

Filename G:\CD\Rainbow - The Singles Box Set 1975-1986 CD11.wav

Peak level 96.5 %
Extraction speed 5.5 X
Range quality 100.0 %
Test CRC 5A9E1878
Copy CRC 5A9E1878
Copy OK

No errors occurred


AccurateRip summary

Track 1 accurately ripped (confidence 1) [15B09F10] (AR v1)
Track 2 accurately ripped (confidence 1) [11D89C4C] (AR v1)

All tracks accurately ripped

End of status report

–– CUETools DB Plugin V2.1.3

[CTDB TOCID: Je5htmrX2Y3CIVMo9D2aDs1s6eo-] disk not present in database, Submit result: Je5htmrX2Y3CIVMo9D2aDs1s6eo- has been uploaded


==== Log checksum C2A25D4A7771EAC668212E5AD403791A0B51507215EFE3D66A185098C39470CA ====


CD12: Difficult To Cure

01 Difficult To Cure (5:55)
02 Can't Happen Here (7" Edit) (4:05)
03 Jealous Lover (3:09)

Exact Audio Copy V1.0 beta 3 from 29. August 2011

EAC extraction logfile from 5. April 2014, 13:19

Rainbow / The Singles Box Set 1975-1986 CD12 - Difficult To Cure

Used drive : ATAPI iHAS124 B Adapter: 1 ID: 0

Read mode : Secure
Utilize accurate stream : Yes
Defeat audio cache : Yes
Make use of C2 pointers : No

Read offset correction : 6
Overread into Lead-In and Lead-Out : No
Fill up missing offset samples with silence : Yes
Delete leading and trailing silent blocks : No
Null samples used in CRC calculations : Yes
Used interface : Installed external ASPI interface

Used output format : User Defined Encoder
Selected bitrate : 128 kBit/s
Quality : High
Add ID3 tag : Yes
Command line compressor : C:\Program Files (x86)\Exact Audio Copy\Flac\flac.exe
Additional command line options : -V -8 %source%


TOC of the extracted CD

Track | Start | Length | Start sector | End sector
––––––––––––––––––––––––––––-
1 | 0:00.00 | 6:00.39 | 0 | 27038
2 | 6:00.39 | 4:07.73 | 27039 | 45636
3 | 10:08.37 | 3:12.67 | 45637 | 60103


Range status and errors

Selected range

Filename G:\CD\Rainbow - The Singles Box Set 1975-1986 CD12.wav

Peak level 96.6 %
Extraction speed 6.1 X
Range quality 100.0 %
Test CRC 0ECC86C6
Copy CRC 0ECC86C6
Copy OK

No errors occurred


AccurateRip summary

Track 1 accurately ripped (confidence 1) [0CD56FEE] (AR v1)
Track 2 accurately ripped (confidence 1) [38E9AFEE] (AR v1)
Track 3 accurately ripped (confidence 1) [C76694A9] (AR v1)

All tracks accurately ripped

End of status report

–– CUETools DB Plugin V2.1.3

[CTDB TOCID: KvcjifX17fx.k5Imgi9.3AUr2Nk-] disk not present in database, Submit result: KvcjifX17fx.k5Imgi9.3AUr2Nk- has been uploaded


==== Log checksum 59527A2300D4CE48CBC4063ED6760CF49C0CA4E14058AD5CDE8D0DABECC7953D ====


CD13: Magic

01 Magic (4:05)
02 Freedom Fighter (4:20)

Exact Audio Copy V1.0 beta 3 from 29. August 2011

EAC extraction logfile from 5. April 2014, 13:27

Rainbow / The Singles Box Set 1975-1986 CD13 - Magic

Used drive : ATAPI iHAS124 B Adapter: 1 ID: 0

Read mode : Secure
Utilize accurate stream : Yes
Defeat audio cache : Yes
Make use of C2 pointers : No

Read offset correction : 6
Overread into Lead-In and Lead-Out : No
Fill up missing offset samples with silence : Yes
Delete leading and trailing silent blocks : No
Null samples used in CRC calculations : Yes
Used interface : Installed external ASPI interface

Used output format : User Defined Encoder
Selected bitrate : 128 kBit/s
Quality : High
Add ID3 tag : Yes
Command line compressor : C:\Program Files (x86)\Exact Audio Copy\Flac\flac.exe
Additional command line options : -V -8 %source%


TOC of the extracted CD

Track | Start | Length | Start sector | End sector
––––––––––––––––––––––––––––-
1 | 0:00.00 | 4:09.46 | 0 | 18720
2 | 4:09.46 | 4:23.20 | 18721 | 38465


Range status and errors

Selected range

Filename G:\CD\Rainbow - The Singles Box Set 1975-1986 CD13.wav

Peak level 96.6 %
Extraction speed 5.7 X
Range quality 100.0 %
Test CRC EF91FA1B
Copy CRC EF91FA1B
Copy OK

No errors occurred


AccurateRip summary

Track 1 accurately ripped (confidence 1) [0706A5B8] (AR v2)
Track 2 accurately ripped (confidence 1) [C0EF5CFF] (AR v2)

All tracks accurately ripped

End of status report

–– CUETools DB Plugin V2.1.3

[CTDB TOCID: ANoOuHvQVJlKHae7pksB7JZDGew-] found, Submit result: ANoOuHvQVJlKHae7pksB7JZDGew- has been confirmed
[8c2f2148] (1/1) Accurately ripped


==== Log checksum 799E2E230CB17E293989FA7343391B6C91F39A00DFBF66155A190CCE9C0A95C5 ====


CD14: Can't Happen Here

01 Can't Happen Here (7" Edit) (4:05)
02 Jealous Lover (3:09)

Exact Audio Copy V1.0 beta 3 from 29. August 2011

EAC extraction logfile from 5. April 2014, 13:41

Rainbow / The Singles Box Set 1975-1986 CD14 - Can't Happen Here

Used drive : ATAPI iHAS124 B Adapter: 1 ID: 0

Read mode : Secure
Utilize accurate stream : Yes
Defeat audio cache : Yes
Make use of C2 pointers : No

Read offset correction : 6
Overread into Lead-In and Lead-Out : No
Fill up missing offset samples with silence : Yes
Delete leading and trailing silent blocks : No
Null samples used in CRC calculations : Yes
Used interface : Installed external ASPI interface

Used output format : User Defined Encoder
Selected bitrate : 128 kBit/s
Quality : High
Add ID3 tag : Yes
Command line compressor : C:\Program Files (x86)\Exact Audio Copy\Flac\flac.exe
Additional command line options : -V -8 %source%


TOC of the extracted CD

Track | Start | Length | Start sector | End sector
––––––––––––––––––––––––––––-
1 | 0:00.00 | 4:08.61 | 0 | 18660
2 | 4:08.61 | 3:12.67 | 18661 | 33127


Range status and errors

Selected range

Filename G:\CD\Rainbow - The Singles Box Set 1975-1986 CD14.wav

Peak level 96.6 %
Extraction speed 5.5 X
Range quality 100.0 %
Test CRC 060B12D9
Copy CRC 060B12D9
Copy OK

No errors occurred


AccurateRip summary

Track 1 accurately ripped (confidence 1) [0C49E9C2] (AR v1)
Track 2 accurately ripped (confidence 1) [46831A2E] (AR v1)

All tracks accurately ripped

End of status report

–– CUETools DB Plugin V2.1.3

[CTDB TOCID: aYRHK9N3wt9HEgli43lSJYPYTCc-] disk not present in database, Submit result: aYRHK9N3wt9HEgli43lSJYPYTCc- has been uploaded


==== Log checksum EB68DCB345BB870739EF0C64DF369CFFCC69DD5B4B3AC2E2171431E7D3351710 ====


CD15: Stone Cold

01 Stone Cold (Album Version) (5:17)
02 Rock Fever (3:46)

Exact Audio Copy V1.0 beta 3 from 29. August 2011

EAC extraction logfile from 5. April 2014, 13:47

Rainbow / The Singles Box Set 1975-1986 CD15 - Stone Cold

Used drive : ATAPI iHAS124 B Adapter: 1 ID: 0

Read mode : Secure
Utilize accurate stream : Yes
Defeat audio cache : Yes
Make use of C2 pointers : No

Read offset correction : 6
Overread into Lead-In and Lead-Out : No
Fill up missing offset samples with silence : Yes
Delete leading and trailing silent blocks : No
Null samples used in CRC calculations : Yes
Used interface : Installed external ASPI interface

Used output format : User Defined Encoder
Selected bitrate : 128 kBit/s
Quality : High
Add ID3 tag : Yes
Command line compressor : C:\Program Files (x86)\Exact Audio Copy\Flac\flac.exe
Additional command line options : -V -8 %source%


TOC of the extracted CD

Track | Start | Length | Start sector | End sector
––––––––––––––––––––––––––––-
1 | 0:00.00 | 5:19.68 | 0 | 23992
2 | 5:19.68 | 3:51.70 | 23993 | 41387


Range status and errors

Selected range

Filename G:\CD\Rainbow - The Singles Box Set 1975-1986 CD15.wav

Peak level 96.6 %
Extraction speed 5.7 X
Range quality 100.0 %
Test CRC 1FA6B0CC
Copy CRC 1FA6B0CC
Copy OK

No errors occurred


AccurateRip summary

Track 1 accurately ripped (confidence 1) [EE41BB1A] (AR v2)
Track 2 accurately ripped (confidence 1) [EAEB8558] (AR v2)

All tracks accurately ripped

End of status report

–– CUETools DB Plugin V2.1.3

[CTDB TOCID: 4BJFcI.fVSyW857NhIawn54O2ak-] found, Submit result: 4BJFcI.fVSyW857NhIawn54O2ak- has been confirmed
[9a45fdd3] (1/1) Accurately ripped


==== Log checksum 433A6104C0E7DE6E8CECD686E00BBD5AA1D0880F4CD514505A416542F0F13710 ====


CD16: Death Alley Driver

01 Death Alley Driver (4:36)
02 Tite Squeeze (3:15)

Exact Audio Copy V1.0 beta 3 from 29. August 2011

EAC extraction logfile from 5. April 2014, 14:09

Rainbow / The Singles Box Set 1975-1986 CD16 - Death Alley Driver

Used drive : ATAPI iHAS124 B Adapter: 1 ID: 0

Read mode : Secure
Utilize accurate stream : Yes
Defeat audio cache : Yes
Make use of C2 pointers : No

Read offset correction : 6
Overread into Lead-In and Lead-Out : No
Fill up missing offset samples with silence : Yes
Delete leading and trailing silent blocks : No
Null samples used in CRC calculations : Yes
Used interface : Installed external ASPI interface

Used output format : User Defined Encoder
Selected bitrate : 128 kBit/s
Quality : High
Add ID3 tag : Yes
Command line compressor : C:\Program Files (x86)\Exact Audio Copy\Flac\flac.exe
Additional command line options : -V -8 %source%


TOC of the extracted CD

Track | Start | Length | Start sector | End sector
––––––––––––––––––––––––––––-
1 | 0:00.00 | 4:44.28 | 0 | 21327
2 | 4:44.28 | 3:16.18 | 21328 | 36045


Range status and errors

Selected range

Filename G:\CD\Rainbow - The Singles Box Set 1975-1986 CD16.wav

Peak level 96.6 %
Extraction speed 5.6 X
Range quality 100.0 %
Test CRC 8B70BB33
Copy CRC 8B70BB33
Copy OK

No errors occurred


AccurateRip summary

Track 1 accurately ripped (confidence 1) [85C901EE] (AR v1)
Track 2 accurately ripped (confidence 1) [F919AB65] (AR v1)

All tracks accurately ripped

End of status report

–– CUETools DB Plugin V2.1.3

[CTDB TOCID: YH8U4voubshnMEmPzHCfb0uf0rQ-] disk not present in database, Submit result: YH8U4voubshnMEmPzHCfb0uf0rQ- has been uploaded


==== Log checksum 8544B9CFE4D95E23B85ACB223743AFB5FB72E055168EFC59F4B2B2E249B312FD ====


CD17: Street Of Dreams

01 Street Of Dreams (Album Version) (4:24)
02 Anybody There (2:37)
03 Power (Live At The Convention Center, San Antonio, Tx) (4:27)

Exact Audio Copy V1.0 beta 3 from 29. August 2011

EAC extraction logfile from 5. April 2014, 14:21

Rainbow / The Singles Box Set 1975-1986 CD17 - Street Of Dreams

Used drive : ATAPI iHAS124 B Adapter: 1 ID: 0

Read mode : Secure
Utilize accurate stream : Yes
Defeat audio cache : Yes
Make use of C2 pointers : No

Read offset correction : 6
Overread into Lead-In and Lead-Out : No
Fill up missing offset samples with silence : Yes
Delete leading and trailing silent blocks : No
Null samples used in CRC calculations : Yes
Used interface : Installed external ASPI interface

Used output format : User Defined Encoder
Selected bitrate : 128 kBit/s
Quality : High
Add ID3 tag : Yes
Command line compressor : C:\Program Files (x86)\Exact Audio Copy\Flac\flac.exe
Additional command line options : -V -8 %source%


TOC of the extracted CD

Track | Start | Length | Start sector | End sector
––––––––––––––––––––––––––––-
1 | 0:00.00 | 4:28.34 | 0 | 20133
2 | 4:28.34 | 2:40.33 | 20134 | 32166
3 | 7:08.67 | 4:35.05 | 32167 | 52796


Range status and errors

Selected range

Filename G:\CD\Rainbow - The Singles Box Set 1975-1986 CD17.wav

Peak level 96.6 %
Extraction speed 6.0 X
Range quality 100.0 %
Test CRC 2676A248
Copy CRC 2676A248
Copy OK

No errors occurred


AccurateRip summary

Track 1 accurately ripped (confidence 1) [4F3A5CC2] (AR v2)
Track 2 accurately ripped (confidence 1) [A1004B59] (AR v2)
Track 3 accurately ripped (confidence 1) [A6D91927] (AR v2)

All tracks accurately ripped

End of status report

–– CUETools DB Plugin V2.1.3

[CTDB TOCID: 4I.DgI2fDMG.Gu.XTYaMzhzG9w0-] found, Submit result: 4I.DgI2fDMG.Gu.XTYaMzhzG9w0- has been confirmed
[87daf44f] (1/1) Accurately ripped


==== Log checksum B2FBD484EFA8A312A9F9F773AC49516181B632607D1EEAFC08CE21B076DBF266 ====


CD18: Can't Let You Go

01 Can't Let You Go (7" Edit) (3:27)
02 All Night Long (Live at David's Hall, Cardiff/1983) (5:24)
03 Stranded (Live at St. David's Hall,Cardiff/1983) (4:16)

Exact Audio Copy V1.0 beta 3 from 29. August 2011

EAC extraction logfile from 5. April 2014, 14:33

Rainbow / The Singles Box Set 1975-1986 CD18 - Can't Let You Go

Used drive : ATAPI iHAS124 B Adapter: 1 ID: 0

Read mode : Secure
Utilize accurate stream : Yes
Defeat audio cache : Yes
Make use of C2 pointers : No

Read offset correction : 6
Overread into Lead-In and Lead-Out : No
Fill up missing offset samples with silence : Yes
Delete leading and trailing silent blocks : No
Null samples used in CRC calculations : Yes
Used interface : Installed external ASPI interface

Used output format : User Defined Encoder
Selected bitrate : 128 kBit/s
Quality : High
Add ID3 tag : Yes
Command line compressor : C:\Program Files (x86)\Exact Audio Copy\Flac\flac.exe
Additional command line options : -V -8 %source%


TOC of the extracted CD

Track | Start | Length | Start sector | End sector
––––––––––––––––––––––––––––-
1 | 0:00.00 | 3:27.66 | 0 | 15590
2 | 3:27.66 | 5:26.10 | 15591 | 40050
3 | 8:54.01 | 4:19.04 | 40051 | 59479


Range status and errors

Selected range

Filename G:\CD\Rainbow - The Singles Box Set 1975-1986 CD18.wav

Peak level 96.6 %
Extraction speed 6.1 X
Range quality 100.0 %
Test CRC 224F395D
Copy CRC 224F395D
Copy OK

No errors occurred


AccurateRip summary

Track 1 accurately ripped (confidence 1) [1860FB14] (AR v2)
Track 2 accurately ripped (confidence 1) [C44E8475] (AR v2)
Track 3 accurately ripped (confidence 1) [B4936581] (AR v2)

All tracks accurately ripped

End of status report

–– CUETools DB Plugin V2.1.3

[CTDB TOCID: bUeRJy_52aJT97_QpDQB6mRpEhY-] found, Submit result: bUeRJy_52aJT97_QpDQB6mRpEhY- has been confirmed
[ed3e6af9] (1/1) Accurately ripped


==== Log checksum 6E59F62055F30D90AE1C7C7AC1D884A460B18A79B9D15F22C6C3486AA383CFA0 ====


CD19: Bad Girl

01 Bad Girl (4:48)
02 Spotlight Kid (Live At The Tokyo Budokan/1984) (6:07)
03 Man On The Silver Mountain (8:18)

Exact Audio Copy V1.0 beta 3 from 29. August 2011

EAC extraction logfile from 5. April 2014, 15:32

Rainbow / The Singles Box Set 1975-1986 CD19 - Bad Girl

Used drive : ATAPI iHAS124 B Adapter: 1 ID: 0

Read mode : Secure
Utilize accurate stream : Yes
Defeat audio cache : Yes
Make use of C2 pointers : No

Read offset correction : 6
Overread into Lead-In and Lead-Out : No
Fill up missing offset samples with silence : Yes
Delete leading and trailing silent blocks : No
Null samples used in CRC calculations : Yes
Used interface : Installed external ASPI interface

Used output format : User Defined Encoder
Selected bitrate : 128 kBit/s
Quality : High
Add ID3 tag : Yes
Command line compressor : C:\Program Files (x86)\Exact Audio Copy\Flac\flac.exe
Additional command line options : -V -8 %source%


TOC of the extracted CD

Track | Start | Length | Start sector | End sector
––––––––––––––––––––––––––––-
1 | 0:00.00 | 4:52.49 | 0 | 21948
2 | 4:52.49 | 6:01.59 | 21949 | 49082
3 | 10:54.33 | 8:16.60 | 49083 | 86342


Range status and errors

Selected range

Filename G:\CD\Rainbow - The Singles Box Set 1975-1986 CD19.wav

Peak level 96.6 %
Extraction speed 6.5 X
Range quality 100.0 %
Test CRC 1BE78AAF
Copy CRC 1BE78AAF
Copy OK

No errors occurred


AccurateRip summary

Track 1 accurately ripped (confidence 1) [74101C9F] (AR v1)
Track 2 accurately ripped (confidence 1) [4CDFB3CA] (AR v1)
Track 3 accurately ripped (confidence 1) [F4434835] (AR v1)

All tracks accurately ripped

End of status report

–– CUETools DB Plugin V2.1.3

[CTDB TOCID: 3Xma4Dy4e65kjSr862B.XhkdSNE-] disk not present in database, Submit result: 3Xma4Dy4e65kjSr862B.XhkdSNE- has been uploaded


==== Log checksum 3960E2A4D57BB94DBE0C389E1DB0EFFF2561B891CD64827BFA4259A2D1EB93B2 ====


Rainbow - The Singles Box Set 1975-1986 (2014)

All thanks go to the original releaser