Subcategories

Randy Edelman & VA - Surviving Christmas: Original Motion Picture Soundtrack (2004)

Posted By: Efgrapha
Randy Edelman & VA - Surviving Christmas: Original Motion Picture Soundtrack (2004)

Randy Edelman & VA - Surviving Christmas: Original Motion Picture Soundtrack (2004)
EAC | FLAC (Tracks) + cue.+log ~ 275 Mb | Mp3, CBR320 kbps ~ 138 Mb | Scans included | 00:38:06
Soundtrack, Score, Christmas, Vocal Jazz, Pop | Label: Varèse Sarabande | # VSD-6620

Varèse Sarabande presents "Surviving Christmas", music from the film featuring Randy Edelman's score mixed with several songs from the past Holiday seasons…a list of some talented people Chet Atkins, Bing Crosby, Jose Feliciano, Judy Garland, Lou Rawls and Andy Williams.

A different sounding Holiday favorite is "HAPPY HOLIDAY", featuring Bing Crosby and a Beef Wellington remix, nothing is safe from today's energetic society during the shopping spree of the Holidays…but the highlights of this album is film composer Randy Edelman…the cues are simply from the Henry Mancini treasures of composing and arranging…"KISSED BY A SNOWFLAKE", can vision Hank Mancini sitting at the piano and a nearby serene fireplace beaming its warmth…wonderful orchestrations by Ralph Ferraro & Stuart Balcomb performed by The Hollywood Studio Symphony at the Newman Scoring Stage [20th Century Fox], performances of long ago when we were young and the world was less complicated…just the way we like it!

J. Lovins

Randy Edelman & VA - Surviving Christmas: Original Motion Picture Soundtrack (2004)

Randy Edelman & VA - Surviving Christmas: Original Motion Picture Soundtrack (2004)


~ Randy Edelman at Allmusic
~ Randy Edelman Website
~ Randy Edelman at Wiki

~ Film at IMDB
~ Film at Wiki

Tracklist:

01. Andy Williams - The Most Wonderful Time of The Year (2:18)
02. Chet Atkins - Jingle Bell Rock (1:44)
03. Lou Rawls - Santa Claus Is Comin' To Town (2:56)
04. Jose Feliciano - Feliz Navidad (3:07)
05. Judy Garland - Have Yourself A Merry Little Christmas (2:47)
06. Bing Crosby - Happy Holidays (Beef Wellington Remix) (3:19)
07. Randy Edelman - Kissed By A Snowflake (2:29)
08. Randy Edelman - House Arrival (0:58)
09. Randy Edelman - Airport Madness (1:47)
10. Randy Edelman - Telling A Story (1:26)
11. Randy Edelman - Salami And Bagels (1:03)
12. Randy Edelman - Pop The Old Head (1:14)
13. Randy Edelman - By The Fireside (1:19)
14. Randy Edelman - Shopping Spree (0:48)
15. Randy Edelman - Ice Storm (1:05)
16. Randy Edelman - Loving You All Over (1:41)
17. Randy Edelman - Two-Fifty Large (0:49)
18. Randy Edelman - Toboggans And Helicopters (1:11)
19. Randy Edelman - I Like It (1:13)
20. Randy Edelman - A New Phone System (1:41)
21. Randy Edelman - Smelling Fear (1:02)
22. Randy Edelman - Christmas Pageant (2:11)


Exact Audio Copy V1.0 beta 3 from 29. August 2011

EAC extraction logfile from 21. April 2012, 23:33

Randy Edelman / Surviving Christmas

Used drive : PLEXTOR CD-R PX-230A Adapter: 1 ID: 0

Read mode : Secure
Utilize accurate stream : Yes
Defeat audio cache : Yes
Make use of C2 pointers : No

Read offset correction : 738
Overread into Lead-In and Lead-Out : No
Fill up missing offset samples with silence : Yes
Delete leading and trailing silent blocks : No
Null samples used in CRC calculations : Yes
Used interface : Native Win32 interface for Win NT & 2000
Gap handling : Appended to previous track

Used output format : User Defined Encoder
Selected bitrate : 896 kBit/s
Quality : High
Add ID3 tag : No
Command line compressor : C:\Program Files\Exact Audio Copy\FLAC\FLAC.EXE
Additional command line options : -6 -V -T "ARTIST=%artist%" -T "TITLE=%title%" -T "ALBUM=%albumtitle%" -T "DATE=%year%" -T "TRACKNUMBER=%tracknr%" -T "GENRE=%genre%" -T "COMMENT=%comment%" -T "ALBUMARTIST=%albuminterpret%" -T "COMPOSER=%composer%" -T "DISCNUMBER=%cdnumber%" -T "TOTALDISCS=%totalcds%" -T "TOTALTRACKS=%numtracks%" %source% -o %dest%


TOC of the extracted CD

Track | Start | Length | Start sector | End sector
––––––––––––––––––––––––––––-
1 | 0:00.00 | 2:17.65 | 0 | 10339
2 | 2:17.65 | 1:44.35 | 10340 | 18174
3 | 4:02.25 | 2:55.62 | 18175 | 31361
4 | 6:58.12 | 3:06.38 | 31362 | 45349
5 | 10:04.50 | 2:46.72 | 45350 | 57871
6 | 12:51.47 | 3:18.50 | 57872 | 72771
7 | 16:10.22 | 2:28.55 | 72772 | 83926
8 | 18:39.02 | 0:58.00 | 83927 | 88276
9 | 19:37.02 | 1:46.58 | 88277 | 96284
10 | 21:23.60 | 1:25.62 | 96285 | 102721
11 | 22:49.47 | 1:02.63 | 102722 | 107434
12 | 23:52.35 | 1:14.27 | 107435 | 113011
13 | 25:06.62 | 1:18.68 | 113012 | 118929
14 | 26:25.55 | 0:47.72 | 118930 | 122526
15 | 27:13.52 | 1:05.03 | 122527 | 127404
16 | 28:18.55 | 1:40.50 | 127405 | 134954
17 | 29:59.30 | 0:48.57 | 134955 | 138611
18 | 30:48.12 | 1:11.20 | 138612 | 143956
19 | 31:59.32 | 1:12.50 | 143957 | 149406
20 | 33:12.07 | 1:40.53 | 149407 | 156959
21 | 34:52.60 | 1:02.02 | 156960 | 161611
22 | 35:54.62 | 2:11.08 | 161612 | 171444


Track 1

Filename C:\Music\01 - Andy Williams - The Most Wonderful Time of The Year.wav

Pre-gap length 0:00:02.00

Peak level 98.8 %
Extraction speed 3.5 X
Track quality 100.0 %
Test CRC C61EEC51
Copy CRC C61EEC51
Track not present in AccurateRip database
Copy OK

Track 2

Filename C:\Music\02 - Chet Atkins - Jingle Bell Rock.wav

Pre-gap length 0:00:01.15

Peak level 98.8 %
Extraction speed 4.8 X
Track quality 100.0 %
Test CRC 63FF857C
Copy CRC 63FF857C
Track not present in AccurateRip database
Copy OK

Track 3

Filename C:\Music\03 - Lou Rawls - Santa Claus Is Comin' To Town.wav

Pre-gap length 0:00:01.28

Peak level 98.8 %
Extraction speed 4.5 X
Track quality 100.0 %
Test CRC D6AD797E
Copy CRC D6AD797E
Track not present in AccurateRip database
Copy OK

Track 4

Filename C:\Music\04 - Jose Feliciano - Feliz Navidad.wav

Pre-gap length 0:00:01.37

Peak level 98.8 %
Extraction speed 4.5 X
Track quality 100.0 %
Test CRC 4B55B537
Copy CRC 4B55B537
Track not present in AccurateRip database
Copy OK

Track 5

Filename C:\Music\05 - Judy Garland - Have Yourself A Merry Little Christmas.wav

Pre-gap length 0:00:02.10

Peak level 98.8 %
Extraction speed 4.2 X
Track quality 99.9 %
Test CRC 38A44E56
Copy CRC 38A44E56
Track not present in AccurateRip database
Copy OK

Track 6

Filename C:\Music\06 - Bing Crosby - Happy Holidays (Beef Wellington Remix).wav

Pre-gap length 0:00:03.47

Peak level 84.0 %
Extraction speed 4.1 X
Track quality 100.0 %
Test CRC 670A2AEE
Copy CRC 670A2AEE
Track not present in AccurateRip database
Copy OK

Track 7

Filename C:\Music\07 - Randy Edelman - Kissed By A Snowflake.wav

Pre-gap length 0:00:03.05

Peak level 98.8 %
Extraction speed 4.4 X
Track quality 99.9 %
Test CRC 6F4ABC81
Copy CRC 6F4ABC81
Track not present in AccurateRip database
Copy OK

Track 8

Filename C:\Music\08 - Randy Edelman - House Arrival.wav

Pre-gap length 0:00:02.07

Peak level 98.8 %
Extraction speed 3.7 X
Track quality 100.0 %
Test CRC 0440C266
Copy CRC 0440C266
Track not present in AccurateRip database
Copy OK

Track 9

Filename C:\Music\09 - Randy Edelman - Airport Madness.wav

Pre-gap length 0:00:02.25

Peak level 98.8 %
Extraction speed 3.7 X
Track quality 100.0 %
Test CRC 97F69CD8
Copy CRC 97F69CD8
Track not present in AccurateRip database
Copy OK

Track 10

Filename C:\Music\10 - Randy Edelman - Telling A Story.wav

Pre-gap length 0:00:02.65

Peak level 71.4 %
Extraction speed 3.3 X
Track quality 100.0 %
Test CRC 68BCF1C8
Copy CRC 68BCF1C8
Track not present in AccurateRip database
Copy OK

Track 11

Filename C:\Music\11 - Randy Edelman - Salami And Bagels.wav

Pre-gap length 0:00:01.65

Peak level 93.6 %
Extraction speed 4.1 X
Track quality 100.0 %
Test CRC 83764DCD
Copy CRC 83764DCD
Track not present in AccurateRip database
Copy OK

Track 12

Filename C:\Music\12 - Randy Edelman - Pop The Old Head.wav

Peak level 98.8 %
Extraction speed 3.4 X
Track quality 99.8 %
Test CRC 11A655A8
Copy CRC 11A655A8
Track not present in AccurateRip database
Copy OK

Track 13

Filename C:\Music\13 - Randy Edelman - By The Fireside.wav

Pre-gap length 0:00:02.42

Peak level 98.8 %
Extraction speed 4.3 X
Track quality 100.0 %
Test CRC D48DD65C
Copy CRC D48DD65C
Track not present in AccurateRip database
Copy OK

Track 14

Filename C:\Music\14 - Randy Edelman - Shopping Spree.wav

Pre-gap length 0:00:02.43

Peak level 98.8 %
Extraction speed 3.0 X
Track quality 100.0 %
Test CRC BAD21998
Copy CRC BAD21998
Track not present in AccurateRip database
Copy OK

Track 15

Filename C:\Music\15 - Randy Edelman - Ice Storm.wav

Pre-gap length 0:00:02.07

Peak level 98.8 %
Extraction speed 2.7 X
Track quality 99.8 %
Test CRC 33B8F5DA
Copy CRC 33B8F5DA
Track not present in AccurateRip database
Copy OK

Track 16

Filename C:\Music\16 - Randy Edelman - Loving You All Over.wav

Pre-gap length 0:00:01.53

Peak level 95.8 %
Extraction speed 4.7 X
Track quality 100.0 %
Test CRC B582A3CF
Copy CRC B582A3CF
Track not present in AccurateRip database
Copy OK

Track 17

Filename C:\Music\17 - Randy Edelman - Two-Fifty Large.wav

Pre-gap length 0:00:02.60

Peak level 98.8 %
Extraction speed 2.7 X
Track quality 99.7 %
Test CRC A513916E
Copy CRC A513916E
Track not present in AccurateRip database
Copy OK

Track 18

Filename C:\Music\18 - Randy Edelman - Toboggans And Helicopters.wav

Pre-gap length 0:00:02.37

Peak level 98.8 %
Extraction speed 3.0 X
Track quality 100.0 %
Test CRC 51781DEA
Copy CRC 51781DEA
Track not present in AccurateRip database
Copy OK

Track 19

Filename C:\Music\19 - Randy Edelman - I Like It.wav

Peak level 98.8 %
Extraction speed 4.6 X
Track quality 100.0 %
Test CRC 4CB77580
Copy CRC 4CB77580
Track not present in AccurateRip database
Copy OK

Track 20

Filename C:\Music\20 - Randy Edelman - A New Phone System.wav

Pre-gap length 0:00:01.55

Peak level 98.8 %
Extraction speed 4.2 X
Track quality 100.0 %
Test CRC DA6BD04F
Copy CRC DA6BD04F
Track not present in AccurateRip database
Copy OK

Track 21

Filename C:\Music\21 - Randy Edelman - Smelling Fear.wav

Pre-gap length 0:00:01.20

Peak level 98.8 %
Extraction speed 4.6 X
Track quality 100.0 %
Test CRC C909472D
Copy CRC C909472D
Track not present in AccurateRip database
Copy OK

Track 22

Filename C:\Music\22 - Randy Edelman - Christmas Pageant.wav

Pre-gap length 0:00:01.55

Peak level 98.8 %
Extraction speed 3.5 X
Track quality 100.0 %
Test CRC 495F420E
Copy CRC 495F420E
Track not present in AccurateRip database
Copy OK


None of the tracks are present in the AccurateRip database

No errors occurred

End of status report

==== Log checksum 9711A9F45EA74F9BA62CF3EDF5F10E6ACE760F8CDD8E42B354CD31E02E65F2DD ====

[CUETools log; Date: 12.12.2017 19:21:32; Version: 2.1.4]
[CTDB TOCID: UFDZtaBGr.OvKwebwL8PKnRgdxo-] found.
Track | CTDB Status
1 | (2/2) Accurately ripped
2 | (2/2) Accurately ripped
3 | (2/2) Accurately ripped
4 | (2/2) Accurately ripped
5 | (2/2) Accurately ripped
6 | (2/2) Accurately ripped
7 | (2/2) Accurately ripped
8 | (2/2) Accurately ripped
9 | (2/2) Accurately ripped
10 | (2/2) Accurately ripped
11 | (2/2) Accurately ripped
12 | (2/2) Accurately ripped
13 | (2/2) Accurately ripped
14 | (2/2) Accurately ripped
15 | (2/2) Accurately ripped
16 | (2/2) Accurately ripped
17 | (2/2) Accurately ripped
18 | (2/2) Accurately ripped
19 | (2/2) Accurately ripped
20 | (2/2) Accurately ripped
21 | (2/2) Accurately ripped
22 | (2/2) Accurately ripped
[AccurateRip ID: 0022621b-020daa23-2108ed16] found.
Track [ CRC | V2 ] Status
01 [57221219|f1bccb2e] (0+3/3) Accurately ripped
02 [1a31c878|5358d579] (0+3/3) Accurately ripped
03 [216165f9|88003e08] (0+2/2) Accurately ripped
04 [ff8dc871|328ec22a] (0+2/2) Accurately ripped
05 [f08c776e|3b3e62e5] (0+2/2) Accurately ripped
06 [dd60c418|f33341eb] (0+2/2) Accurately ripped
07 [c760f41b|5761e621] (0+2/2) Accurately ripped
08 [a7c40594|80597fca] (0+2/2) Accurately ripped
09 [0a0a7f17|0c5ec04c] (0+2/2) Accurately ripped
10 [dc2ad2ec|28e5f334] (0+2/2) Accurately ripped
11 [a64c73c3|a0076a28] (0+2/2) Accurately ripped
12 [b2e04a4b|a4e369ef] (0+2/2) Accurately ripped
13 [baa0901b|2ee43378] (0+2/2) Accurately ripped
14 [3827ac7a|02ae52ee] (0+2/2) Accurately ripped
15 [82c6d900|b8d9f254] (0+2/2) Accurately ripped
16 [e9f5a6fd|70164072] (0+2/2) Accurately ripped
17 [ffd73a94|7b101efa] (0+2/2) Accurately ripped
18 [bd4f5bf6|1ab59cb4] (0+2/2) Accurately ripped
19 [03ff980b|c7a68b49] (0+2/2) Accurately ripped
20 [9662c3ad|9ad0f882] (0+2/2) Accurately ripped
21 [cd0a548e|622d7df6] (0+2/2) Accurately ripped
22 [7450972b|b917aa27] (0+2/2) Accurately ripped

Track Peak [ CRC32 ] [W/O NULL] [ LOG ]
– 98,8 [8F49AB9D] [69307F85]
01 98,8 [C61EEC51] [46176793] CRC32
02 98,8 [63FF857C] [2992810B] CRC32
03 98,8 [D6AD797E] [5B4BA698] CRC32
04 98,8 [4B55B537] [D525E1BF] CRC32
05 98,8 [38A44E56] [86452E93] CRC32
06 84,0 [670A2AEE] [AD1B7C4D] CRC32
07 98,8 [6F4ABC81] [03C32E15] CRC32
08 98,8 [0440C266] [82D707F2] CRC32
09 98,8 [97F69CD8] [22647126] CRC32
10 71,4 [68BCF1C8] [3DDC635A] CRC32
11 93,6 [83764DCD] [192B46D7] CRC32
12 98,8 [11A655A8] [25D9D0E5] CRC32
13 98,8 [D48DD65C] [036ECDB6] CRC32
14 98,8 [BAD21998] [770B7374] CRC32
15 98,8 [33B8F5DA] [E4C19086] CRC32
16 95,8 [B582A3CF] [74E34B5A] CRC32
17 98,8 [A513916E] [B195F762] CRC32
18 98,8 [51781DEA] [A6C3D3C1] CRC32
19 98,8 [4CB77580] [D0F97683] CRC32
20 98,8 [DA6BD04F] [6CFC63AA] CRC32
21 98,8 [C909472D] [F88844F2] CRC32
22 98,8 [495F420E] [110FB5CE] CRC32

foobar2000 1.2 / Dynamic Range Meter 1.1.1
log date: 2017-12-12 19:23:35

––––––––––––––––––––––––––––––––––––––––
Analyzed: Andy Williams / Surviving Christmas (1)
Bing Crosby / Surviving Christmas (2)
Chet Atkins / Surviving Christmas (3)
Jose Feliciano / Surviving Christmas (4)
Judy Garland / Surviving Christmas (5)
Lou Rawls / Surviving Christmas (6)
Randy Edelman / Surviving Christmas (7-22)
––––––––––––––––––––––––––––––––––––––––

DR Peak RMS Duration Track
––––––––––––––––––––––––––––––––––––––––
DR9 -0.10 dB -10.25 dB 2:18 01-The Most Wonderful Time of The Year
DR7 -1.51 dB -10.34 dB 3:19 06-Happy Holidays (Beef Wellington Remix)
DR11 -0.10 dB -11.86 dB 1:44 02-Jingle Bell Rock
DR11 -0.10 dB -12.24 dB 3:07 04-Feliz Navidad
DR9 -0.10 dB -11.50 dB 2:47 05-Have Yourself A Merry Little Christmas
DR9 -0.10 dB -11.44 dB 2:56 03-Santa Claus Is Comin' To Town
DR11 -0.10 dB -13.61 dB 2:29 07-Kissed By A Snowflake
DR9 -0.10 dB -14.11 dB 0:58 08-House Arrival
DR11 -0.10 dB -14.17 dB 1:47 09-Airport Madness
DR11 -2.92 dB -18.92 dB 1:26 10-Telling A Story
DR12 -0.57 dB -15.19 dB 1:03 11-Salami And Bagels
DR12 -0.10 dB -15.38 dB 1:14 12-Pop The Old Head
DR8 -0.10 dB -10.96 dB 1:19 13-By The Fireside
DR15 -0.10 dB -16.36 dB 0:48 14-Shopping Spree
DR10 -0.10 dB -14.14 dB 1:05 15-Ice Storm
DR13 -0.37 dB -16.82 dB 1:41 16-Loving You All Over
DR14 -0.10 dB -16.86 dB 0:49 17-Two-Fifty Large
DR7 -0.10 dB -11.11 dB 1:11 18-Toboggans And Helicopters
DR9 -0.10 dB -12.66 dB 1:13 19-I Like It
DR11 -0.10 dB -14.16 dB 1:41 20-A New Phone System
DR13 -0.10 dB -16.98 dB 1:02 21-Smelling Fear
DR11 -0.10 dB -15.65 dB 2:11 22-Christmas Pageant
––––––––––––––––––––––––––––––––––––––––

Number of tracks: 22
Official DR value: DR11

Samplerate: 44100 Hz
Channels: 2
Bits per sample: 16
Bitrate: 788 kbps
Codec: FLAC
================================================================================

Randy Edelman & VA - Surviving Christmas: Original Motion Picture Soundtrack (2004)

Randy Edelman & VA - Surviving Christmas: Original Motion Picture Soundtrack (2004)