Tags
Language
Tags

Randy Newman - Ragtime: Music From The Motion Picture (1981) Expanded Remastered 2002 [Re-Up]

Posted By:
Randy Newman - Ragtime: Music From The Motion Picture (1981) Expanded Remastered 2002 [Re-Up]

Randy Newman - Ragtime: Music From The Motion Picture (1981) Expanded Remastered 2002
EAC | FLAC | Tracks (Cue&Log) ~ 159 Mb | Mp3 (CBR320) ~ 84 Mb | Scans ~ 64 Mb
Soundtrack | Label: Elektra, Rhino | # 8122-78245-2 | Time: 00:37:01

Randy Newman was the nephew of film composers Alfred, Emil, and Lionel Newman, which would suggest at least some familiarity with the field, even though he had only scored one minor movie (Cold Turkey). And in his songs, heard on his series of solo albums, he displayed far more knowledge of popular music styles of the early 20th century than any of his singer/songwriter peers. Listening to his records, you could always tell that he knew his way around Scott Joplin's rags. Who better, therefore, than Newman to make his debut as a big-budget film composer by scoring an adaptation of E.L. Doctorow's novel Ragtime? So must movie producer Dino DeLaurentiis have reasoned in giving Newman the assignment. And the result worked out quite well. Newman naturally re-created much of the cakewalking Tin Pan Alley style of the turn-of-the-century era depicted in the film, but he actually had a more challenging assignment than might have appeared, since the story moves from one social stratum to another and ranges in tone from the comic to the melodramatic to the tragic. Especially impressive is the three-part "Dénouement," which brings the plot strands together. On this soundtrack album, billed as "music from the motion picture plus additional music," one gets to hear several vocal numbers in addition to the instrumental cues. A period song, "I Could Love a Million Girls," sung by Donald O'Connor, gives a sense of frivolity; "One More Hour," sung by Jennifer Warnes and, like the score, nominated for an Oscar, has a drawing-room formality; and Newman himself is heard singing "Change Your Way" (which was not in the film), the sort of song that would be at home on any of his solo albums. The 2002 reissue adds Newman's demo of the "Ragtime Theme."

Review by William Ruhlmann, Allmusic.com

Randy Newman - Ragtime: Music From The Motion Picture (1981) Expanded Remastered 2002 [Re-Up]



Tracklist:

01. Main Title (1:29)
02. Newsreel (1:32)
03. I Could Love a Million Girls (2:02)
04. Train Ride (1:53)
05. Tateh's Picture Book (1:41)
06. Lower East Side (1:09)
07. Delmonico Polka (1:03)
08. Coalhouse and Sarah (1:36)
09. Waltz for Evelyn (1:06)
10. One More Hour (2:48)
11. Sarah's Responsibility (0:54)
12. Change Your Way (2:01)
13. Clef Club No. 1 (1:43)
14. Atlantic City (2:14)
15. Clef Club No. 2 (1:22)
16. Sarah's Funeral (1:14)
17. Denouement (5:43)
18. Ragtime (2:54)
19. Ragtime Theme (2:38)


Exact Audio Copy V1.3 from 2. September 2016

EAC extraction logfile from 20. December 2018, 0:04

Randy Newman / Ragtime

Used drive : ASUS BW-12D1S-U Adapter: 1 ID: 1

Read mode : Secure
Utilize accurate stream : Yes
Defeat audio cache : Yes
Make use of C2 pointers : No

Read offset correction : 667
Overread into Lead-In and Lead-Out : No
Fill up missing offset samples with silence : Yes
Delete leading and trailing silent blocks : No
Null samples used in CRC calculations : Yes
Used interface : Native Win32 interface for Win NT & 2000
Gap handling : Appended to previous track

Used output format : User Defined Encoder
Selected bitrate : 1024 kBit/s
Quality : High
Add ID3 tag : No
Command line compressor : C:\Program Files (x86)\Exact Audio Copy\FLAC\FLAC.EXE
Additional command line options : -V -8 -T "Genre=%genre%" -T "Artist=%artist%" -T "Title=%title%" -T "Album=%albumtitle%" -T "Date=%year%" -T "Tracknumber=%tracknr%" -T "Comment=%comment%" %source%


TOC of the extracted CD

Track | Start | Length | Start sector | End sector
––––––––––––––––––––––––––––-
1 | 0:00.00 | 1:28.50 | 0 | 6649
2 | 1:28.50 | 1:31.72 | 6650 | 13546
3 | 3:00.47 | 2:01.50 | 13547 | 22671
4 | 5:02.22 | 1:52.50 | 22672 | 31121
5 | 6:54.72 | 1:40.73 | 31122 | 38694
6 | 8:35.70 | 1:09.05 | 38695 | 43874
7 | 9:45.00 | 1:03.30 | 43875 | 48629
8 | 10:48.30 | 1:35.45 | 48630 | 55799
9 | 12:24.00 | 1:06.22 | 55800 | 60771
10 | 13:30.22 | 2:47.58 | 60772 | 73354
11 | 16:18.05 | 0:54.00 | 73355 | 77404
12 | 17:12.05 | 2:01.15 | 77405 | 86494
13 | 19:13.20 | 1:42.65 | 86495 | 94209
14 | 20:56.10 | 2:14.32 | 94210 | 104291
15 | 23:10.42 | 1:21.40 | 104292 | 110406
16 | 24:32.07 | 1:13.50 | 110407 | 115931
17 | 25:45.57 | 5:43.03 | 115932 | 141659
18 | 31:28.60 | 2:53.72 | 141660 | 154706
19 | 34:22.57 | 2:38.03 | 154707 | 166559


Track 1

Filename E:\Torrents of Autumn\Newman, Randy [1981] Ragtime~ Music from the Motion Picture (2002 Remastered & Expanded Edition)\01. Main Title.wav

Pre-gap length 0:00:02.00

Peak level 52.7 %
Extraction speed 3.4 X
Track quality 100.0 %
Test CRC 9BA690CB
Copy CRC 9BA690CB
Accurately ripped (confidence 8) [31E5603A] (AR v2)
Copy OK

Track 2

Filename E:\Torrents of Autumn\Newman, Randy [1981] Ragtime~ Music from the Motion Picture (2002 Remastered & Expanded Edition)\02. Newsreel.wav

Peak level 53.5 %
Extraction speed 2.9 X
Track quality 99.8 %
Test CRC 96CEF332
Copy CRC 96CEF332
Accurately ripped (confidence 8) [C1F2F5E4] (AR v2)
Copy OK

Track 3

Filename E:\Torrents of Autumn\Newman, Randy [1981] Ragtime~ Music from the Motion Picture (2002 Remastered & Expanded Edition)\03. I Could Love a Million Girls.wav

Peak level 72.2 %
Extraction speed 4.1 X
Track quality 100.0 %
Test CRC 17B4910A
Copy CRC 17B4910A
Accurately ripped (confidence 8) [2096ECF8] (AR v2)
Copy OK

Track 4

Filename E:\Torrents of Autumn\Newman, Randy [1981] Ragtime~ Music from the Motion Picture (2002 Remastered & Expanded Edition)\04. Train Ride.wav

Peak level 70.0 %
Extraction speed 4.2 X
Track quality 100.0 %
Test CRC 62DE1A7A
Copy CRC 62DE1A7A
Accurately ripped (confidence 8) [DAA1B7AB] (AR v2)
Copy OK

Track 5

Filename E:\Torrents of Autumn\Newman, Randy [1981] Ragtime~ Music from the Motion Picture (2002 Remastered & Expanded Edition)\05. Tateh's Picture Book.wav

Peak level 11.7 %
Extraction speed 4.2 X
Track quality 100.0 %
Test CRC B9002151
Copy CRC B9002151
Accurately ripped (confidence 8) [BA69E0C3] (AR v2)
Copy OK

Track 6

Filename E:\Torrents of Autumn\Newman, Randy [1981] Ragtime~ Music from the Motion Picture (2002 Remastered & Expanded Edition)\06. Lower East Side.wav

Peak level 88.0 %
Extraction speed 2.9 X
Track quality 99.8 %
Test CRC 66C1273A
Copy CRC 66C1273A
Accurately ripped (confidence 8) [E1DFDA3F] (AR v2)
Copy OK

Track 7

Filename E:\Torrents of Autumn\Newman, Randy [1981] Ragtime~ Music from the Motion Picture (2002 Remastered & Expanded Edition)\07. Delmonico Polka.wav

Peak level 80.8 %
Extraction speed 2.8 X
Track quality 99.8 %
Test CRC 2FA6E6C6
Copy CRC 2FA6E6C6
Accurately ripped (confidence 8) [10AD9CE0] (AR v2)
Copy OK

Track 8

Filename E:\Torrents of Autumn\Newman, Randy [1981] Ragtime~ Music from the Motion Picture (2002 Remastered & Expanded Edition)\08. Coalhouse and Sarah.wav

Pre-gap length 0:00:01.10

Peak level 33.0 %
Extraction speed 3.5 X
Track quality 99.8 %
Test CRC D54ED6B0
Copy CRC D54ED6B0
Accurately ripped (confidence 8) [0345012E] (AR v2)
Copy OK

Track 9

Filename E:\Torrents of Autumn\Newman, Randy [1981] Ragtime~ Music from the Motion Picture (2002 Remastered & Expanded Edition)\09. Waltz for Evelyn.wav

Peak level 55.4 %
Extraction speed 4.1 X
Track quality 100.0 %
Test CRC 822BF854
Copy CRC 822BF854
Accurately ripped (confidence 8) [CC5F825D] (AR v2)
Copy OK

Track 10

Filename E:\Torrents of Autumn\Newman, Randy [1981] Ragtime~ Music from the Motion Picture (2002 Remastered & Expanded Edition)\10. One More Hour.wav

Peak level 65.2 %
Extraction speed 5.3 X
Track quality 100.0 %
Test CRC 46A8CF0B
Copy CRC 46A8CF0B
Accurately ripped (confidence 8) [8DC4D97E] (AR v2)
Copy OK

Track 11

Filename E:\Torrents of Autumn\Newman, Randy [1981] Ragtime~ Music from the Motion Picture (2002 Remastered & Expanded Edition)\11. Sarah's Responsibility.wav

Peak level 59.0 %
Extraction speed 3.9 X
Track quality 100.0 %
Test CRC F49C053A
Copy CRC F49C053A
Accurately ripped (confidence 8) [07302951] (AR v2)
Copy OK

Track 12

Filename E:\Torrents of Autumn\Newman, Randy [1981] Ragtime~ Music from the Motion Picture (2002 Remastered & Expanded Edition)\12. Change Your Way.wav

Peak level 64.3 %
Extraction speed 5.1 X
Track quality 100.0 %
Test CRC 828A51FC
Copy CRC 828A51FC
Accurately ripped (confidence 8) [A8737CB0] (AR v2)
Copy OK

Track 13

Filename E:\Torrents of Autumn\Newman, Randy [1981] Ragtime~ Music from the Motion Picture (2002 Remastered & Expanded Edition)\13. Clef Club No. 1.wav

Peak level 83.1 %
Extraction speed 5.0 X
Track quality 100.0 %
Test CRC 8B45680E
Copy CRC 8B45680E
Accurately ripped (confidence 8) [066DD648] (AR v2)
Copy OK

Track 14

Filename E:\Torrents of Autumn\Newman, Randy [1981] Ragtime~ Music from the Motion Picture (2002 Remastered & Expanded Edition)\14. Atlantic City.wav

Peak level 80.4 %
Extraction speed 4.5 X
Track quality 99.9 %
Test CRC FB87E6CF
Copy CRC FB87E6CF
Accurately ripped (confidence 8) [83DBEE80] (AR v2)
Copy OK

Track 15

Filename E:\Torrents of Autumn\Newman, Randy [1981] Ragtime~ Music from the Motion Picture (2002 Remastered & Expanded Edition)\15. Clef Club No. 2.wav

Peak level 89.1 %
Extraction speed 5.0 X
Track quality 100.0 %
Test CRC C0BFAED9
Copy CRC C0BFAED9
Accurately ripped (confidence 8) [FDED1885] (AR v2)
Copy OK

Track 16

Filename E:\Torrents of Autumn\Newman, Randy [1981] Ragtime~ Music from the Motion Picture (2002 Remastered & Expanded Edition)\16. Sarah's Funeral.wav

Pre-gap length 0:00:01.22

Peak level 20.9 %
Extraction speed 3.7 X
Track quality 99.8 %
Test CRC 3274784D
Copy CRC 3274784D
Accurately ripped (confidence 8) [367F9899] (AR v2)
Copy OK

Track 17

Filename E:\Torrents of Autumn\Newman, Randy [1981] Ragtime~ Music from the Motion Picture (2002 Remastered & Expanded Edition)\17. Denouement.wav

Peak level 69.6 %
Extraction speed 6.9 X
Track quality 100.0 %
Test CRC B06A7C7A
Copy CRC B06A7C7A
Accurately ripped (confidence 8) [2EF538ED] (AR v2)
Copy OK

Track 18

Filename E:\Torrents of Autumn\Newman, Randy [1981] Ragtime~ Music from the Motion Picture (2002 Remastered & Expanded Edition)\18. Ragtime.wav

Pre-gap length 0:00:01.50

Peak level 73.1 %
Extraction speed 5.7 X
Track quality 99.9 %
Test CRC 454F95EC
Copy CRC 454F95EC
Accurately ripped (confidence 8) [C1627B1C] (AR v2)
Copy OK

Track 19

Filename E:\Torrents of Autumn\Newman, Randy [1981] Ragtime~ Music from the Motion Picture (2002 Remastered & Expanded Edition)\19. Ragtime Theme.wav

Pre-gap length 0:00:08.30

Peak level 82.5 %
Extraction speed 5.6 X
Track quality 99.9 %
Test CRC 016BED1A
Copy CRC 016BED1A
Accurately ripped (confidence 7) [241C9876] (AR v2)
Copy OK


All tracks accurately ripped

No errors occurred

End of status report

–– CUETools DB Plugin V2.1.6

[CTDB TOCID: sWZ3K23yDDlg_0aKoQ5xqsMeOi0-] found
Submit result: sWZ3K23yDDlg_0aKoQ5xqsMeOi0- has been confirmed
Track | CTDB Status
1 | (12/13) Accurately ripped
2 | (12/13) Accurately ripped
3 | (12/13) Accurately ripped
4 | (12/13) Accurately ripped
5 | (12/13) Accurately ripped
6 | (12/13) Accurately ripped
7 | (12/13) Accurately ripped
8 | (12/13) Accurately ripped
9 | (12/13) Accurately ripped
10 | (12/13) Accurately ripped
11 | (12/13) Accurately ripped
12 | (12/13) Accurately ripped
13 | (12/13) Accurately ripped
14 | (12/13) Accurately ripped
15 | (12/13) Accurately ripped
16 | (12/13) Accurately ripped
17 | (12/13) Accurately ripped
18 | (12/13) Accurately ripped
19 | (12/13) Accurately ripped


==== Log checksum 09FD407A886BDF1792ED7F7B96E28A12DAD6631FB148BF1310DC9019F486251B ====

[CUETools log; Date: 20.12.2018 18:08:32; Version: 2.1.4]
[CTDB TOCID: sWZ3K23yDDlg_0aKoQ5xqsMeOi0-] found.
Track | CTDB Status
1 | (13/14) Accurately ripped
2 | (13/14) Accurately ripped
3 | (13/14) Accurately ripped
4 | (13/14) Accurately ripped
5 | (13/14) Accurately ripped
6 | (13/14) Accurately ripped
7 | (13/14) Accurately ripped
8 | (13/14) Accurately ripped
9 | (13/14) Accurately ripped
10 | (13/14) Accurately ripped
11 | (13/14) Accurately ripped
12 | (13/14) Accurately ripped
13 | (13/14) Accurately ripped
14 | (13/14) Accurately ripped
15 | (13/14) Accurately ripped
16 | (13/14) Accurately ripped
17 | (13/14) Accurately ripped
18 | (13/14) Accurately ripped
19 | (13/14) Accurately ripped
[AccurateRip ID: 00161382-013af08c-f308ac13] found.
Track [ CRC | V2 ] Status
01 [7e42481d|31e5603a] (0+8/8) Accurately ripped
02 [50f7a1c2|c1f2f5e4] (0+8/8) Accurately ripped
03 [b6deb495|2096ecf8] (0+8/8) Accurately ripped
04 [f289e5ef|daa1b7ab] (0+8/8) Accurately ripped
05 [220e1096|ba69e0c3] (0+8/8) Accurately ripped
06 [5fa8abe3|e1dfda3f] (0+8/8) Accurately ripped
07 [b5bd2d1d|10ad9ce0] (0+8/8) Accurately ripped
08 [f8c30e82|0345012e] (0+8/8) Accurately ripped
09 [e065fd36|cc5f825d] (0+8/8) Accurately ripped
10 [401b373c|8dc4d97e] (0+8/8) Accurately ripped
11 [8f7fd14c|07302951] (0+8/8) Accurately ripped
12 [b44cf6f6|a8737cb0] (0+8/8) Accurately ripped
13 [4980c155|066dd648] (0+8/8) Accurately ripped
14 [3d96eebc|83dbee80] (0+8/8) Accurately ripped
15 [45b23944|fded1885] (0+8/8) Accurately ripped
16 [c19ca9a4|367f9899] (0+8/8) Accurately ripped
17 [aab7ae65|2ef538ed] (0+8/8) Accurately ripped
18 [afaeb89a|c1627b1c] (0+8/8) Accurately ripped
19 [18bb675b|241c9876] (2+7/9) Accurately ripped

Track Peak [ CRC32 ] [W/O NULL] [ LOG ]
– 89,1 [5242CD18] [A3BED782]
01 52,7 [9BA690CB] [1C59054C] CRC32
02 53,5 [96CEF332] [739C877A] CRC32
03 72,2 [17B4910A] [22360657] CRC32
04 70,0 [62DE1A7A] [943F3D8A] CRC32
05 11,7 [B9002151] [73C60762] CRC32
06 87,9 [66C1273A] [191CD7E2] CRC32
07 80,8 [2FA6E6C6] [833701F5] CRC32
08 33,0 [D54ED6B0] [4250F845] CRC32
09 55,4 [822BF854] [CF35BD5A] CRC32
10 65,2 [46A8CF0B] [E1C6CD1B] CRC32
11 59,0 [F49C053A] [4025F29B] CRC32
12 64,3 [828A51FC] [9F7583E6] CRC32
13 83,1 [8B45680E] [2262454C] CRC32
14 80,4 [FB87E6CF] [1F0B4FEF] CRC32
15 89,1 [C0BFAED9] [B5EB057C] CRC32
16 20,9 [3274784D] [8511BD5D] CRC32
17 69,6 [B06A7C7A] [22D423CA] CRC32
18 73,1 [454F95EC] [5F6122DA] CRC32
19 82,5 [016BED1A] [867DD8DE] CRC32

foobar2000 1.2 / Dynamic Range Meter 1.1.1
log date: 2018-12-20 18:09:00

––––––––––––––––––––––––––––––––––––––––
Analyzed: Randy Newman / Ragtime
––––––––––––––––––––––––––––––––––––––––

DR Peak RMS Duration Track
––––––––––––––––––––––––––––––––––––––––
DR12 -5.56 dB -21.97 dB 1:29 01-Main Title
DR16 -5.43 dB -26.52 dB 1:32 02-Newsreel
DR12 -2.83 dB -17.94 dB 2:02 03-I Could Love a Million Girls
DR11 -3.09 dB -19.74 dB 1:53 04-Train Ride
DR10 -18.56 dB -33.24 dB 1:41 05-Tateh's Picture Book
DR11 -1.11 dB -21.15 dB 1:09 06-Lower East Side
DR13 -1.85 dB -16.52 dB 1:03 07-Delmonico Polka
DR11 -9.61 dB -26.56 dB 1:36 08-Coalhouse and Sarah
DR11 -5.12 dB -18.57 dB 1:06 09-Waltz for Evelyn
DR10 -3.71 dB -18.89 dB 2:48 10-One More Hour
DR11 -4.57 dB -21.60 dB 0:54 11-Sarah's Responsibility
DR16 -3.83 dB -24.31 dB 2:01 12-Change Your Way
DR12 -1.60 dB -18.65 dB 1:43 13-Clef Club No. 1
DR12 -1.89 dB -17.21 dB 2:14 14-Atlantic City
DR12 -0.99 dB -15.04 dB 1:22 15-Clef Club No. 2
DR10 -13.56 dB -26.89 dB 1:14 16-Sarah's Funeral
DR12 -3.14 dB -20.71 dB 5:43 17-Denouement
DR12 -2.72 dB -21.17 dB 2:54 18-Ragtime
DR16 -1.67 dB -25.70 dB 2:38 19-Ragtime Theme
––––––––––––––––––––––––––––––––––––––––

Number of tracks: 19
Official DR value: DR12

Samplerate: 44100 Hz
Channels: 2
Bits per sample: 16
Bitrate: 494 kbps
Codec: FLAC
================================================================================

Randy Newman - Ragtime: Music From The Motion Picture (1981) Expanded Remastered 2002 [Re-Up]

Randy Newman - Ragtime: Music From The Motion Picture (1981) Expanded Remastered 2002 [Re-Up]