Subcategories
Tags
Language
Tags

Rare Earth - Earth Tones: The Essential Rare Earth (1994)

Posted By: v3122
Rare Earth - Earth Tones: The Essential Rare Earth (1994)

Rare Earth - Earth Tones: The Essential Rare Earth (1994)
EAC | Flac(Image) + Cue + Log & MP3 CBR 320Kbps
Motown/Polygram, 31453-0357-2 | ~ 536 or 201 Mb | Scans Included
Psychedelic Rock, Psychedelic Soul, Blue-Eyed Soul, R&B, Funky Rock

Clocking in at 75 minutes, this single-CD release is probably as much Rare Earth as most casual fans want (even though it only contains nine songs), and as a mid-priced item it's doubly attractive. Among the highlights included here are the nearly seven-minute long, promo-only version of "Warm Ride," and the nearly 11-minute version of "(I Know) I'm Losing You," the 12½-minute version of "I Couldn't Believe What Happened Last Night," the killer 21½-minute "Get Ready," plus the more modestly proportioned "Hey Big Brother," "Ma," "I Just Want to Celebrate," and "Satisfaction Guaranteed." Motown also has a double-CD anthology which features an additional hour of music and then some, but that's more than twice as expensive and only intended for the most serious fans. The sound is also a selling point, this collection have originated from Polygram's stewardship of the Motown library, all first-generation tapes processed through state-of-the-art digital technology.

by Bruce Eder, AMG
Rare Earth - Earth Tones: The Essential Rare Earth (1994)

Rare Earth - Earth Tones: The Essential Rare Earth (1994):

Rare Earth - Earth Tones: The Essential Rare Earth (1994)

Tracklist:

01. Warm Ride (Extended 12'' Promotional Single Version) (06:44)
02. I Just Want To Celebrate (03:39)
03. (I Know) I'm Losing You (010:59)
04. Satisfaction Guaranteed (04:37)
05. I Couldn't Believe What Happened Last Night (12:32)
06. Ma (Single Version) (05:24)
07. Hey Big Brother (Live) (05:47)
08. Dreamer (04:11)
09. Get Ready (21:33)

Converted to Image (CUETools 2.1.4)

Exact Audio Copy V1.0 beta 1 from 15. November 2010

EAC extraction logfile from 18. January 2013, 21:25

Rare Earth / Earth Tones (The Essential Rare Earth)

Used drive : TSSTcorpCD/DVDW SH-S182D Adapter: 1 ID: 0

Read mode : Secure
Utilize accurate stream : Yes
Defeat audio cache : Yes
Make use of C2 pointers : No

Read offset correction : 6
Overread into Lead-In and Lead-Out : No
Fill up missing offset samples with silence : Yes
Delete leading and trailing silent blocks : No
Null samples used in CRC calculations : Yes
Used interface : Native Win32 interface for Win NT & 2000
Gap handling : Appended to previous track

Used output format : User Defined Encoder
Selected bitrate : 896 kBit/s
Quality : High
Add ID3 tag : No
Command line compressor : C:\Program Files\Exact Audio Copy\Flac\flac.exe
Additional command line options : -6 -V -T "ARTIST=%a" -T "TITLE=%t" -T "ALBUM=%g" -T "DATE=%y" -T "TRACKNUMBER=%n" -T "GENRE=%m" -T "COMMENT=%e" %s -o %d


TOC of the extracted CD

Track | Start | Length | Start sector | End sector
––––––––––––––––––––––––––––-
1 | 0:00.00 | 6:44.72 | 0 | 30371
2 | 6:44.72 | 3:39.13 | 30372 | 46809
3 | 10:24.10 | 10:59.10 | 46810 | 96244
4 | 21:23.20 | 4:37.37 | 96245 | 117056
5 | 26:00.57 | 12:32.20 | 117057 | 173476
6 | 38:33.02 | 5:24.70 | 173477 | 197846
7 | 43:57.72 | 5:47.10 | 197847 | 223881
8 | 49:45.07 | 4:11.18 | 223882 | 242724
9 | 53:56.25 | 21:33.37 | 242725 | 339736


Track 1

Filename C:\New Folder\01 - Warm Ride (Extended 12'' Promotional Single Version).wav

Pre-gap length 0:00:02.00

Peak level 97.2 %
Extraction speed 3.3 X
Track quality 100.0 %
Test CRC EF25EA95
Copy CRC EF25EA95
Cannot be verified as accurate (confidence 4) [278FB1BC], AccurateRip returned [5858866B]
Copy OK

Track 2

Filename C:\New Folder\02 - I Just Want To Celebrate.wav

Pre-gap length 0:00:01.65

Peak level 97.2 %
Extraction speed 3.0 X
Track quality 99.9 %
Test CRC 94BE2BD8
Copy CRC 94BE2BD8
Accurately ripped (confidence 2) [637E3448]
Copy OK

Track 3

Filename C:\New Folder\03 - (I Know) I'm Losing You.wav

Pre-gap length 0:00:01.35

Peak level 97.2 %
Extraction speed 5.7 X
Track quality 99.9 %
Test CRC CA0C7F0D
Copy CRC CA0C7F0D
Cannot be verified as accurate (confidence 4) [3A039F74], AccurateRip returned [2648D111]
Copy OK

Track 4

Filename C:\New Folder\04 - Satisfaction Guaranteed.wav

Pre-gap length 0:00:02.00

Peak level 97.2 %
Extraction speed 4.5 X
Track quality 100.0 %
Test CRC 426EDADF
Copy CRC 426EDADF
Cannot be verified as accurate (confidence 4) [D1A8EF01], AccurateRip returned [DF2B4B46]
Copy OK

Track 5

Filename C:\New Folder\05 - I Couldn't Believe What Happened Last Night.wav

Pre-gap length 0:00:03.27

Peak level 97.2 %
Extraction speed 7.4 X
Track quality 100.0 %
Test CRC 593ECEB7
Copy CRC 593ECEB7
Cannot be verified as accurate (confidence 4) [2E89AE0D], AccurateRip returned [768199C2]
Copy OK

Track 6

Filename C:\New Folder\06 - Ma (Single Version).wav

Pre-gap length 0:00:02.32

Peak level 94.6 %
Extraction speed 7.7 X
Track quality 100.0 %
Test CRC C7F63C98
Copy CRC C7F63C98
Cannot be verified as accurate (confidence 4) [16C4F1EA], AccurateRip returned [D634D05C]
Copy OK

Track 7

Filename C:\New Folder\07 - Hey Big Brother (Live).wav

Pre-gap length 0:00:02.62

Peak level 94.6 %
Extraction speed 8.1 X
Track quality 100.0 %
Test CRC 89BB44C2
Copy CRC 89BB44C2
Cannot be verified as accurate (confidence 4) [F878B46A], AccurateRip returned [1B399636]
Copy OK

Track 8

Filename C:\New Folder\08 - Dreamer.wav

Pre-gap length 0:00:04.07

Peak level 94.6 %
Extraction speed 8.0 X
Track quality 100.0 %
Test CRC 2F4DF9D0
Copy CRC 2F4DF9D0
Cannot be verified as accurate (confidence 4) [EB8F2295], AccurateRip returned [03FB1F87]
Copy OK

Track 9

Filename C:\New Folder\09 - Get Ready.wav

Pre-gap length 0:00:02.38

Peak level 94.6 %
Extraction speed 9.4 X
Track quality 100.0 %
Test CRC 864E575A
Copy CRC 864E575A
Cannot be verified as accurate (confidence 4) [55863667], AccurateRip returned [1D163A93]
Copy OK


1 track(s) accurately ripped
8 track(s) could not be verified as accurate

Some tracks could not be verified as accurate

No errors occurred

End of status report

==== Log checksum 2EF8C307559AAA66E5FDE33415E7D23DBF7475234198780FFE4CE3092EB3E8A3 ====

foobar2000 1.2.9 / Dynamic Range Meter 1.1.1
log date: 2016-07-21 12:55:23

––––––––––––––––––––––––––––––––––––––––
Analyzed: Rare Earth / Earth Tones (The Essential Rare Earth)
––––––––––––––––––––––––––––––––––––––––

DR Peak RMS Duration Track
––––––––––––––––––––––––––––––––––––––––
DR10 -0.24 dB -12.63 dB 6:45 01-Warm Ride (Extended 12'' Promotional Single Version)
DR10 -0.24 dB -11.80 dB 3:39 02-I Just Want To Celebrate
DR12 -0.24 dB -14.23 dB 10:59 03-(I Know) I'm Losing You
DR10 -0.24 dB -12.58 dB 4:37 04-Satisfaction Guaranteed
DR10 -0.24 dB -13.13 dB 12:32 05-I Couldn't Believe What Happened Last Night
DR14 -0.48 dB -16.86 dB 5:25 06-Ma (Single Version)
DR11 -0.48 dB -12.98 dB 5:47 07-Hey Big Brother (Live)
DR11 -0.48 dB -15.73 dB 4:11 08-Dreamer
DR10 -0.48 dB -12.83 dB 21:33 09-Get Ready
––––––––––––––––––––––––––––––––––––––––

Number of tracks: 9
Official DR value: DR11

Samplerate: 44100 Hz
Channels: 2
Bits per sample: 16
Bitrate: 922 kbps
Codec: FLAC

[CUETools log; Date: 21.07.2016 12:55:14; Version: 2.1.4]
[CTDB TOCID: OrAKrL1eYGcRESN7Ae5yjz3m.YU-] found.
Track | CTDB Status
1 | (13/13) Accurately ripped
2 | (12/13) Accurately ripped
3 | (13/13) Accurately ripped
4 | (13/13) Accurately ripped
5 | (13/13) Accurately ripped
6 | (13/13) Accurately ripped
7 | (13/13) Accurately ripped
8 | (13/13) Accurately ripped
9 | (12/13) Accurately ripped
[AccurateRip ID: 001666f8-00a76446-8111b109] found.
Track [ CRC | V2 ] Status
01 [278fb1bc|a1a4c244] (00+03/17) Accurately ripped
02 [637e3448|d0200c1f] (02+03/21) Accurately ripped
03 [3a039f74|2fe4c5f0] (00+03/18) Accurately ripped
04 [d1a8ef01|20b3c403] (00+03/17) Accurately ripped
05 [2e89ae0d|e18731ee] (00+03/18) Accurately ripped
06 [16c4f1ea|bdfa79e5] (00+03/18) Accurately ripped
07 [f878b46a|92ce8130] (00+03/18) Accurately ripped
08 [eb8f2295|09b9919a] (00+03/17) Accurately ripped
09 [55863667|bae423c5] (00+03/14) Accurately ripped
Offsetted by 1041:
01 [5858866b] (06/17) Accurately ripped
02 [24e9da9f] (07/21) Accurately ripped
03 [2648d111] (06/18) Accurately ripped
04 [df2b4b46] (06/17) Accurately ripped
05 [768199c2] (06/18) Accurately ripped
06 [d634d05c] (06/18) Accurately ripped
07 [1b399636] (06/18) Accurately ripped
08 [03fb1f87] (06/17) Accurately ripped
09 [1d163a93] (04/14) Accurately ripped

Track Peak [ CRC32 ] [W/O NULL] [ LOG ]
– 97,2 [132BF8EF] [14176FD4]
01 97,2 [EF25EA95] [720B5FF8] CRC32
02 97,2 [94BE2BD8] [3FAC651E] CRC32
03 97,2 [CA0C7F0D] [9134B04E] CRC32
04 97,2 [426EDADF] [5ACCF486] CRC32
05 97,2 [593ECEB7] [867F1A94] CRC32
06 94,6 [C7F63C98] [9472C3BA] CRC32
07 94,6 [89BB44C2] [658AEAA6] CRC32
08 94,6 [2F4DF9D0] [1F074795] CRC32
09 94,6 [864E575A] [B08316E1] CRC32

Rare Earth - Earth Tones: The Essential Rare Earth (1994)

All thanks go to the original releaser

Download Rare Earth - Earth Tones: The Essential Rare Earth (1994):