Tags
Language
Tags

Ravi Shankar - Concerto For Sitar And Orchestra (1976) {EMI}

Posted By: tiburon
Ravi Shankar - Concerto For Sitar And Orchestra (1976) {EMI}

Ravi Shankar - Concerto For Sitar And Orchestra (1976) {EMI}
EAC 1.0b3 | FLAC Image | Cue+Log | Full Scans 300dpi | 227MB + 5% Recovery
MP3 CBR 320 Kbps | 123MB + 5% Recovery
Genre: Classical, Indian Classical
Ravi Shankar - Concerto For Sitar And Orchestra (1976) {EMI}

Ravi Shankar’s first concerto for sitar and Western orchestra, from 1971, is a tame, lush, quite pretty piece. The ensemble serves as a kind of velvety pillow, atop which Mr. Shankar weaves coppery skeins for himself, as soloist. The two sound worlds — West and East — coexist peacefully, perhaps a tad sedately. There are slower and faster moments, of course, but the general feel is relaxed, moderate.
Track List
01. Concerto for Sitar & Orchestra - Raga Khamaj (14:23)
02. Concerto for Sitar & Orchestra - Raga Sindhi Bhairavi (06:13)
03. Concerto for Sitar & Orchestra - Raga Adana (03:33)
04. Concerto for Sitar & Orchestra - Raga Manj Khamaj (15:45)
05. Morning Love (12:06)

musicians
Ravi Shankar - sitar
Jean-Pierre Rampal - flute
Alla Rakha - tabla
Kamala - tanpura
London Symphony Orchestra
Conductor - Andre Previn


Exact Audio Copy V1.0 beta 3 from 29. August 2011

EAC extraction logfile from 5. August 2014, 10:37

Ravi Shankar / Shankar - Concerto for Sitar and Orchestra - Ravi Shankar, André Previn

Used drive : TSSTcorpCDDVDW SH-222BB Adapter: 2 ID: 1

Read mode : Secure
Utilize accurate stream : Yes
Defeat audio cache : Yes
Make use of C2 pointers : No

Read offset correction : 6
Overread into Lead-In and Lead-Out : No
Fill up missing offset samples with silence : Yes
Delete leading and trailing silent blocks : No
Null samples used in CRC calculations : Yes
Used interface : Native Win32 interface for Win NT & 2000

Used output format : User Defined Encoder
Selected bitrate : 896 kBit/s
Quality : High
Add ID3 tag : No
Command line compressor : C:\Program Files\Exact Audio Copy\FLAC\FLAC.EXE
Additional command line options : -8 -V -T "TITLE=%title%" -T "ARTIST=%artist%" -T "ALBUMARTIST=%albumartist%" -T "ALBUM=%albumtitle%" -T "DATE=%year%" -T "TRACKNUMBER=%tracknr%" -T "TRACKTOTAL=%numtracks%" -T "GENRE=%genre%" -T "COMMENT=%comment%" -T "PERFORMER=%albuminterpret%" -T "COMPOSER=%composer%" %source% -o %dest%


TOC of the extracted CD

Track | Start | Length | Start sector | End sector
––––––––––––––––––––––––––––-
1 | 0:00.00 | 14:22.70 | 0 | 64719
2 | 14:22.70 | 6:13.17 | 64720 | 92711
3 | 20:36.12 | 3:32.63 | 92712 | 108674
4 | 24:09.00 | 15:44.60 | 108675 | 179534
5 | 39:53.60 | 12:06.02 | 179535 | 233986


Range status and errors

Selected range

Filename G:\Ripped general\[7881] Shankar – Concerto for Sitar and Orchestra – Ravi Shankar, André Previn\Shankar - Concerto for Sitar and Orchestra - Ravi Shankar, André Previn.wav

Peak level 98.3 %
Extraction speed 6.5 X
Range quality 99.9 %
Test CRC 51B8EBA2
Copy CRC 51B8EBA2
Copy OK

No errors occurred


AccurateRip summary

Track 1 accurately ripped (confidence 4) [B064942E] (AR v2)
Track 2 accurately ripped (confidence 4) [D3216813] (AR v2)
Track 3 accurately ripped (confidence 4) [7CC6A81E] (AR v2)
Track 4 accurately ripped (confidence 4) [48D8DA54] (AR v2)
Track 5 accurately ripped (confidence 4) [EE999AF1] (AR v2)

All tracks accurately ripped

End of status report

==== Log checksum A9AE745A218B3D235F7499DE36CF4A31DD88B8B58049D686CBEF8F194D395E47 ====

Ravi Shankar - Concerto For Sitar And Orchestra (1976) {EMI}
Ravi Shankar - Concerto For Sitar And Orchestra (1976) {EMI}


Thanks to the original ripper