Subcategories

Ravi Shankar and Philip Glass - Passages (1990) {Private 260 297}

Posted By: tiburon
Ravi Shankar and Philip Glass - Passages (1990) {Private 260 297}

Ravi Shankar and Philip Glass - Passages (1990) {Private 260 297}
EAC 1.0b3 | FLAC tracks level 8 | Cue+Log+M3U | Full Scans 300dpi | 322MB + 5% Recovery
Genre: Modern Classical, Hindustani Classical Music, Post-Minimalism, World Fusion
Ravi Shankar and Philip Glass - Passages (1990) {Private 260 297}

A collaboration between an avant-garde modern classical composer and a traditional Indian/Hindi composer/performer seems as unlikely as ice hockey on the River Styx. However, Passages is a collaboration between Philip Glass and Ravi Shankar and it works quite well. Shankar's smooth style fits nicely with Glass' dissonant orchestrations. There is a great deal of technical data involved here. Both of these artists have long taken intellectual approaches to music. Thus, the liner notes are a bit heavy-handed. The music is brilliant. The symphony dominates the soundscapes, but Shankar's atmospheres are integral to the success of this project.
Track List
01. Offering * 9:40
02. Sadhanipa ** 8:31
03. Channels And Winds ** 7:56
04. Ragas In Minor Scale ** 7:32
05. Meetings Along The Edge * 8:05
06. Prashanti * 13:37

* Composed by Ravi Shankar
** Composed by Philip Glass

musicians
Ravi Shankar - vocals
S.P. Balasubramanyam - vocals
The Madras Choir - vocals

Orchestral group from Madras:
Ronu Mazumdar - flute
Shubho Shankar - sitar
Partha Sarathy - sarod, veena
T. Srinivasan - mridangam & drum speech
Abhiman Kaushal - tabla

Tim Baker - violin
Barry Finclair - violin, viola
Seymour Barab - cello
Theresa Norris - flute
Jack Kripl - flute, soprano sax
Gorden Gottleib - percussion
Michael Riesman - piano

Produced by Kurt Munkacsi, Ravi Shankar and Suresh Lalwani


Exact Audio Copy V1.0 beta 3 from 29. August 2011

EAC extraction logfile from 9. February 2014, 19:12

Ravi Shankar and Philip Glass / Passages

Used drive : HL-DT-STDVD-RAM GH22NP20 Adapter: 0 ID: 0

Read mode : Secure
Utilize accurate stream : Yes
Defeat audio cache : Yes
Make use of C2 pointers : No

Read offset correction : 102
Overread into Lead-In and Lead-Out : No
Fill up missing offset samples with silence : Yes
Delete leading and trailing silent blocks : No
Null samples used in CRC calculations : Yes
Used interface : Native Win32 interface for Win NT & 2000
Gap handling : Appended to previous track

Used output format : User Defined Encoder
Selected bitrate : 1024 kBit/s
Quality : High
Add ID3 tag : No
Command line compressor : C:\Program Files\Exact Audio Copy\Flac\flac.exe
Additional command line options : -V -8 -T "Genre=%genre%" -T "Artist=%artist%" -T "Title=%title%" -T "Album=%albumtitle%" -T "Date=%year%" -T "Tracknumber=%tracknr%" -T "Comment=%comment%" %source%


TOC of the extracted CD

Track | Start | Length | Start sector | End sector
––––––––––––––––––––––––––––-
1 | 0:00.00 | 9:46.40 | 0 | 43989
2 | 9:46.40 | 8:36.52 | 43990 | 82741
3 | 18:23.17 | 8:00.28 | 82742 | 118769
4 | 26:23.45 | 7:36.55 | 118770 | 153024
5 | 34:00.25 | 8:10.57 | 153025 | 189831
6 | 42:11.07 | 13:38.05 | 189832 | 251186


Track 1

Filename D:\music\Musicgate's rips\Ravi Shankar and Philip Glass - Passages - 1990 (Private, Inc. 260 297)\01 - Offering.wav

Pre-gap length 0:00:02.00

Peak level 80.6 %
Extraction speed 1.8 X
Track quality 100.0 %
Test CRC D61B4E00
Copy CRC D61B4E00
Accurately ripped (confidence 15) [0E9ADD0E] (AR v2)
Copy OK

Track 2

Filename D:\music\Musicgate's rips\Ravi Shankar and Philip Glass - Passages - 1990 (Private, Inc. 260 297)\02 - Sadhanipa.wav

Pre-gap length 0:00:03.50

Peak level 96.7 %
Extraction speed 2.2 X
Track quality 100.0 %
Test CRC 6E9E7470
Copy CRC 6E9E7470
Accurately ripped (confidence 15) [3F91FE94] (AR v2)
Copy OK

Track 3

Filename D:\music\Musicgate's rips\Ravi Shankar and Philip Glass - Passages - 1990 (Private, Inc. 260 297)\03 - Channels and Winds.wav

Pre-gap length 0:00:04.50

Peak level 85.9 %
Extraction speed 2.3 X
Track quality 99.9 %
Test CRC 68DB0DD9
Copy CRC 68DB0DD9
Accurately ripped (confidence 15) [6837441B] (AR v2)
Copy OK

Track 4

Filename D:\music\Musicgate's rips\Ravi Shankar and Philip Glass - Passages - 1990 (Private, Inc. 260 297)\04 - Ragas in Minor Scale.wav

Pre-gap length 0:00:04.15

Peak level 88.1 %
Extraction speed 2.7 X
Track quality 100.0 %
Test CRC 33660321
Copy CRC 33660321
Accurately ripped (confidence 15) [9607BCDA] (AR v2)
Copy OK

Track 5

Filename D:\music\Musicgate's rips\Ravi Shankar and Philip Glass - Passages - 1990 (Private, Inc. 260 297)\05 - Meetings Along the Edge.wav

Pre-gap length 0:00:02.72

Peak level 88.4 %
Extraction speed 2.9 X
Track quality 100.0 %
Test CRC EC7C7233
Copy CRC EC7C7233
Accurately ripped (confidence 15) [01E28505] (AR v2)
Copy OK

Track 6

Filename D:\music\Musicgate's rips\Ravi Shankar and Philip Glass - Passages - 1990 (Private, Inc. 260 297)\06 - Prashanti.wav

Pre-gap length 0:00:05.05

Peak level 98.6 %
Extraction speed 3.2 X
Track quality 99.9 %
Test CRC 64A1BB0C
Copy CRC 64A1BB0C
Accurately ripped (confidence 14) [FE7FC77E] (AR v2)
Copy OK


All tracks accurately ripped

No errors occurred

End of status report

==== Log checksum D9D624F4A28C33E4DF6DC643625FCF8C50175D366F2F53AB6B6DC08A086E64F0 ====


––––––––––––––––––––––––––––––––––––––––
Analyzed: Ravi Shankar and Philip Glass / Passages
––––––––––––––––––––––––––––––––––––––––

DR Peak RMS Duration Track
––––––––––––––––––––––––––––––––––––––––
DR12 -1.87 dB -18.55 dB 9:47 01-Offering
DR13 -0.29 dB -17.28 dB 8:37 02-Sadhanipa
DR11 -1.32 dB -15.22 dB 8:00 03-Channels and Winds
DR12 -1.09 dB -16.93 dB 7:37 04-Ragas in Minor Scale
DR13 -1.07 dB -17.48 dB 8:11 05-Meetings Along the Edge
DR14 -0.12 dB -17.23 dB 13:38 06-Prashanti
––––––––––––––––––––––––––––––––––––––––

Number of tracks: 6
Official DR value: DR12

Samplerate: 44100 Hz
Channels: 2
Bits per sample: 16
Bitrate: 694 kbps
Codec: FLAC
================================================================================

Ravi Shankar and Philip Glass - Passages (1990) {Private 260 297}
Ravi Shankar and Philip Glass - Passages (1990) {Private 260 297}
Ravi Shankar and Philip Glass - Passages (1990) {Private 260 297}


Thanks to the original ripper