Subcategories
Tags
Language
Tags

Red Sun & SamulNori ‎- Nanjang - A New Horizon (1996)

Posted By: Designol
Red Sun & SamulNori ‎- Nanjang - A New Horizon (1996)

Red Sun · SamulNori ‎– Nanjang - A New Horizon (1996)
EAC | FLAC | Image (Cue&Log) ~ 263 Mb | Mp3 (CBR320) ~ 121 Mb | Scans included
World Fusion, Ethnic Jazz | Label: Amadeo/Antilles | # 533 125-2 | 00:49:41

Samulnori is a traditional Korean folk percussion ensemble who utilizes for percussion instruments: kkaengguari, ching, changgo, and buk. Renowned changgo player Kim Duk Soo with Samulnori has put together a stunning collection of world talents who fuse traditional Korean forms with other genres that span the globe – most notably jazz and funk. The results are impressive. All of the pieces on this release maintain some facets of traditional Korean music that are unique to that culture, be it the pansori singing style on "Rabbit Stori" or the shanawi improvisational technique on "Shinawi."

Review by Mark Allender, Allmusic.com

Alto Saxophone, Bass Clarinet, Alto Flute – Wolfgang Puschnig
Janggu [Changgo] – 김덕수 (Kim Duk Soo)
Bass Guitar – Jamaaladeen Tacuma
Buk – 강민석 (Kang Min Seok)
Ching, Drum [Bara] – 김정국 (Kim Jung Kuk)
Duduk [Piri], Shawm [Taepyungso], Daegeum [Taegum] – 김재영 (Kim Jae Young)
Electric Guitar, Twelve-String Guitar – Rick Iannacone
K'kwaengwari, Idiophone [Moktak] – 김정희 (Kim Jung Hee)
Rap – 김준엽 (Koo Joon Yub) (tracks: 2)
Vocals – 안숙선 (Ahn Sook Sun) (tracks: 1, 9), 강권순 (Kang Kwon Soon) (tracks: 4, 5), Linda Sharrock
Zither [Ajaeng], Gayageum [Kayagum] – 이태백 (Lee Tae Baek)

Recorded at Lead Sound Studio, Seoul, Jan 95
Mixed at: Front Row Studio, London, Feb 95
Lead Sound Studio, Seoul, Feb 95 (track 1)
Mastered at Chop-em-out, London, Feb 95

Tracklist:

01. Rabbit Story (6:13)
02. Things Change (5:15)
03. One Step To Never (4:05)
04. Meditation (5:17)
05. Arirang (3:50)
06. Celebration (6:02)
07. Water Drops (4:21)
08. Mother Child (4:40)
09. Shinawi (9:57)


Exact Audio Copy V1.3 from 2. September 2016

EAC extraction logfile from 18. April 2017, 15:54

Red Sun & Samulnori / Nanjang - A New Horizon

Used drive : HL-DT-STDVDRAM GH24NSB0 Adapter: 1 ID: 0

Read mode : Secure
Utilize accurate stream : Yes
Defeat audio cache : Yes
Make use of C2 pointers : No

Read offset correction : 6
Overread into Lead-In and Lead-Out : No
Fill up missing offset samples with silence : Yes
Delete leading and trailing silent blocks : No
Null samples used in CRC calculations : Yes
Used interface : Native Win32 interface for Win NT & 2000

Used output format : User Defined Encoder
Selected bitrate : 1024 kBit/s
Quality : High
Add ID3 tag : No
Command line compressor : C:\Program Files (x86)\Exact Audio Copy\Flac\flac.exe
Additional command line options : -V -6 %source% -o %dest%


TOC of the extracted CD

Track | Start | Length | Start sector | End sector
––––––––––––––––––––––––––––-
1 | 0:00.32 | 6:13.30 | 32 | 28036
2 | 6:13.62 | 5:14.63 | 28037 | 51649
3 | 11:28.50 | 4:05.32 | 51650 | 70056
4 | 15:34.07 | 5:16.58 | 70057 | 93814
5 | 20:50.65 | 3:50.25 | 93815 | 111089
6 | 24:41.15 | 6:02.02 | 111090 | 138241
7 | 30:43.17 | 4:20.43 | 138242 | 157784
8 | 35:03.60 | 4:40.17 | 157785 | 178801
9 | 39:44.02 | 9:57.33 | 178802 | 223609


Range status and errors

Selected range

Filename D:\WORKING\Red Sun & Samulnori - Nanjang - A New Horizon.wav

Peak level 89.1 %
Extraction speed 1.7 X
Range quality 100.0 %
Test CRC 8787B142
Copy CRC 8787B142
Copy OK

No errors occurred


AccurateRip summary

Track 1 accurately ripped (confidence 1) [565F57B7] (AR v1)
Track 2 accurately ripped (confidence 1) [8BB44036] (AR v1)
Track 3 accurately ripped (confidence 1) [89DF34CF] (AR v1)
Track 4 accurately ripped (confidence 1) [D0236A69] (AR v1)
Track 5 accurately ripped (confidence 1) [D4E96C36] (AR v1)
Track 6 accurately ripped (confidence 1) [2EA9A214] (AR v1)
Track 7 accurately ripped (confidence 1) [A9748AF8] (AR v1)
Track 8 accurately ripped (confidence 1) [510F2F67] (AR v1)
Track 9 accurately ripped (confidence 1) [7B1502E4] (AR v1)

All tracks accurately ripped

End of status report

–– CUETools DB Plugin V2.1.6

[CTDB TOCID: Va9PHJ6.05Bg712.WzPNiahYjGk-] found
Submit result: Va9PHJ6.05Bg712.WzPNiahYjGk- has been confirmed
Track | CTDB Status
1 | (2/2) Accurately ripped
2 | (2/2) Accurately ripped
3 | (2/2) Accurately ripped
4 | (2/2) Accurately ripped
5 | (2/2) Accurately ripped
6 | (2/2) Accurately ripped
7 | (2/2) Accurately ripped
8 | (2/2) Accurately ripped
9 | (2/2) Accurately ripped


==== Log checksum D1D1A48CB85F28447CF06C83F4887A473B25D4B4FC736B3AD70BCADFB53109FD ====

foobar2000 1.2 / Dynamic Range Meter 1.1.1
log date: 2017-04-20 19:46:06

––––––––––––––––––––––––––––––––––––––––
Analyzed: Red Sun & Samulnori / Nanjang - A New Horizon
––––––––––––––––––––––––––––––––––––––––

DR Peak RMS Duration Track
––––––––––––––––––––––––––––––––––––––––
DR13 -1.00 dB -17.05 dB 6:13 01-Rabbit Story
DR15 -1.39 dB -17.96 dB 5:15 02-Things Change
DR14 -1.00 dB -16.86 dB 4:05 03-One Step To Never
DR12 -3.95 dB -20.54 dB 5:17 04-Meditation
DR14 -1.00 dB -16.70 dB 3:50 05-Arirang
DR14 -1.39 dB -17.33 dB 6:02 06-Celebration
DR12 -2.45 dB -18.71 dB 4:21 07-Water Drops
DR14 -1.66 dB -17.77 dB 4:40 08-Mother Child
DR16 -1.00 dB -19.17 dB 9:57 09-Shinawi
––––––––––––––––––––––––––––––––––––––––

Number of tracks: 9
Official DR value: DR14

Samplerate: 44100 Hz
Channels: 2
Bits per sample: 16
Bitrate: 720 kbps
Codec: FLAC
================================================================================

Red Sun & SamulNori ‎- Nanjang - A New Horizon (1996)

Red Sun & SamulNori ‎- Nanjang - A New Horizon (1996)

All thanks to original releaser - doolykim

More interesting music in My Blog