Tags
Language
Tags
June 2024
Su Mo Tu We Th Fr Sa
26 27 28 29 30 31 1
2 3 4 5 6 7 8
9 10 11 12 13 14 15
16 17 18 19 20 21 22
23 24 25 26 27 28 29
30 1 2 3 4 5 6

Refuge - Solitary Men (2018) [Japanese Ed.]

Posted By: Andi_Deris
Refuge - Solitary Men (2018) [Japanese Ed.]

Refuge - Solitary Men (2018) [Japanese Ed.]
EAC Rip | FLAC: Image+Cue+Log | MP3 CBR 320 kbps | Scans
439 Mb | 140 Mb | 62 Mb | Time: 01:00:02
King Record Co., Ltd. | KICP-1911
Heavy/Thrash Metal

Between 1988 and 1993 Peavy Wagner, Manni Schmidt & Christos Efthimiadis releaed 5 very successful RAGE albums. 25 years later, and after some overwhelming "RAGE – songs of 1988 – 1993" live concerts and the name REFUGE the band released their debut album in 2018. True Teutonic Heavy Metal for fans of Rage, Accept, Judas Priest, Metal Church, Iced Earth, Jag Panzer, Saxon.

Refuge - Solitary Men (2018) [Japanese Ed.]




Track Listing

01. Summer's Winter (04:29)
02. The Man In The Ivory Tower (04:58)
03. Bleeding From Inside (04:49)
04. From The Ashes (04:48)
05. Living On The Edge Of Time (04:49)
06. We Owe A Life To Death (04:37)
07. Mind Over Matter (04:15)
08. Let Me Go (04:49)
09. Hell Freeze Over (04:35)
10. Waterfalls (Rage cover) (07:32)
11. Another Kind Of Madness (Bonus Track) (05:50)
12. The Man In The Ivory Tower (Acoustic Version) (Bonus Track for Japan) (04:34)

Produced by Refuge

The Band

• Peter "Peavy" Wagner - Vocals, Bass
• Manni Schmidt - Guitars
• Chris Efthimiadis - Drums

Exact Audio Copy V1.3 from 2. September 2016

EAC extraction logfile from 16. June 2018, 10:35

Refuge / Solitary Men (Japan)

Used drive : ATAPI iHAS122 W Adapter: 2 ID: 0

Read mode : Secure
Utilize accurate stream : Yes
Defeat audio cache : Yes
Make use of C2 pointers : No

Read offset correction : 48
Overread into Lead-In and Lead-Out : No
Fill up missing offset samples with silence : Yes
Delete leading and trailing silent blocks : No
Null samples used in CRC calculations : Yes
Used interface : Installed external ASPI interface

Used output format : User Defined Encoder
Selected bitrate : 1024 kBit/s
Quality : High
Add ID3 tag : No
Command line compressor : C:\Program Files\FLAC\flac.exe
Additional command line options : -V -8 -T "Date=%year%" -T "Genre=%genre%" -T"COMMENT=Ripped by Ilijan" -8 -V %source%


TOC of the extracted CD

Track | Start | Length | Start sector | End sector
––––––––––––––––––––––––––––-
1 | 0:00.00 | 4:28.36 | 0 | 20135
2 | 4:28.36 | 4:57.35 | 20136 | 42445
3 | 9:25.71 | 4:49.17 | 42446 | 64137
4 | 14:15.13 | 4:47.32 | 64138 | 85694
5 | 19:02.45 | 4:48.59 | 85695 | 107353
6 | 23:51.29 | 4:36.48 | 107354 | 128101
7 | 28:28.02 | 4:14.53 | 128102 | 147204
8 | 32:42.55 | 4:49.04 | 147205 | 168883
9 | 37:31.59 | 4:34.38 | 168884 | 189471
10 | 42:06.22 | 7:31.61 | 189472 | 223357
11 | 49:38.08 | 5:49.39 | 223358 | 249571
12 | 55:27.47 | 4:33.73 | 249572 | 270119


Range status and errors

Selected range

Filename D:\Refuge - Solitary Men (Japan).wav

Peak level 99.8 %
Extraction speed 3.9 X
Range quality 100.0 %
Test CRC 1538650A
Copy CRC 1538650A
Copy OK

No errors occurred


AccurateRip summary

Track 1 not present in database
Track 2 not present in database
Track 3 not present in database
Track 4 not present in database
Track 5 not present in database
Track 6 not present in database
Track 7 not present in database
Track 8 not present in database
Track 9 not present in database
Track 10 not present in database
Track 11 not present in database
Track 12 not present in database

None of the tracks are present in the AccurateRip database

End of status report

–– CUETools DB Plugin V2.1.6

[CTDB TOCID: 8QDqtQXrXshjXnMjS5B2zqMUQ.E-] found
Submit result: 8QDqtQXrXshjXnMjS5B2zqMUQ.E- has been confirmed
Track | CTDB Status
1 | (1/1) Accurately ripped
2 | (1/1) Accurately ripped
3 | (1/1) Accurately ripped
4 | (1/1) Accurately ripped
5 | (1/1) Accurately ripped
6 | (1/1) Accurately ripped
7 | (1/1) Accurately ripped
8 | (1/1) Accurately ripped
9 | (1/1) Accurately ripped
10 | (1/1) Accurately ripped
11 | (1/1) Accurately ripped
12 | (1/1) Accurately ripped


==== Log checksum A895AE4EF93B9249D95C901C2869304A39C0D398B7ED24339124306E9A7AA836 ====


Many thanks to the original uploader: Ilijan

SEE also:
Rage 2017 Seasons Of The Black [2CD-Limited Ed. Digibook]



Password: pass