Subcategories
Tags
Language
Tags

Renaud Garcia-Fons Trio - Arcoluz (2005) {Enja}

Posted By: tiburon
Renaud Garcia-Fons Trio - Arcoluz (2005) {Enja}

Renaud Garcia-Fons Trio - Arcoluz (2005) {Enja}
EAC 1.0b2 | FLAC Image level 8 | Cue+Log | Full Scans 300dpi | 390MB + 5% Recovery
MP3 CBR 320 Kbps | 143MB + 5% Recovery
Genre: Jazz, Ethnic Fusion
Renaud Garcia-Fons Trio - Arcoluz (2005) {Enja}

"ArcoLuz", the first live album after six studio recordings on ENJA, powerfully captures the fire and emotionality of Renaud Garcia-Fons' vibrant concert performance. With the core trio of "Entremundo" including upcoming flamenco star-stringer "Kiko" Ruiz and drummer "Negrito" Trasante of Gipsy Kings-fame, Garcia-Fons delivers seven of his thrilling Spanish-influenced pieces, four of them being brand new. His trio's highly inspired, forceful and expressive performance, caught at Germany's Schloss Elmau in summer 2005, is not only presented on a first-class CD recording but can also be seen on a 85-minute DVD video disc directed by Nicolas Dattilesi. With subtitles in four languages and bonus tracks included, the DVD is further proof for Renaud Garcia-Fons' and his trio's extraordinary musicianship and deep-felt emotions. "He's in a position to unite nations of music lovers"
Track List
01 - Arcoluz (03:02)
02 - Berimbass (06:08)
03 - Anda Loco (13:57)
04 - 40 Días (07:12)
05 - Gitanet (08:47)
06 - Entremundo (11:02)
07 - Entre Continentes (12:35)

musicians
Renaud Garcia-Fons - 5-string double bass
Kiko Ruiz - flamenco guitar
Negrito Trasante - drums, percussion

Produced by Renaud Garcia-Fons and Matthias Winckelmann


Exact Audio Copy V1.0 beta 2 from 29. April 2011

EAC extraction logfile from 6. August 2011, 21:23

Renaud Garcia-Fons Trio / Arcoluz

Used drive : Optiarc DVD RW AD-7170S Adapter: 1 ID: 1

Read mode : Secure
Utilize accurate stream : Yes
Defeat audio cache : Yes
Make use of C2 pointers : No

Read offset correction : 48
Overread into Lead-In and Lead-Out : No
Fill up missing offset samples with silence : Yes
Delete leading and trailing silent blocks : No
Null samples used in CRC calculations : Yes
Used interface : Native Win32 interface for Win NT & 2000

Used output format : User Defined Encoder
Selected bitrate : 32 kBit/s
Quality : High
Add ID3 tag : No
Command line compressor : C:\Program Files\FLAC\flac.exe
Additional command line options : -V -8 -T "Date=%year%" -T "Genre=%genre%" %source%


TOC of the extracted CD

Track | Start | Length | Start sector | End sector
––––––––––––––––––––––––––––-
1 | 0:00.00 | 3:02.29 | 0 | 13678
2 | 3:02.29 | 6:08.16 | 13679 | 41294
3 | 9:10.45 | 13:57.22 | 41295 | 104091
4 | 23:07.67 | 7:12.45 | 104092 | 136536
5 | 30:20.37 | 8:47.23 | 136537 | 176084
6 | 39:07.60 | 11:02.60 | 176085 | 225794
7 | 50:10.45 | 12:35.41 | 225795 | 282460


Range status and errors

Selected range

Filename C:\Documents and Settings\User\Мои документы\Renaud Garcia-Fons Trio - Arcoluz (2005)\Renaud Garcia-Fons Trio - Arcoluz.wav

Peak level 99.8 %
Extraction speed 4.0 X
Range quality 100.0 %
Test CRC A2786BDC
Copy CRC A2786BDC
Copy OK

No errors occurred


AccurateRip summary

Track 1 accurately ripped (confidence 2) [51447F82] (AR v2)
Track 2 accurately ripped (confidence 2) [119CDEE1] (AR v2)
Track 3 accurately ripped (confidence 2) [EAE2966B] (AR v2)
Track 4 accurately ripped (confidence 2) [2AE76713] (AR v2)
Track 5 accurately ripped (confidence 2) [64697846] (AR v2)
Track 6 accurately ripped (confidence 2) [619F5927] (AR v2)
Track 7 accurately ripped (confidence 2) [7332154A] (AR v2)

All tracks accurately ripped

End of status report

==== Log checksum 69980F2F870CC9C6A5AFC2A73CFE3EC5EE688D944C0F879FEF6BA340675E3D8D ====


foobar2000 1.3.13 / Dynamic Range Meter 1.1.1
log date: 2021-02-23 22:28:52

––––––––––––––––––––––––––––––––––––––––
Analyzed: Renaud Garcia-Fons Trio / Arcoluz
––––––––––––––––––––––––––––––––––––––––

DR Peak RMS Duration Track
––––––––––––––––––––––––––––––––––––––––
DR9 -2.90 dB -15.02 dB 3:02 01-Arcoluz (dedicated to Schloss Elmau)
DR9 -0.01 dB -11.10 dB 6:08 02-Berimbass
DR9 -0.01 dB -12.44 dB 13:57 03-Anda Loco
DR10 -0.01 dB -13.74 dB 7:13 04-40 Dias
DR9 -0.01 dB -11.34 dB 8:47 05-Gitanet
DR8 -0.01 dB -11.77 dB 11:03 06-Entremundo
DR9 -0.01 dB -12.20 dB 12:36 07-Entre Continentes
––––––––––––––––––––––––––––––––––––––––

Number of tracks: 7
Official DR value: DR9

Samplerate: 44100 Hz
Channels: 2
Bits per sample: 16
Bitrate: 798 kbps
Codec: FLAC
================================================================================

Renaud Garcia-Fons Trio - Arcoluz (2005) {Enja}
Renaud Garcia-Fons Trio - Arcoluz (2005) {Enja}


Thanks to the original ripper