Subcategories

Richard Galliano - Nino Rota (2011)

Posted By: tiburon
Richard Galliano - Nino Rota (2011)

Richard Galliano - Nino Rota (2011)
EAC 1.0b3 | FLAC tracks level 8 | Cue+Log+M3U+MD5 | Full Scans 300dpi | 343MB + 5% Recovery
MP3 CBR 320 Kbps | 160MB + 5% Recovery
Genre: Jazz, Classical, Soundtrack

French accordion maestro Galliano brings this band to the London jazz festival on 17 November and the mix is certainly tempting – Nino Rota's timeless movie themes interpreted by an elite international jazz quintet featuring Dave Douglas on trumpet, John Surman on reeds, Boris Kozlov on bass and Clarence Penn on drums. Listeners attracted more by the lineup than the material should note that the jazz shades and subtly skews the compositions rather than taking them over, and that Surman in particular isn't much heard outside of his ensemble role.
Track List
01. The Godfather - Waltz 1:37
02. La Strada - Tema 2:46
03. I Vitelloni - Temi 5:43
04. I Tre Suonatori 0:46
05. A Processione 2:54
06. Huit Et Demi - La Passerella D'Addio 5:19
07. Solitudine Di Gelsomina 2:18
08. Il Circo Giraffa 1:45
09. Il Matto Sul Filo 1:54
10. The Godfather - Love Theme 4:19
11. Gelsomina 1:50
12. I Notti Di Cabiria - Tema 4:21
13. Zampano E La Vedova 3:45
14. La Strada - La Partenza Del Convento 2:34
15. La Strada - Addio Del Matto 1:58
16. La Dolce Vita - Temi 4:26
17. Giulietta Degli Spiriti (Rosa Avrata) 5:48
18. Amarcord - Le Manine Di Primavera 1:47
19. Amarcord - Tema 2:24
20. Nino 3:08

musicians
Richard Galliano - accordeon, trombone
John Surman - soprano sax, alto clarinet
Dave Douglas - trumpet
Boris Kozlov - double-bass
Clarence Penn - drums, percussion

Produced by Richard Galliano


Exact Audio Copy V1.0 beta 3 from 29. August 2011

EAC extraction logfile from 3. April 2013, 12:22

Richard Galliano / Nino Rota

Used drive : HL-DT-STDVDRAM GH20NS10 Adapter: 2 ID: 1

Read mode : Secure
Utilize accurate stream : Yes
Defeat audio cache : Yes
Make use of C2 pointers : No

Read offset correction : 667
Overread into Lead-In and Lead-Out : No
Fill up missing offset samples with silence : Yes
Delete leading and trailing silent blocks : No
Null samples used in CRC calculations : Yes
Used interface : Native Win32 interface for Win NT & 2000
Gap handling : Appended to previous track

Used output format : User Defined Encoder
Selected bitrate : 1024 kBit/s
Quality : High
Add ID3 tag : No
Command line compressor : C:\Program Files\Exact Audio Copy\Flac\flac.exe
Additional command line options : -8 -V -T "ARTIST=%artist%" -T "TITLE=%title%" -T "ALBUM=%albumtitle%" -T "DATE=%year%" -T "TRACKNUMBER=%tracknr%" -T "TOTALTRACKS=%numtracks%" -T "GENRE=%genre%" -T "ALBUMARTIST=%albumartist%" -T "ALBUM ARTIST=%albumartist%" -T "COMMENT=EAC Secure Mode, Test & Copy, AccurateRip, FLAC -8" %source%


TOC of the extracted CD

Track | Start | Length | Start sector | End sector
––––––––––––––––––––––––––––-
1 | 0:00.00 | 1:37.31 | 0 | 7305
2 | 1:37.31 | 2:46.25 | 7306 | 19780
3 | 4:23.56 | 5:43.19 | 19781 | 45524
4 | 10:07.00 | 0:45.49 | 45525 | 48948
5 | 10:52.49 | 2:54.47 | 48949 | 62045
6 | 13:47.21 | 5:19.11 | 62046 | 85981
7 | 19:06.32 | 2:18.36 | 85982 | 96367
8 | 21:24.68 | 1:45.68 | 96368 | 104310
9 | 23:10.61 | 1:54.49 | 104311 | 112909
10 | 25:05.35 | 4:19.68 | 112910 | 132402
11 | 29:25.28 | 1:50.58 | 132403 | 140710
12 | 31:16.11 | 4:21.64 | 140711 | 160349
13 | 35:38.00 | 3:45.53 | 160350 | 177277
14 | 39:23.53 | 2:34.44 | 177278 | 188871
15 | 41:58.22 | 1:58.29 | 188872 | 197750
16 | 43:56.51 | 4:26.22 | 197751 | 217722
17 | 48:22.73 | 5:48.27 | 217723 | 243849
18 | 54:11.25 | 1:47.08 | 243850 | 251882
19 | 55:58.33 | 2:24.58 | 251883 | 262740
20 | 58:23.16 | 3:08.20 | 262741 | 276860


Track 1

Filename D:\Richard Galliano - Nino Rota (2011) [FLAC]\01 - Waltz.wav

Pre-gap length 0:00:02.00

Peak level 65.2 %
Extraction speed 3.5 X
Track quality 100.0 %
Test CRC 67A528CC
Copy CRC 67A528CC
Cannot be verified as accurate (confidence 5) [DC4B493F], AccurateRip returned [974A9D4A] (AR v2)
Copy OK

Track 2

Filename D:\Richard Galliano - Nino Rota (2011) [FLAC]\02 - Tema.wav

Peak level 98.9 %
Extraction speed 3.3 X
Track quality 99.9 %
Test CRC 0914D537
Copy CRC 0914D537
Cannot be verified as accurate (confidence 5) [E1A0474A], AccurateRip returned [3A131938] (AR v2)
Copy OK

Track 3

Filename D:\Richard Galliano - Nino Rota (2011) [FLAC]\03 - Temi.wav

Peak level 96.9 %
Extraction speed 4.0 X
Track quality 99.9 %
Test CRC 6C8CA7E6
Copy CRC 6C8CA7E6
Cannot be verified as accurate (confidence 5) [3B59F580], AccurateRip returned [776E1721] (AR v2)
Copy OK

Track 4

Filename D:\Richard Galliano - Nino Rota (2011) [FLAC]\04 - I Tre Suonatori.wav

Peak level 85.6 %
Extraction speed 3.5 X
Track quality 100.0 %
Test CRC 6BEEA0CD
Copy CRC 6BEEA0CD
Cannot be verified as accurate (confidence 5) [6559BC15], AccurateRip returned [7E50457C] (AR v2)
Copy OK

Track 5

Filename D:\Richard Galliano - Nino Rota (2011) [FLAC]\05 - La Processione.wav

Peak level 98.3 %
Extraction speed 4.2 X
Track quality 99.9 %
Test CRC 2E866C19
Copy CRC 2E866C19
Cannot be verified as accurate (confidence 5) [E1B9BFEC], AccurateRip returned [A7359EC8] (AR v2)
Copy OK

Track 6

Filename D:\Richard Galliano - Nino Rota (2011) [FLAC]\06 - La Passerella D'addio.wav

Peak level 99.0 %
Extraction speed 6.2 X
Track quality 100.0 %
Test CRC 9395C45F
Copy CRC 9395C45F
Cannot be verified as accurate (confidence 5) [E02FBE1C], AccurateRip returned [BCF0EB29] (AR v2)
Copy OK

Track 7

Filename D:\Richard Galliano - Nino Rota (2011) [FLAC]\07 - Solitudine Di Gelsomina.wav

Peak level 64.7 %
Extraction speed 5.7 X
Track quality 100.0 %
Test CRC 2AF6F45E
Copy CRC 2AF6F45E
Cannot be verified as accurate (confidence 5) [5391E592], AccurateRip returned [B3CD4E39] (AR v2)
Copy OK

Track 8

Filename D:\Richard Galliano - Nino Rota (2011) [FLAC]\08 - Il Circo Giraffa.wav

Peak level 98.1 %
Extraction speed 3.8 X
Track quality 99.8 %
Test CRC 40B76904
Copy CRC 40B76904
Cannot be verified as accurate (confidence 5) [3C16406A], AccurateRip returned [A935902F] (AR v2)
Copy OK

Track 9

Filename D:\Richard Galliano - Nino Rota (2011) [FLAC]\09 - Il Matto Sul Filo.wav

Peak level 97.6 %
Extraction speed 5.7 X
Track quality 100.0 %
Test CRC 35BC9B76
Copy CRC 35BC9B76
Cannot be verified as accurate (confidence 5) [95BAE692], AccurateRip returned [36863EEC] (AR v2)
Copy OK

Track 10

Filename D:\Richard Galliano - Nino Rota (2011) [FLAC]\10 - Love Theme.wav

Peak level 96.8 %
Extraction speed 5.6 X
Track quality 99.9 %
Test CRC 26AFF3DE
Copy CRC 26AFF3DE
Cannot be verified as accurate (confidence 5) [9C3FAFA9], AccurateRip returned [1C631CE5] (AR v2)
Copy OK

Track 11

Filename D:\Richard Galliano - Nino Rota (2011) [FLAC]\11 - Gelsomina.wav

Peak level 91.9 %
Extraction speed 5.8 X
Track quality 100.0 %
Test CRC 3DDB2604
Copy CRC 3DDB2604
Cannot be verified as accurate (confidence 5) [6DBC91D7], AccurateRip returned [A9D1461C] (AR v2)
Copy OK

Track 12

Filename D:\Richard Galliano - Nino Rota (2011) [FLAC]\12 - Tema.wav

Peak level 97.7 %
Extraction speed 7.1 X
Track quality 100.0 %
Test CRC 87DF1825
Copy CRC 87DF1825
Cannot be verified as accurate (confidence 5) [D883025B], AccurateRip returned [349427AF] (AR v2)
Copy OK

Track 13

Filename D:\Richard Galliano - Nino Rota (2011) [FLAC]\13 - Zampano E La Vedova.wav

Peak level 98.6 %
Extraction speed 7.2 X
Track quality 100.0 %
Test CRC EB914525
Copy CRC EB914525
Cannot be verified as accurate (confidence 5) [3FDB7472], AccurateRip returned [83D916A4] (AR v2)
Copy OK

Track 14

Filename D:\Richard Galliano - Nino Rota (2011) [FLAC]\14 - La Partenza Del Convento.wav

Peak level 98.9 %
Extraction speed 6.8 X
Track quality 100.0 %
Test CRC 39E82106
Copy CRC 39E82106
Cannot be verified as accurate (confidence 5) [6930342F], AccurateRip returned [4F205B3C] (AR v2)
Copy OK

Track 15

Filename D:\Richard Galliano - Nino Rota (2011) [FLAC]\15 - Addio Del Matto.wav

Peak level 97.0 %
Extraction speed 6.5 X
Track quality 100.0 %
Test CRC 843A94DB
Copy CRC 843A94DB
Cannot be verified as accurate (confidence 5) [6322EEF9], AccurateRip returned [EF743313] (AR v2)
Copy OK

Track 16

Filename D:\Richard Galliano - Nino Rota (2011) [FLAC]\16 - Temi.wav

Peak level 97.9 %
Extraction speed 7.9 X
Track quality 100.0 %
Test CRC 984F5C1B
Copy CRC 984F5C1B
Cannot be verified as accurate (confidence 5) [0F80B283], AccurateRip returned [C67FE745] (AR v2)
Copy OK

Track 17

Filename D:\Richard Galliano - Nino Rota (2011) [FLAC]\17 - Rosa Avrata.wav

Peak level 98.1 %
Extraction speed 8.1 X
Track quality 100.0 %
Test CRC 8EF15835
Copy CRC 8EF15835
Cannot be verified as accurate (confidence 5) [9F518F6F], AccurateRip returned [00691FA7] (AR v2)
Copy OK

Track 18

Filename D:\Richard Galliano - Nino Rota (2011) [FLAC]\18 - Le Manine Di Primavera.wav

Peak level 56.9 %
Extraction speed 5.6 X
Track quality 100.0 %
Test CRC 7C903B77
Copy CRC 7C903B77
Cannot be verified as accurate (confidence 5) [A5F76CAC], AccurateRip returned [4453F2A0] (AR v2)
Copy OK

Track 19

Filename D:\Richard Galliano - Nino Rota (2011) [FLAC]\19 - Tema.wav

Peak level 93.4 %
Extraction speed 4.2 X
Track quality 99.9 %
Test CRC DAB5F12B
Copy CRC DAB5F12B
Cannot be verified as accurate (confidence 5) [6AB2C254], AccurateRip returned [39DA7726] (AR v2)
Copy OK

Track 20

Filename D:\Richard Galliano - Nino Rota (2011) [FLAC]\20 - Nino.wav

Peak level 98.7 %
Extraction speed 5.0 X
Track quality 99.9 %
Test CRC 798EC7E0
Copy CRC 798EC7E0
Cannot be verified as accurate (confidence 5) [A5013D9B], AccurateRip returned [88B7C412] (AR v2)
Copy OK


No tracks could be verified as accurate
You may have a different pressing from the one(s) in the database

No errors occurred

End of status report

==== Log checksum A51F658D523C109CFC400E790082FA06EEF171B22C7352ABAA46569AC400D5B5 ====


––––––––––––––––––––––––––––––––––––––––
Analyzed: Richard Galliano / Nino Rota
––––––––––––––––––––––––––––––––––––––––

DR Peak RMS Duration Track
––––––––––––––––––––––––––––––––––––––––
DR10 -3.71 dB -18.59 dB 1:37 01-Waltz
DR10 -0.10 dB -14.74 dB 2:46 02-Tema
DR13 -0.27 dB -17.18 dB 5:43 03-Temi
DR14 -1.35 dB -20.31 dB 0:46 04-I Tre Suonatori
DR10 -0.15 dB -14.10 dB 2:55 05-La Processione
DR11 -0.08 dB -14.39 dB 5:19 06-La Passerella D'addio
DR11 -3.77 dB -20.21 dB 2:18 07-Solitudine Di Gelsomina
DR11 -0.16 dB -14.31 dB 1:46 08-Il Circo Giraffa
DR11 -0.20 dB -16.03 dB 1:55 09-Il Matto Sul Filo
DR13 -0.27 dB -18.18 dB 4:20 10-Love Theme
DR12 -0.72 dB -18.17 dB 1:51 11-Gelsomina
DR9 -0.19 dB -12.07 dB 4:22 12-Tema
DR12 -0.11 dB -14.28 dB 3:46 13-Zampano E La Vedova
DR12 -0.09 dB -16.34 dB 2:35 14-La Partenza Del Convento
DR11 -0.26 dB -16.55 dB 1:58 15-Addio Del Matto
DR12 -0.18 dB -16.73 dB 4:26 16-Temi
DR12 -0.16 dB -15.17 dB 5:48 17-Rosa Avrata
DR12 -4.89 dB -23.62 dB 1:47 18-Le Manine Di Primavera
DR11 -0.59 dB -15.14 dB 2:25 19-Tema
DR12 -0.11 dB -14.13 dB 3:08 20-Nino
––––––––––––––––––––––––––––––––––––––––

Number of tracks: 20
Official DR value: DR11

Samplerate: 44100 Hz
Channels: 2
Bits per sample: 16
Bitrate: 852 kbps
Codec: FLAC
================================================================================

Richard Galliano - Nino Rota (2011)
Richard Galliano - Nino Rota (2011)
Richard Galliano - Nino Rota (2011)