Tags
Language
Tags

Sviatoslav Richter, Yevgeny Mravinsky, LPO - Tchaikovsky: Piano Concerto No.1; Symphony No.6 'Pathetique' (2012) [Re-Up]

Posted By: Designol
Sviatoslav Richter, Yevgeny Mravinsky, LPO - Tchaikovsky: Piano Concerto No.1; Symphony No.6 'Pathetique' (2012) [Re-Up]

P.I. Tchaikovsky: Piano Concerto No.1; Symphony No.6 'Pathetique' (2012) [Richter Edition]
Sviatoslav Richter, piano; Leningrad Philharmonic Orchestra, conducted by Yevgeny Mravinsky

EAC | FLAC | Image (Cue&Log) ~ 358 Mb | Mp3 (CBR320) ~ 206 Mb | Scans included
Genre: Classical | Label: Praga Digitals | # PRD/DSD 350 069 | Time: 01:18:35

This volume from Praga's critically-acclaimed Richter Edition series features an audiophile SACD remastering of the great Russian pianist playing Tchaikovsky. The program pairs the composer's two most popular scores in performances by two uncontested Russian masters. This recording resurrects of one of Sviatoslav Richter;s rare encounters with one of the finest conductors of the 20th century, Yevgeny Mravinsky. Richter is heard in a fiery 1958 recording of the first Piano Concerto, while Mravinsky is featured in a 1956 recording of the Pathetique symphony. This is an indispensable release for anyone interested in these two legendary artists.

Sviatoslav Richter, Yevgeny Mravinsky, LPO - Tchaikovsky: Piano Concerto No.1; Symphony No.6 'Pathetique' (2012) [Re-Up]



Sviatoslav Richter, Yevgeny Mravinsky, LPO - Tchaikovsky: Piano Concerto No.1; Symphony No.6 'Pathetique' (2012) [Re-Up]



Sviatoslav Richter, Yevgeny Mravinsky, LPO - Tchaikovsky: Piano Concerto No.1; Symphony No.6 'Pathetique' (2012) [Re-Up]



Tracklist:

Piano Concerto No.1, Op.23
01. I. Allegro non troppo e molto maestoso (20:35)
02. II. Andantino semplice (06:18)
03. III. Finale. Allegro con fuoco (07:01)
Leningrad, 24.VII.1958, Sviatoslav Richter, piano; LPO, Yevgeny Mravinsky

Symphony No.6, Op.74 'Pathetique'
04. I. Adagio - Allegro non troppo (17:59)
05. II. Allegro con grazia (08:06)
06. III. Allegro molto vivace (08:47)
07. IV. Finale.Adagio lamentoso (09:45)
Vienna, VI.1956; LPO, Yevgeny Mravinsky


Exact Audio Copy V1.0 beta 1 from 15. November 2010

EAC extraction logfile from 28. December 2012, 0:11

Piotr Tchaikovsky / Piano Concerto No.1,Symphony No.6

Used drive : Optiarc DVD RW AD-7203A Adapter: 4 ID: 1

Read mode : Secure
Utilize accurate stream : Yes
Defeat audio cache : Yes
Make use of C2 pointers : No

Read offset correction : 48
Overread into Lead-In and Lead-Out : No
Fill up missing offset samples with silence : Yes
Delete leading and trailing silent blocks : No
Null samples used in CRC calculations : Yes
Used interface : Native Win32 interface for Win NT & 2000

Used output format : User Defined Encoder
Selected bitrate : 128 kBit/s
Quality : High
Add ID3 tag : No
Command line compressor : C:\Program Files\FLAC\flac.exe
Additional command line options : -T "COMMENT=Ripped by GFox" -8 -V %s


TOC of the extracted CD

Track | Start | Length | Start sector | End sector
––––––––––––––––––––––––––––-
1 | 0:00.00 | 20:35.32 | 0 | 92656
2 | 20:35.32 | 6:18.64 | 92657 | 121070
3 | 26:54.21 | 7:01.64 | 121071 | 152709
4 | 33:56.10 | 17:59.19 | 152710 | 233653
5 | 51:55.29 | 8:06.28 | 233654 | 270131
6 | 60:01.57 | 8:47.55 | 270132 | 309711
7 | 68:49.37 | 9:45.39 | 309712 | 353625


Range status and errors

Selected range

Filename D:\EAC\Piotr Tchaikovsky - Piano Concerto No.1,Symphony No.6.wav

Peak level 92.5 %
Extraction speed 0.4 X
Range quality 100.0 %
Test CRC 8F5DA57F
Copy CRC 8F5DA57F
Copy OK

No errors occurred


AccurateRip summary

Track 1 not present in database
Track 2 not present in database
Track 3 not present in database
Track 4 not present in database
Track 5 not present in database
Track 6 not present in database
Track 7 not present in database

None of the tracks are present in the AccurateRip database

End of status report

==== Log checksum 9AB75E6E3FF73BFC60B08BE71A930ECB0E2EFC556C8BD7FB076295443C7DC590 ====

[CUETools log; Date: 31.05.2015 15:38:23; Version: 2.1.5]
[CTDB TOCID: Xl69Xa_G1vmh6icDnTPjk1h6yNA-] found.
Track | CTDB Status
1 | (2/2) Accurately ripped
2 | (2/2) Accurately ripped
3 | (2/2) Accurately ripped
4 | (2/2) Accurately ripped
5 | (2/2) Accurately ripped
6 | (2/2) Accurately ripped
7 | (2/2) Accurately ripped
[AccurateRip ID: 0017667a-00887f0e-4b126b07] found.
Track [ CRC | V2 ] Status
01 [e3971880|863e977d] (0+4/4) Accurately ripped
02 [7f464e0d|9bad0c1d] (0+4/4) Accurately ripped
03 [c183ad60|fe344d95] (0+4/4) Accurately ripped
04 [3b7a1c75|ec770d14] (0+4/4) Accurately ripped
05 [b9b45b84|6f593ebc] (0+4/4) Accurately ripped
06 [af455cc9|b75a2399] (0+4/4) Accurately ripped
07 [5334a83c|6b32a045] (0+3/3) Accurately ripped

Track Peak [ CRC32 ] [W/O NULL] [ LOG ]
– 92,5 [8F5DA57F] [5593F99A] CRC32
01 77,6 [BA4E9189] [D7B1376C]
02 53,6 [E3BA4F8A] [FE3B0EA4]
03 90,8 [D23D9523] [62368FB7]
04 78,7 [E89C0DD5] [3B62077F]
05 55,3 [3A588B5A] [D627092A]
06 92,5 [DBEEEA12] [1F305BA5]
07 76,4 [39198349] [BD8D4C46]

foobar2000 1.3.8 / Dynamic Range Meter 1.1.1
log date: 2015-05-31 15:49:27

––––––––––––––––––––––––––––––––––––––––
Analyzed: Piotr Tchaikovsky / Piano Concerto No.1,Symphony No.6
––––––––––––––––––––––––––––––––––––––––

DR Peak RMS Duration Track
––––––––––––––––––––––––––––––––––––––––
DR12 -2.20 dB -19.56 dB 20:35 01-Piano Concerto No.1, Op.23 - I. Allegro non troppo e molto maestoso
DR17 -5.41 dB -27.39 dB 6:19 02-Piano Concerto No.1, Op.23 - II. Andantino semplice
DR13 -0.84 dB -17.74 dB 7:02 03-Piano Concerto No.1, Op.23 - III. Finale. Allegro con fuoco
DR12 -2.07 dB -19.46 dB 17:59 04-Symphony No.6, Op.74 'Pathetique' - I. Adagio - Allegro non troppo
DR11 -5.14 dB -20.85 dB 8:06 05-Symphony No.6, Op.74 'Pathetique' - II. Allegro con grazia
DR12 -0.67 dB -16.82 dB 8:48 06-Symphony No.6, Op.74 'Pathetique' - III. Allegro molto vivace
DR11 -2.34 dB -19.80 dB 9:46 07-Symphony No.6, Op.74 'Pathetique' - IV. Finale.Adagio lamentoso
––––––––––––––––––––––––––––––––––––––––

Number of tracks: 7
Official DR value: DR12

Samplerate: 44100 Hz
Channels: 2
Bits per sample: 16
Bitrate: 589 kbps
Codec: FLAC
================================================================================

Sviatoslav Richter, Yevgeny Mravinsky, LPO - Tchaikovsky: Piano Concerto No.1; Symphony No.6 'Pathetique' (2012) [Re-Up]