Subcategories

Rickie Lee Jones - Original Album Series (2009) [5CDs] {Warner}

Posted By: tiburon
Rickie Lee Jones - Original Album Series (2009) [5CDs] {Warner}

Rickie Lee Jones - Original Album Series (2009) [5CDs] {Warner}
EAC 1.3 | FLAC tracks level 6 | Cue+Log+M3U | Full Scans 300dpi | 1.05GB + 5% Recovery
MP3 CBR 320 Kbps | 552MB + 5% Recovery
Genre: Rock, Pop, Soul, Singer-Songwriter
Rickie Lee Jones - Original Album Series (2009) [5CDs] {Warner}

This set collects five of Rickie Lee Jones' albums for Warner Bros., 1979's Rickie Lee Jones, 1981's Pirates, 1983's Girl at Her Volcano, 1984's The Magazine, and 1995's Naked Songs: Live and Acoustic, in a one-stop package, each album issued on CD as LP miniatures in facsimile cardboard sleeves.

Rickie Lee Jones - Original Album Series (2009) [5CDs] {Warner}

Disc 1 - Rickie Lee Jones (1979)


Track List
1. Chuck E.'s In Love (03:29)
2. On Saturday Afternoons In 1963 (02:32)
3. Night Train (03:15)
4. Young Blood (04:04)
5. Easy Money (03:24)
6. The Last Chance Texaco (04:08)
7. Danny's All-Star Joint (04:00)
8. Coolsville (03:49)
9. Weasel And The White Boys Cool (06:03)
10. Company (04:49)
11. After Hours (02:38)


Exact Audio Copy V1.3 from 2. September 2016

EAC extraction logfile from 10. December 2019, 20:22

Rickie Lee Jones / Original Album Series

Used drive : TSSTcorpCD/DVDW SH-S182D Adapter: 1 ID: 0

Read mode : Secure
Utilize accurate stream : Yes
Defeat audio cache : Yes
Make use of C2 pointers : No

Read offset correction : 6
Overread into Lead-In and Lead-Out : No
Fill up missing offset samples with silence : Yes
Delete leading and trailing silent blocks : No
Null samples used in CRC calculations : Yes
Used interface : Native Win32 interface for Win NT & 2000
Gap handling : Appended to previous track

Used output format : User Defined Encoder
Selected bitrate : 896 kBit/s
Quality : High
Add ID3 tag : No
Command line compressor : C:\Program Files (x86)\Exact Audio Copy\FLAC\FLAC.EXE
Additional command line options : -6 -V -T "ARTIST=%artist%" -T "TITLE=%title%" -T "ALBUM=%albumtitle%" -T "DATE=%year%" -T "TRACKNUMBER=%tracknr%" -T "GENRE=%genre%" -T "COMMENT=%comment%" -T "BAND=%albuminterpret%" -T "ALBUMARTIST=%albuminterpret%" -T "COMPOSER=%composer%" %haslyrics%–tag-from-file=LYRICS="%lyricsfile%"%haslyrics% -T "DISCNUMBER=%cdnumber%" -T "TOTALDISCS=%totalcds%" -T "TOTALTRACKS=%numtracks%" %hascover%–picture="%coverfile%"%hascover% %source% -o %dest%


TOC of the extracted CD

Track | Start | Length | Start sector | End sector
––––––––––––––––––––––––––––-
1 | 0:00.00 | 3:31.57 | 0 | 15881
2 | 3:31.57 | 2:35.33 | 15882 | 27539
3 | 6:07.15 | 3:18.62 | 27540 | 42451
4 | 9:26.02 | 4:07.58 | 42452 | 61034
5 | 13:33.60 | 3:20.15 | 61035 | 76049
6 | 16:54.00 | 4:08.12 | 76050 | 94661
7 | 21:02.12 | 4:06.43 | 94662 | 113154
8 | 25:08.55 | 3:52.57 | 113155 | 130611
9 | 29:01.37 | 6:03.58 | 130612 | 157894
10 | 35:05.20 | 4:54.55 | 157895 | 179999
11 | 40:00.00 | 2:14.12 | 180000 | 190061


Track 1

Filename F:\Lossless\New Rips\Rickie Lee Jones - Original Album Series (2009, 8122798381, CD)\CD1 - Rickie Lee Jones\01. Chuck E.'s in Love.wav

Pre-gap length 0:00:02.00

Peak level 96.7 %
Extraction speed 3.6 X
Track quality 99.9 %
Test CRC A3FBB2C2
Copy CRC A3FBB2C2
Accurately ripped (confidence 97) [37559127] (AR v2)
Copy OK

Track 2

Filename F:\Lossless\New Rips\Rickie Lee Jones - Original Album Series (2009, 8122798381, CD)\CD1 - Rickie Lee Jones\02. On Saturday Afternoons in 1963.wav

Pre-gap length 0:00:02.89

Peak level 71.8 %
Extraction speed 4.7 X
Track quality 100.0 %
Test CRC 211E7DF5
Copy CRC 211E7DF5
Accurately ripped (confidence 96) [E1E316FC] (AR v2)
Copy OK

Track 3

Filename F:\Lossless\New Rips\Rickie Lee Jones - Original Album Series (2009, 8122798381, CD)\CD1 - Rickie Lee Jones\03. Night Train.wav

Pre-gap length 0:00:02.93

Peak level 79.7 %
Extraction speed 5.2 X
Track quality 100.0 %
Test CRC 18DB9322
Copy CRC 18DB9322
Accurately ripped (confidence 96) [397912B3] (AR v2)
Copy OK

Track 4

Filename F:\Lossless\New Rips\Rickie Lee Jones - Original Album Series (2009, 8122798381, CD)\CD1 - Rickie Lee Jones\04. Young Blood.wav

Pre-gap length 0:00:02.80

Peak level 94.4 %
Extraction speed 5.7 X
Track quality 100.0 %
Test CRC E5BEA1FD
Copy CRC E5BEA1FD
Accurately ripped (confidence 97) [1689D873] (AR v2)
Copy OK

Track 5

Filename F:\Lossless\New Rips\Rickie Lee Jones - Original Album Series (2009, 8122798381, CD)\CD1 - Rickie Lee Jones\05. Easy Money.wav

Pre-gap length 0:00:03.30

Peak level 69.9 %
Extraction speed 5.1 X
Track quality 99.9 %
Test CRC 7C67C33D
Copy CRC 7C67C33D
Accurately ripped (confidence 96) [0F9467C7] (AR v2)
Copy OK

Track 6

Filename F:\Lossless\New Rips\Rickie Lee Jones - Original Album Series (2009, 8122798381, CD)\CD1 - Rickie Lee Jones\06. The Last Chance Texaco.wav

Pre-gap length 0:00:02.73

Peak level 100.0 %
Extraction speed 6.4 X
Track quality 100.0 %
Test CRC 69A44A44
Copy CRC 69A44A44
Accurately ripped (confidence 95) [A13DF3EC] (AR v2)
Copy OK

Track 7

Filename F:\Lossless\New Rips\Rickie Lee Jones - Original Album Series (2009, 8122798381, CD)\CD1 - Rickie Lee Jones\07. Danny's All-Star Joint.wav

Pre-gap length 0:00:02.73

Peak level 100.0 %
Extraction speed 6.6 X
Track quality 100.0 %
Test CRC 30382FD3
Copy CRC 30382FD3
Accurately ripped (confidence 97) [F96BE00D] (AR v2)
Copy OK

Track 8

Filename F:\Lossless\New Rips\Rickie Lee Jones - Original Album Series (2009, 8122798381, CD)\CD1 - Rickie Lee Jones\08. Coolsville.wav

Pre-gap length 0:00:05.97

Peak level 80.8 %
Extraction speed 6.1 X
Track quality 99.9 %
Test CRC CEF7986A
Copy CRC CEF7986A
Accurately ripped (confidence 96) [CA2F824A] (AR v2)
Copy OK

Track 9

Filename F:\Lossless\New Rips\Rickie Lee Jones - Original Album Series (2009, 8122798381, CD)\CD1 - Rickie Lee Jones\09. Weasel and the White Boys Cool.wav

Pre-gap length 0:00:03.37

Peak level 97.9 %
Extraction speed 7.7 X
Track quality 100.0 %
Test CRC 4F150C2D
Copy CRC 4F150C2D
Accurately ripped (confidence 96) [19B406AF] (AR v2)
Copy OK

Track 10

Filename F:\Lossless\New Rips\Rickie Lee Jones - Original Album Series (2009, 8122798381, CD)\CD1 - Rickie Lee Jones\10. Company.wav

Pre-gap length 0:00:03.66

Peak level 64.3 %
Extraction speed 7.8 X
Track quality 100.0 %
Test CRC 9FB6793B
Copy CRC 9FB6793B
Accurately ripped (confidence 96) [1CEB5CA8] (AR v2)
Copy OK

Track 11

Filename F:\Lossless\New Rips\Rickie Lee Jones - Original Album Series (2009, 8122798381, CD)\CD1 - Rickie Lee Jones\11. After Hours.wav

Pre-gap length 0:00:04.64

Peak level 52.5 %
Extraction speed 6.9 X
Track quality 100.0 %
Test CRC D1D8583F
Copy CRC D1D8583F
Accurately ripped (confidence 96) [24FFCE7E] (AR v2)
Copy OK


All tracks accurately ripped

No errors occurred

End of status report

–– AcoustID Plugin V1.2.0

Total fingerprints: 11


–– CUETools DB Plugin V2.1.6

[CTDB TOCID: wxfRdL9YEFRZPb9e5KIs9C0UVNA-] found
Submit result: wxfRdL9YEFRZPb9e5KIs9C0UVNA- has been confirmed
Track | CTDB Status
1 | (501/510) Accurately ripped
2 | (506/510) Accurately ripped
3 | (507/510) Accurately ripped
4 | (508/510) Accurately ripped
5 | (506/510) Accurately ripped
6 | (506/510) Accurately ripped
7 | (506/510) Accurately ripped
8 | (505/510) Accurately ripped
9 | (504/510) Accurately ripped
10 | (502/510) Accurately ripped
11 | (507/510) Accurately ripped


==== Log checksum A8D5C6A2D31149E587DA4E468150B47422A12952CF0F391420A2D8C8D034BF6C ====


foobar2000 1.3.13 / Dynamic Range Meter 1.1.1
log date: 2020-04-07 17:45:06

––––––––––––––––––––––––––––––––––––––––
Analyzed: Rickie Lee Jones / Original Album Series
––––––––––––––––––––––––––––––––––––––––

DR Peak RMS Duration Track
––––––––––––––––––––––––––––––––––––––––
DR15 -0.29 dB -18.70 dB 3:32 01-Chuck E.'s in Love
DR16 -2.87 dB -25.61 dB 2:35 02-On Saturday Afternoons in 1963
DR13 -1.97 dB -19.65 dB 3:19 03-Night Train
DR13 -0.49 dB -16.98 dB 4:08 04-Young Blood
DR16 -3.10 dB -22.70 dB 3:20 05-Easy Money
DR15 0.00 dB -19.40 dB 4:08 06-The Last Chance Texaco
DR16 0.00 dB -18.84 dB 4:07 07-Danny's All-Star Joint
DR16 -1.85 dB -23.82 dB 3:53 08-Coolsville
DR16 -0.18 dB -19.11 dB 6:04 09-Weasel and the White Boys Cool
DR12 -3.83 dB -21.37 dB 4:55 10-Company
DR13 -5.58 dB -28.57 dB 2:14 11-After Hours
––––––––––––––––––––––––––––––––––––––––

Number of tracks: 11
Official DR value: DR15

Samplerate: 44100 Hz
Channels: 2
Bits per sample: 16
Bitrate: 438 kbps
Codec: FLAC
================================================================================


Rickie Lee Jones - Original Album Series (2009) [5CDs] {Warner}

Disc 2 - Pirates (1981)


Track List
1. We Belong Together
2. Living It Up
3. Skeletons
4. Woody And Dutch On The Slow Train To Peking
5. Pirates (So Long Lonely Avenue)
6. A Lucky Guy
7. Traces Of The Western Slopes
8. The Returns


Exact Audio Copy V1.3 from 2. September 2016

EAC extraction logfile from 10. December 2019, 21:03

Rickie Lee Jones / Original Album Series

Used drive : ASUS DRW-24D5MT Adapter: 1 ID: 1

Read mode : Secure
Utilize accurate stream : Yes
Defeat audio cache : Yes
Make use of C2 pointers : No

Read offset correction : 6
Overread into Lead-In and Lead-Out : No
Fill up missing offset samples with silence : Yes
Delete leading and trailing silent blocks : No
Null samples used in CRC calculations : Yes
Used interface : Native Win32 interface for Win NT & 2000
Gap handling : Appended to previous track

Used output format : User Defined Encoder
Selected bitrate : 896 kBit/s
Quality : High
Add ID3 tag : No
Command line compressor : C:\Program Files (x86)\Exact Audio Copy\FLAC\FLAC.EXE
Additional command line options : -6 -V -T "ARTIST=%artist%" -T "TITLE=%title%" -T "ALBUM=%albumtitle%" -T "DATE=%year%" -T "TRACKNUMBER=%tracknr%" -T "GENRE=%genre%" -T "COMMENT=%comment%" -T "BAND=%albuminterpret%" -T "ALBUMARTIST=%albuminterpret%" -T "COMPOSER=%composer%" %haslyrics%–tag-from-file=LYRICS="%lyricsfile%"%haslyrics% -T "DISCNUMBER=%cdnumber%" -T "TOTALDISCS=%totalcds%" -T "TOTALTRACKS=%numtracks%" %hascover%–picture="%coverfile%"%hascover% %source% -o %dest%


TOC of the extracted CD

Track | Start | Length | Start sector | End sector
––––––––––––––––––––––––––––-
1 | 0:00.00 | 5:05.57 | 0 | 22931
2 | 5:05.57 | 6:26.18 | 22932 | 51899
3 | 11:32.00 | 3:40.37 | 51900 | 68436
4 | 15:12.37 | 5:17.73 | 68437 | 92284
5 | 20:30.35 | 3:55.72 | 92285 | 109981
6 | 24:26.32 | 4:20.38 | 109982 | 129519
7 | 28:46.70 | 8:00.40 | 129520 | 165559
8 | 36:47.35 | 2:19.55 | 165560 | 176039


Track 1

Filename F:\Lossless\New Rips\Rickie Lee Jones - Original Album Series (2009, 8122798381, CD)\CD2 - Pirates\01. We Belong Together.wav

Pre-gap length 0:00:02.00

Peak level 84.3 %
Extraction speed 4.5 X
Track quality 99.9 %
Test CRC 85304F4A
Copy CRC 85304F4A
Accurately ripped (confidence 99) [4F690E1F] (AR v2)
Copy OK

Track 2

Filename F:\Lossless\New Rips\Rickie Lee Jones - Original Album Series (2009, 8122798381, CD)\CD2 - Pirates\02. Living It Up.wav

Pre-gap length 0:00:04.56

Peak level 77.2 %
Extraction speed 5.7 X
Track quality 100.0 %
Test CRC C384A369
Copy CRC C384A369
Accurately ripped (confidence 99) [B28DEA69] (AR v2)
Copy OK

Track 3

Filename F:\Lossless\New Rips\Rickie Lee Jones - Original Album Series (2009, 8122798381, CD)\CD2 - Pirates\03. Skeletons.wav

Pre-gap length 0:00:02.24

Peak level 35.9 %
Extraction speed 5.8 X
Track quality 100.0 %
Test CRC E75E5BF2
Copy CRC E75E5BF2
Accurately ripped (confidence 99) [83777319] (AR v2)
Copy OK

Track 4

Filename F:\Lossless\New Rips\Rickie Lee Jones - Original Album Series (2009, 8122798381, CD)\CD2 - Pirates\04. Woody and Dutch on the Slow Train to Peking.wav

Pre-gap length 0:00:03.29

Peak level 78.2 %
Extraction speed 6.5 X
Track quality 100.0 %
Test CRC 551BC2E0
Copy CRC 551BC2E0
Accurately ripped (confidence 98) [A0C2BA10] (AR v2)
Copy OK

Track 5

Filename F:\Lossless\New Rips\Rickie Lee Jones - Original Album Series (2009, 8122798381, CD)\CD2 - Pirates\05. Pirates (So long Lonely Avenue).wav

Pre-gap length 0:00:01.92

Peak level 80.2 %
Extraction speed 6.6 X
Track quality 100.0 %
Test CRC 290A2BAF
Copy CRC 290A2BAF
Accurately ripped (confidence 99) [B9BD6D1F] (AR v2)
Copy OK

Track 6

Filename F:\Lossless\New Rips\Rickie Lee Jones - Original Album Series (2009, 8122798381, CD)\CD2 - Pirates\06. A Lucky Guy.wav

Pre-gap length 0:00:04.29

Peak level 60.8 %
Extraction speed 7.0 X
Track quality 100.0 %
Test CRC F0F9AFDD
Copy CRC F0F9AFDD
Accurately ripped (confidence 99) [BFFFA1F5] (AR v2)
Copy OK

Track 7

Filename F:\Lossless\New Rips\Rickie Lee Jones - Original Album Series (2009, 8122798381, CD)\CD2 - Pirates\07. Traces of the Western Slopes.wav

Pre-gap length 0:00:05.93

Peak level 88.0 %
Extraction speed 7.8 X
Track quality 100.0 %
Test CRC 00D33705
Copy CRC 00D33705
Accurately ripped (confidence 99) [CCC5A26D] (AR v2)
Copy OK

Track 8

Filename F:\Lossless\New Rips\Rickie Lee Jones - Original Album Series (2009, 8122798381, CD)\CD2 - Pirates\08. The Returns.wav

Pre-gap length 0:00:00.60

Peak level 24.3 %
Extraction speed 6.7 X
Track quality 100.0 %
Test CRC BEEA5B28
Copy CRC BEEA5B28
Accurately ripped (confidence 97) [6FE2D2EA] (AR v2)
Copy OK


All tracks accurately ripped

No errors occurred

End of status report

–– AcoustID Plugin V1.2.0

Total fingerprints: 8


–– CUETools DB Plugin V2.1.6

[CTDB TOCID: EQPJD_lox4JgvqriM1tJ6dVObIE-] found
Submit result: EQPJD_lox4JgvqriM1tJ6dVObIE- has been confirmed
Track | CTDB Status
1 | (319/327) Accurately ripped
2 | (325/327) Accurately ripped
3 | (324/327) Accurately ripped
4 | (324/327) Accurately ripped
5 | (324/327) Accurately ripped
6 | (325/327) Accurately ripped
7 | (324/327) Accurately ripped
8 | (322/327) Accurately ripped


==== Log checksum F3D9930764B777B004653AAA74598546A532AC82F5572C42FF0C52D1CDC23068 ====


foobar2000 1.3.13 / Dynamic Range Meter 1.1.1
log date: 2020-04-07 17:51:25

––––––––––––––––––––––––––––––––––––––––
Analyzed: Rickie Lee Jones / Original Album Series
––––––––––––––––––––––––––––––––––––––––

DR Peak RMS Duration Track
––––––––––––––––––––––––––––––––––––––––
DR16 -1.47 dB -23.11 dB 5:06 01-We Belong Together
DR14 -2.24 dB -21.34 dB 6:26 02-Living It Up
DR14 -8.89 dB -30.12 dB 3:40 03-Skeletons
DR15 -2.13 dB -21.04 dB 5:18 04-Woody and Dutch on the Slow Train to Peking
DR14 -1.91 dB -21.05 dB 3:56 05-Pirates (So long Lonely Avenue)
DR14 -4.32 dB -23.19 dB 4:21 06-A Lucky Guy
DR18 -1.11 dB -23.91 dB 8:01 07-Traces of the Western Slopes
DR14 -12.28 dB -32.35 dB 2:20 08-The Returns
––––––––––––––––––––––––––––––––––––––––

Number of tracks: 8
Official DR value: DR15

Samplerate: 44100 Hz
Channels: 2
Bits per sample: 16
Bitrate: 449 kbps
Codec: FLAC
================================================================================


Rickie Lee Jones - Original Album Series (2009) [5CDs] {Warner}

Disc 3 - Girl At Her Volcano (1983)


Track List
1. Lush Life
2. Letters From The 9th Ward / Walk Away Rene
3. Hey, Bub
4. My Funny Valentine
5. Under The Boardwalk
6. Rainbow Sleeves
7. So Long


Exact Audio Copy V1.3 from 2. September 2016

EAC extraction logfile from 10. December 2019, 21:45

Rickie Lee Jones / Original Album Series

Used drive : ASUS DRW-24D5MT Adapter: 1 ID: 1

Read mode : Secure
Utilize accurate stream : Yes
Defeat audio cache : Yes
Make use of C2 pointers : No

Read offset correction : 6
Overread into Lead-In and Lead-Out : No
Fill up missing offset samples with silence : Yes
Delete leading and trailing silent blocks : No
Null samples used in CRC calculations : Yes
Used interface : Native Win32 interface for Win NT & 2000
Gap handling : Appended to previous track

Used output format : User Defined Encoder
Selected bitrate : 896 kBit/s
Quality : High
Add ID3 tag : No
Command line compressor : C:\Program Files (x86)\Exact Audio Copy\FLAC\FLAC.EXE
Additional command line options : -6 -V -T "ARTIST=%artist%" -T "TITLE=%title%" -T "ALBUM=%albumtitle%" -T "DATE=%year%" -T "TRACKNUMBER=%tracknr%" -T "GENRE=%genre%" -T "COMMENT=%comment%" -T "BAND=%albuminterpret%" -T "ALBUMARTIST=%albuminterpret%" -T "COMPOSER=%composer%" %haslyrics%–tag-from-file=LYRICS="%lyricsfile%"%haslyrics% -T "DISCNUMBER=%cdnumber%" -T "TOTALDISCS=%totalcds%" -T "TOTALTRACKS=%numtracks%" %hascover%–picture="%coverfile%"%hascover% %source% -o %dest%


TOC of the extracted CD

Track | Start | Length | Start sector | End sector
––––––––––––––––––––––––––––-
1 | 0:00.00 | 5:27.72 | 0 | 24596
2 | 5:27.72 | 4:28.24 | 24597 | 44720
3 | 9:56.21 | 2:20.51 | 44721 | 55271
4 | 12:16.72 | 3:50.17 | 55272 | 72538
5 | 16:07.14 | 3:22.47 | 72539 | 87735
6 | 19:29.61 | 3:41.20 | 87736 | 104330
7 | 23:11.06 | 2:04.54 | 104331 | 113684


Track 1

Filename F:\Lossless\New Rips\Rickie Lee Jones - Original Album Series (2009, 8122798381, CD)\CD3 - Girl At Her Volcano\01. Lush Life.wav

Pre-gap length 0:00:02.00

Peak level 64.4 %
Extraction speed 5.0 X
Track quality 100.0 %
Test CRC 8698F83B
Copy CRC 8698F83B
Accurately ripped (confidence 112) [F6D0F329] (AR v2)
Copy OK

Track 2

Filename F:\Lossless\New Rips\Rickie Lee Jones - Original Album Series (2009, 8122798381, CD)\CD3 - Girl At Her Volcano\02. Letters From the 9th Ward , Walk Away Rene.wav

Pre-gap length 0:00:02.22

Peak level 86.5 %
Extraction speed 5.4 X
Track quality 100.0 %
Test CRC FF0A0C1B
Copy CRC FF0A0C1B
Accurately ripped (confidence 113) [72A97063] (AR v2)
Copy OK

Track 3

Filename F:\Lossless\New Rips\Rickie Lee Jones - Original Album Series (2009, 8122798381, CD)\CD3 - Girl At Her Volcano\03. Hey, Bub.wav

Pre-gap length 0:00:02.70

Peak level 52.4 %
Extraction speed 5.2 X
Track quality 100.0 %
Test CRC A7CBA36F
Copy CRC A7CBA36F
Accurately ripped (confidence 114) [E2F9F2AB] (AR v2)
Copy OK

Track 4

Filename F:\Lossless\New Rips\Rickie Lee Jones - Original Album Series (2009, 8122798381, CD)\CD3 - Girl At Her Volcano\04. My Funny Valentine.wav

Peak level 61.2 %
Extraction speed 5.9 X
Track quality 100.0 %
Test CRC 0538F3D5
Copy CRC 0538F3D5
Accurately ripped (confidence 112) [B83B3F71] (AR v2)
Copy OK

Track 5

Filename F:\Lossless\New Rips\Rickie Lee Jones - Original Album Series (2009, 8122798381, CD)\CD3 - Girl At Her Volcano\05. Under the Boardwalk.wav

Pre-gap length 0:00:03.36

Peak level 94.0 %
Extraction speed 6.1 X
Track quality 100.0 %
Test CRC D44DEA71
Copy CRC D44DEA71
Accurately ripped (confidence 113) [2D7984EA] (AR v2)
Copy OK

Track 6

Filename F:\Lossless\New Rips\Rickie Lee Jones - Original Album Series (2009, 8122798381, CD)\CD3 - Girl At Her Volcano\06. Rainbow Sleeves.wav

Pre-gap length 0:00:01.81

Peak level 66.9 %
Extraction speed 6.5 X
Track quality 100.0 %
Test CRC 98E4C4B3
Copy CRC 98E4C4B3
Accurately ripped (confidence 112) [BCB99E2F] (AR v2)
Copy OK

Track 7

Filename F:\Lossless\New Rips\Rickie Lee Jones - Original Album Series (2009, 8122798381, CD)\CD3 - Girl At Her Volcano\07. So Long.wav

Pre-gap length 0:00:01.68

Peak level 43.5 %
Extraction speed 6.0 X
Track quality 100.0 %
Test CRC 044ACA28
Copy CRC 044ACA28
Accurately ripped (confidence 112) [AE47EFEC] (AR v2)
Copy OK


All tracks accurately ripped

No errors occurred

End of status report

–– AcoustID Plugin V1.2.0

Total fingerprints: 7


–– CUETools DB Plugin V2.1.6

[CTDB TOCID: .7fbybHGiMdW1nVEPvlvkSdmIiM-] found
Submit result: .7fbybHGiMdW1nVEPvlvkSdmIiM- has been confirmed
Track | CTDB Status
1 | (138/138) Accurately ripped
2 | (138/138) Accurately ripped
3 | (138/138) Accurately ripped
4 | (137/138) Accurately ripped
5 | (137/138) Accurately ripped
6 | (137/138) Accurately ripped
7 | (133/138) Accurately ripped, or (2/138) differs in 2556 samples @02:04:36-02:04:38


==== Log checksum B6E399CAA423E3473531A08147FCEC11E5B1F2972C258CD55E7A1422BB667F98 ====


foobar2000 1.3.13 / Dynamic Range Meter 1.1.1
log date: 2020-04-07 17:56:43

––––––––––––––––––––––––––––––––––––––––
Analyzed: Rickie Lee Jones / Original Album Series
––––––––––––––––––––––––––––––––––––––––

DR Peak RMS Duration Track
––––––––––––––––––––––––––––––––––––––––
DR17 -3.81 dB -26.85 dB 5:28 01-Lush Life
DR15 -1.26 dB -22.26 dB 4:28 02-Letters From the 9th Ward / Walk Away Rene
DR17 -5.60 dB -28.52 dB 2:21 03-Hey, Bub
DR15 -4.26 dB -26.45 dB 3:50 04-My Funny Valentine
DR17 -0.53 dB -22.13 dB 3:23 05-Under the Boardwalk
DR12 -3.48 dB -22.88 dB 3:41 06-Rainbow Sleeves
DR13 -7.23 dB -24.58 dB 2:05 07-So Long
––––––––––––––––––––––––––––––––––––––––

Number of tracks: 7
Official DR value: DR15

Samplerate: 44100 Hz
Channels: 2
Bits per sample: 16
Bitrate: 566 kbps
Codec: FLAC
================================================================================


Rickie Lee Jones - Original Album Series (2009) [5CDs] {Warner}

Disc 4 - The Magazine (1984)


Track List
1. Prelude To Gravity
2. Gravity
3. Juke Box Fury
4. It Must Be Love
5. Magazine
6. The Real End
7. Deep Space
8. Runaround Rorschachs
9. Theme For The Pope


Exact Audio Copy V1.3 from 2. September 2016

EAC extraction logfile from 10. December 2019, 21:45

Rickie Lee Jones / Original Album Series

Used drive : TSSTcorpCD/DVDW SH-S182D Adapter: 1 ID: 0

Read mode : Secure
Utilize accurate stream : Yes
Defeat audio cache : Yes
Make use of C2 pointers : No

Read offset correction : 6
Overread into Lead-In and Lead-Out : No
Fill up missing offset samples with silence : Yes
Delete leading and trailing silent blocks : No
Null samples used in CRC calculations : Yes
Used interface : Native Win32 interface for Win NT & 2000
Gap handling : Appended to previous track

Used output format : User Defined Encoder
Selected bitrate : 896 kBit/s
Quality : High
Add ID3 tag : No
Command line compressor : C:\Program Files (x86)\Exact Audio Copy\FLAC\FLAC.EXE
Additional command line options : -6 -V -T "ARTIST=%artist%" -T "TITLE=%title%" -T "ALBUM=%albumtitle%" -T "DATE=%year%" -T "TRACKNUMBER=%tracknr%" -T "GENRE=%genre%" -T "COMMENT=%comment%" -T "BAND=%albuminterpret%" -T "ALBUMARTIST=%albuminterpret%" -T "COMPOSER=%composer%" %haslyrics%–tag-from-file=LYRICS="%lyricsfile%"%haslyrics% -T "DISCNUMBER=%cdnumber%" -T "TOTALDISCS=%totalcds%" -T "TOTALTRACKS=%numtracks%" %hascover%–picture="%coverfile%"%hascover% %source% -o %dest%


TOC of the extracted CD

Track | Start | Length | Start sector | End sector
––––––––––––––––––––––––––––-
1 | 0:00.00 | 2:50.35 | 0 | 12784
2 | 2:50.35 | 4:48.43 | 12785 | 34427
3 | 7:39.03 | 4:12.67 | 34428 | 53394
4 | 11:51.70 | 4:59.35 | 53395 | 75854
5 | 16:51.30 | 4:45.43 | 75855 | 97272
6 | 21:36.73 | 5:04.10 | 97273 | 120082
7 | 26:41.08 | 3:13.52 | 120083 | 134609
8 | 29:54.60 | 4:59.60 | 134610 | 157094
9 | 34:54.45 | 3:20.70 | 157095 | 172164
10 | 38:15.40 | 4:51.43 | 172165 | 194032


Track 1

Filename F:\Lossless\New Rips\Rickie Lee Jones - Original Album Series (2009, 8122798381, CD)\CD4 - The Magazine\01. Prelude to Gravity.wav

Pre-gap length 0:00:02.00

Peak level 24.1 %
Extraction speed 4.5 X
Track quality 100.0 %
Test CRC 4442BA7C
Copy CRC 4442BA7C
Accurately ripped (confidence 108) [7727331F] (AR v2)
Copy OK

Track 2

Filename F:\Lossless\New Rips\Rickie Lee Jones - Original Album Series (2009, 8122798381, CD)\CD4 - The Magazine\02. Gravity.wav

Pre-gap length 0:00:01.26

Peak level 80.2 %
Extraction speed 5.3 X
Track quality 100.0 %
Test CRC 9F73DFDA
Copy CRC 9F73DFDA
Accurately ripped (confidence 108) [9CF70A79] (AR v2)
Copy OK

Track 3

Filename F:\Lossless\New Rips\Rickie Lee Jones - Original Album Series (2009, 8122798381, CD)\CD4 - The Magazine\03. Juke Box Fury.wav

Pre-gap length 0:00:03.89

Peak level 76.4 %
Extraction speed 5.6 X
Track quality 100.0 %
Test CRC 3E475DDC
Copy CRC 3E475DDC
Accurately ripped (confidence 109) [4A25E13C] (AR v2)
Copy OK

Track 4

Filename F:\Lossless\New Rips\Rickie Lee Jones - Original Album Series (2009, 8122798381, CD)\CD4 - The Magazine\04. It Must Be Love.wav

Pre-gap length 0:00:01.66

Peak level 57.2 %
Extraction speed 5.5 X
Track quality 99.9 %
Test CRC E2A64AB2
Copy CRC E2A64AB2
Accurately ripped (confidence 109) [34960769] (AR v2)
Copy OK

Track 5

Filename F:\Lossless\New Rips\Rickie Lee Jones - Original Album Series (2009, 8122798381, CD)\CD4 - The Magazine\05. Magazine.wav

Pre-gap length 0:00:03.73

Peak level 64.5 %
Extraction speed 6.6 X
Track quality 100.0 %
Test CRC 7D261F69
Copy CRC 7D261F69
Accurately ripped (confidence 108) [85F45A06] (AR v2)
Copy OK

Track 6

Filename F:\Lossless\New Rips\Rickie Lee Jones - Original Album Series (2009, 8122798381, CD)\CD4 - The Magazine\06. The Real End.wav

Pre-gap length 0:00:03.53

Peak level 73.4 %
Extraction speed 6.3 X
Track quality 99.9 %
Test CRC DAE8FC0C
Copy CRC DAE8FC0C
Accurately ripped (confidence 109) [0AD3CB26] (AR v2)
Copy OK

Track 7

Filename F:\Lossless\New Rips\Rickie Lee Jones - Original Album Series (2009, 8122798381, CD)\CD4 - The Magazine\07. Deep Space.wav

Pre-gap length 0:00:03.60

Peak level 28.8 %
Extraction speed 6.8 X
Track quality 100.0 %
Test CRC A1B8E2CF
Copy CRC A1B8E2CF
Accurately ripped (confidence 108) [DB88B5B2] (AR v2)
Copy OK

Track 8

Filename F:\Lossless\New Rips\Rickie Lee Jones - Original Album Series (2009, 8122798381, CD)\CD4 - The Magazine\08. Runaround.wav

Pre-gap length 0:00:02.53

Peak level 78.0 %
Extraction speed 6.8 X
Track quality 99.9 %
Test CRC 66F743B7
Copy CRC 66F743B7
Accurately ripped (confidence 108) [B1DF5DF1] (AR v2)
Copy OK

Track 9

Filename F:\Lossless\New Rips\Rickie Lee Jones - Original Album Series (2009, 8122798381, CD)\CD4 - The Magazine\09. Rorschachs- Theme for the Pope.wav

Pre-gap length 0:00:03.20

Peak level 35.9 %
Extraction speed 7.3 X
Track quality 100.0 %
Test CRC CA7CE6D3
Copy CRC CA7CE6D3
Accurately ripped (confidence 109) [BEF8983E] (AR v2)
Copy OK

Track 10

Filename F:\Lossless\New Rips\Rickie Lee Jones - Original Album Series (2009, 8122798381, CD)\CD4 - The Magazine\10. Rorschachs- A) The Unsigned Painting B) The Weird Beast.wav

Pre-gap length 0:00:02.16

Peak level 42.4 %
Extraction speed 8.0 X
Track quality 100.0 %
Test CRC 3DF9DD4A
Copy CRC 3DF9DD4A
Accurately ripped (confidence 107) [DCDB1DFA] (AR v2)
Copy OK


All tracks accurately ripped

No errors occurred

End of status report

–– AcoustID Plugin V1.2.0

Total fingerprints: 10


–– CUETools DB Plugin V2.1.6

[CTDB TOCID: LZPpBGJ6weQFqW5dPGPwHQ5TaGw-] found
Submit result: LZPpBGJ6weQFqW5dPGPwHQ5TaGw- has been confirmed
Track | CTDB Status
1 | (264/268) Accurately ripped
2 | (266/268) Accurately ripped
3 | (266/268) Accurately ripped
4 | (262/268) Accurately ripped
5 | (265/268) Accurately ripped
6 | (264/268) Accurately ripped
7 | (262/268) Accurately ripped
8 | (266/268) Accurately ripped
9 | (264/268) Accurately ripped
10 | (262/268) Accurately ripped


==== Log checksum 1F8DC3762C131C3D94AB70B0EF9883C6E6B971CCCC1271AAC8DD2850165E143D ====


foobar2000 1.3.13 / Dynamic Range Meter 1.1.1
log date: 2020-04-07 18:01:51

––––––––––––––––––––––––––––––––––––––––
Analyzed: Rickie Lee Jones / Original Album Series
––––––––––––––––––––––––––––––––––––––––

DR Peak RMS Duration Track
––––––––––––––––––––––––––––––––––––––––
DR16 -12.36 dB -33.26 dB 2:50 01-Prelude to Gravity
DR17 -1.91 dB -23.22 dB 4:49 02-Gravity
DR15 -2.33 dB -20.76 dB 4:13 03-Juke Box Fury
DR14 -4.85 dB -23.72 dB 4:59 04-It Must Be Love
DR16 -3.80 dB -26.12 dB 4:46 05-Magazine
DR15 -2.68 dB -21.63 dB 5:04 06-The Real End
DR16 -10.81 dB -32.65 dB 3:14 07-Deep Space
DR16 -2.15 dB -22.23 dB 5:00 08-Runaround
DR16 -8.89 dB -28.90 dB 3:21 09-Rorschachs: Theme for the Pope
DR17 -7.43 dB -31.25 dB 4:52 10-Rorschachs: A) The Unsigned Painting B) The Weird Beast
––––––––––––––––––––––––––––––––––––––––

Number of tracks: 10
Official DR value: DR16

Samplerate: 44100 Hz
Channels: 2
Bits per sample: 16
Bitrate: 473 kbps
Codec: FLAC
================================================================================


Rickie Lee Jones - Original Album Series (2009) [5CDs] {Warner}

Disc 5 - Naked Songs (1995)


Track List
1. The Horses
2. Weasel And The White Boys Cool
3. Altar Boy
4. It Must Be Love
5. Young Blood
6. The Last Chance Texaco
7. Skeletons
8. Magazine
9. Living It Up
10. We Belong Together
11. Coolsville
12. Flying Cowboys
13. Stewart's Coat
14. Chuck E.'s In Love
15. Autumn Leaves


Exact Audio Copy V1.3 from 2. September 2016

EAC extraction logfile from 10. December 2019, 22:43

Rickie Lee Jones / Original Album Series

Used drive : ASUS DRW-24D5MT Adapter: 1 ID: 1

Read mode : Secure
Utilize accurate stream : Yes
Defeat audio cache : Yes
Make use of C2 pointers : No

Read offset correction : 6
Overread into Lead-In and Lead-Out : No
Fill up missing offset samples with silence : Yes
Delete leading and trailing silent blocks : No
Null samples used in CRC calculations : Yes
Used interface : Native Win32 interface for Win NT & 2000
Gap handling : Appended to previous track

Used output format : User Defined Encoder
Selected bitrate : 896 kBit/s
Quality : High
Add ID3 tag : No
Command line compressor : C:\Program Files (x86)\Exact Audio Copy\FLAC\FLAC.EXE
Additional command line options : -6 -V -T "ARTIST=%artist%" -T "TITLE=%title%" -T "ALBUM=%albumtitle%" -T "DATE=%year%" -T "TRACKNUMBER=%tracknr%" -T "GENRE=%genre%" -T "COMMENT=%comment%" -T "BAND=%albuminterpret%" -T "ALBUMARTIST=%albuminterpret%" -T "COMPOSER=%composer%" %haslyrics%–tag-from-file=LYRICS="%lyricsfile%"%haslyrics% -T "DISCNUMBER=%cdnumber%" -T "TOTALDISCS=%totalcds%" -T "TOTALTRACKS=%numtracks%" %hascover%–picture="%coverfile%"%hascover% %source% -o %dest%


TOC of the extracted CD

Track | Start | Length | Start sector | End sector
––––––––––––––––––––––––––––-
1 | 0:00.00 | 4:48.60 | 0 | 21659
2 | 4:48.60 | 5:13.62 | 21660 | 45196
3 | 10:02.47 | 2:40.20 | 45197 | 57216
4 | 12:42.67 | 4:47.10 | 57217 | 78751
5 | 17:30.02 | 3:28.73 | 78752 | 94424
6 | 20:59.00 | 4:24.65 | 94425 | 114289
7 | 25:23.65 | 3:41.12 | 114290 | 130876
8 | 29:05.02 | 4:39.10 | 130877 | 151811
9 | 33:44.12 | 6:53.65 | 151812 | 182851
10 | 40:38.02 | 4:59.15 | 182852 | 205291
11 | 45:37.17 | 5:08.65 | 205292 | 228456
12 | 50:46.07 | 5:37.05 | 228457 | 253736
13 | 56:23.12 | 4:04.45 | 253737 | 272081
14 | 60:27.57 | 3:52.20 | 272082 | 289501
15 | 64:20.02 | 5:06.08 | 289502 | 312459


Track 1

Filename F:\Lossless\New Rips\Rickie Lee Jones - Original Album Series (2009, 8122798381, CD)\CD5 - Naked Songs\01. The Horses.wav

Pre-gap length 0:00:02.00

Peak level 100.0 %
Extraction speed 4.4 X
Track quality 99.9 %
Test CRC E4B9D12A
Copy CRC E4B9D12A
Accurately ripped (confidence 104) [94816456] (AR v2)
Copy OK

Track 2

Filename F:\Lossless\New Rips\Rickie Lee Jones - Original Album Series (2009, 8122798381, CD)\CD5 - Naked Songs\02. Weasel and the White Boys Cool.wav

Peak level 100.0 %
Extraction speed 5.5 X
Track quality 100.0 %
Test CRC 05D289C9
Copy CRC 05D289C9
Accurately ripped (confidence 105) [B5AD244E] (AR v2)
Copy OK

Track 3

Filename F:\Lossless\New Rips\Rickie Lee Jones - Original Album Series (2009, 8122798381, CD)\CD5 - Naked Songs\03. Altar Boy.wav

Peak level 96.3 %
Extraction speed 5.3 X
Track quality 100.0 %
Test CRC 72BD68FA
Copy CRC 72BD68FA
Accurately ripped (confidence 105) [AF1B94D7] (AR v2)
Copy OK

Track 4

Filename F:\Lossless\New Rips\Rickie Lee Jones - Original Album Series (2009, 8122798381, CD)\CD5 - Naked Songs\04. It Must Be Love.wav

Peak level 100.0 %
Extraction speed 5.5 X
Track quality 99.9 %
Test CRC E4531A02
Copy CRC E4531A02
Accurately ripped (confidence 104) [ACCEF665] (AR v2)
Copy OK

Track 5

Filename F:\Lossless\New Rips\Rickie Lee Jones - Original Album Series (2009, 8122798381, CD)\CD5 - Naked Songs\05. Young Blood.wav

Peak level 100.0 %
Extraction speed 6.2 X
Track quality 100.0 %
Test CRC 55BFDDA6
Copy CRC 55BFDDA6
Accurately ripped (confidence 103) [D997DFB7] (AR v2)
Copy OK

Track 6

Filename F:\Lossless\New Rips\Rickie Lee Jones - Original Album Series (2009, 8122798381, CD)\CD5 - Naked Songs\06. The Last Chance Texaco.wav

Peak level 99.9 %
Extraction speed 6.8 X
Track quality 100.0 %
Test CRC 66BA735F
Copy CRC 66BA735F
Accurately ripped (confidence 103) [0BFF15D6] (AR v2)
Copy OK

Track 7

Filename F:\Lossless\New Rips\Rickie Lee Jones - Original Album Series (2009, 8122798381, CD)\CD5 - Naked Songs\07. Skeletons.wav

Peak level 100.0 %
Extraction speed 6.8 X
Track quality 100.0 %
Test CRC 939470EE
Copy CRC 939470EE
Accurately ripped (confidence 104) [93FD21E8] (AR v2)
Copy OK

Track 8

Filename F:\Lossless\New Rips\Rickie Lee Jones - Original Album Series (2009, 8122798381, CD)\CD5 - Naked Songs\08. Magazine.wav

Peak level 99.9 %
Extraction speed 7.4 X
Track quality 100.0 %
Test CRC AF2E93A2
Copy CRC AF2E93A2
Accurately ripped (confidence 103) [36B82FBC] (AR v2)
Copy OK

Track 9

Filename F:\Lossless\New Rips\Rickie Lee Jones - Original Album Series (2009, 8122798381, CD)\CD5 - Naked Songs\09. Living It Up.wav

Peak level 100.0 %
Extraction speed 8.0 X
Track quality 100.0 %
Test CRC 39A46F9D
Copy CRC 39A46F9D
Accurately ripped (confidence 104) [2812CE21] (AR v2)
Copy OK

Track 10

Filename F:\Lossless\New Rips\Rickie Lee Jones - Original Album Series (2009, 8122798381, CD)\CD5 - Naked Songs\10. We Belong Together.wav

Peak level 100.0 %
Extraction speed 8.2 X
Track quality 100.0 %
Test CRC 8951BBBA
Copy CRC 8951BBBA
Accurately ripped (confidence 104) [68C6FB91] (AR v2)
Copy OK

Track 11

Filename F:\Lossless\New Rips\Rickie Lee Jones - Original Album Series (2009, 8122798381, CD)\CD5 - Naked Songs\11. Coolsville.wav

Peak level 100.0 %
Extraction speed 8.5 X
Track quality 100.0 %
Test CRC D287C852
Copy CRC D287C852
Accurately ripped (confidence 104) [A01DEA83] (AR v2)
Copy OK

Track 12

Filename F:\Lossless\New Rips\Rickie Lee Jones - Original Album Series (2009, 8122798381, CD)\CD5 - Naked Songs\12. Flying Cowboys.wav

Peak level 99.9 %
Extraction speed 8.9 X
Track quality 100.0 %
Test CRC 37674C31
Copy CRC 37674C31
Accurately ripped (confidence 104) [CE35FA10] (AR v2)
Copy OK

Track 13

Filename F:\Lossless\New Rips\Rickie Lee Jones - Original Album Series (2009, 8122798381, CD)\CD5 - Naked Songs\13. Stewart's Coat.wav

Peak level 100.0 %
Extraction speed 8.8 X
Track quality 100.0 %
Test CRC 27BC91E3
Copy CRC 27BC91E3
Accurately ripped (confidence 104) [B500A01A] (AR v2)
Copy OK

Track 14

Filename F:\Lossless\New Rips\Rickie Lee Jones - Original Album Series (2009, 8122798381, CD)\CD5 - Naked Songs\14. Chuck E.'s in Love.wav

Peak level 100.0 %
Extraction speed 9.0 X
Track quality 100.0 %
Test CRC 700F3A4E
Copy CRC 700F3A4E
Accurately ripped (confidence 105) [246E3567] (AR v2)
Copy OK

Track 15

Filename F:\Lossless\New Rips\Rickie Lee Jones - Original Album Series (2009, 8122798381, CD)\CD5 - Naked Songs\15. Autumn Leaves.wav

Peak level 100.0 %
Extraction speed 8.5 X
Track quality 99.9 %
Test CRC 92A9F9A4
Copy CRC 92A9F9A4
Accurately ripped (confidence 104) [2EC0E249] (AR v2)
Copy OK


All tracks accurately ripped

No errors occurred

End of status report

–– AcoustID Plugin V1.2.0

Total fingerprints: 15


–– CUETools DB Plugin V2.1.6

[CTDB TOCID: 2qI.pjyFtrK7v.afnK_ETZF3LNg-] found
Submit result: 2qI.pjyFtrK7v.afnK_ETZF3LNg- has been confirmed
Track | CTDB Status
1 | (320/321) Accurately ripped
2 | (320/321) Accurately ripped
3 | (320/321) Accurately ripped
4 | (319/321) Accurately ripped
5 | (319/321) Accurately ripped
6 | (319/321) Accurately ripped
7 | (319/321) Accurately ripped
8 | (319/321) Accurately ripped
9 | (317/321) Accurately ripped
10 | (318/321) Accurately ripped
11 | (317/321) Accurately ripped
12 | (317/321) Accurately ripped
13 | (319/321) Accurately ripped
14 | (318/321) Accurately ripped
15 | (317/321) Accurately ripped


==== Log checksum 7563ED45CD488B8183E36C4E730A1B0CFA4B6F6CC021A2A3FB6FCA3FD263BA84 ====


foobar2000 1.3.13 / Dynamic Range Meter 1.1.1
log date: 2020-04-07 18:08:13

––––––––––––––––––––––––––––––––––––––––
Analyzed: Rickie Lee Jones / Original Album Series
––––––––––––––––––––––––––––––––––––––––

DR Peak RMS Duration Track
––––––––––––––––––––––––––––––––––––––––
DR16 0.00 dB -18.64 dB 4:49 01-The Horses
DR15 0.00 dB -18.62 dB 5:14 02-Weasel and the White Boys Cool
DR13 -0.32 dB -16.50 dB 2:40 03-Altar Boy
DR16 0.00 dB -20.23 dB 4:47 04-It Must Be Love
DR14 0.00 dB -16.11 dB 3:29 05-Young Blood
DR16 0.00 dB -21.15 dB 4:25 06-The Last Chance Texaco
DR15 0.00 dB -21.18 dB 3:41 07-Skeletons
DR12 0.00 dB -16.89 dB 4:39 08-Magazine
DR13 0.00 dB -16.37 dB 6:54 09-Living It Up
DR14 0.00 dB -17.33 dB 4:59 10-We Belong Together
DR15 0.00 dB -19.40 dB 5:09 11-Coolsville
DR15 0.00 dB -20.05 dB 5:37 12-Flying Cowboys
DR14 0.00 dB -17.60 dB 4:05 13-Stewart's Coat
DR15 0.00 dB -17.96 dB 3:52 14-Chuck E.'s in Love
DR15 0.00 dB -18.98 dB 5:06 15-Autumn Leaves
––––––––––––––––––––––––––––––––––––––––

Number of tracks: 15
Official DR value: DR14

Samplerate: 44100 Hz
Channels: 2
Bits per sample: 16
Bitrate: 641 kbps
Codec: FLAC
================================================================================

Rickie Lee Jones - Original Album Series (2009) [5CDs] {Warner}
Rickie Lee Jones - Original Album Series (2009) [5CDs] {Warner}


Thanks to the original ripper