Tags
Language
Tags
June 2024
Su Mo Tu We Th Fr Sa
26 27 28 29 30 31 1
2 3 4 5 6 7 8
9 10 11 12 13 14 15
16 17 18 19 20 21 22
23 24 25 26 27 28 29
30 1 2 3 4 5 6

Rihanna - 2 Studio Albums (2005/2006) {2012, Japanese Editions} Re-Up

Posted By: popsakov
Rihanna - 2 Studio Albums (2005/2006) {2012, Japanese Editions} Re-Up

Rihanna - 2 Studio Albums (2005/2006) {2012, Japanese Editions}
2CD | EAC Rip | FLAC (Img) + Cue + Log ~ 876 Mb | MP3 CBR320 ~ 293 Mb
Full Scans ~ 232 Mb | RAR 5% Recovery
R&B, Dance, Pop, Reggae | The Island Def Jam Music Group #UICY-20337/8

Robyn Rihanna Fenty, known professionally as Rihanna, is a Barbadian singer, actress, and fashion designer. Both her debut album, Music of the Sun (2005) and its follow-up A Girl Like Me (2006) peaked in the top ten on the US Billboard 200; the former featured the commercially successful song "Pon de Replay" while the latter produced her first Billboard Hot 100 number-one single, "SOS". Rihanna has sold over 41 million albums and 150 million songs worldwide, making her one of the best-selling artists of all time. She has achieved thirteen number-one singles on the Billboard Hot 100 chart, becoming the youngest and fastest solo artist to accomplish this record. Billboard named her the Digital Songs Artist of the 2000s decade and the top Hot 100 artist of the 2010s decade.

Rihanna is known for frequently reinventing her style and image, most notably since Good Girl Gone Bad. Her work has earned her numerous awards and accolades, including eight Grammy Awards, eight American Music Awards, 23 Billboard Music Awards, and two BRIT Awards. In 2012, Forbes ranked her the fourth most powerful celebrity of the year, with earnings of $53 million between May 2011 and May 2012. The same year, TIME named Rihanna one of the 100 Most Influential People in the World. At the American Music Awards of 2013, she received the first ever Icon Award.

~ Wiki

***************

Rihanna - 2 Studio Albums (2005/2006) {2012, Japanese Editions} Re-Up

Rihanna - Music Of The Sun (2005/2012)
EAC Rip | FLAC (Img) + Cue + Log ~ 435 Mb | MP3 CBR320 ~ 144 Mb
Full Scans ~ 110 Mb | RAR 5% Recovery
The Island Def Jam Music Group #UICY-20337

Music of the Sun is the debut studio album by Barbadian recording artist Rihanna. It was released by Def Jam Recordings on August 30, 2005. Music of the Sun features vocals from Canadian rapper Kardinal Offishall, music group J-Status, and Jamaican singer Vybz Kartel. Its music incorporates Caribbean music such as dancehall and reggae, as well as dance-pop and R&B ballads. Music of the Sun received generally mixed reviews from music critics, who complimented its dancehall and Caribbean-inspired songs, while others criticized some of the production. The album debuted at number 10 on the United States Billboard 200 and number six on the Top R&B/Hip-Hop Albums chart. The album peaked in the top-40 of album charts in Germany, New Zealand, Switzerland and the United Kingdom. It produced two singles: "Pon de Replay" and "If It's Lovin' that You Want", the former of which peaked at number two on the US Billboard Hot 100 chart and number one on the US Hot Dance Club Songs chart. Music of the Sun was certified gold by the Recording Industry Association of America, denoting shipments of over 500,000 copies.

Given the proliferation of young and beautiful urban dance-pop divas dominating the radio and music video airwaves in 2005, it initially was tempting to discount Rihanna as yet another Beyoncé-Ciara-Ashanti cash-in. But like her Def Jam labelmate Teairra Mari – another young and beautiful urban dance-pop diva who emerged out of nowhere in 2005 – Rihanna is winsome rather than wannabe, thanks in no small part to her producers. Just as Teairra Mari benefited greatly from irresistibly shrewd beat-making on her debut album, Rihanna benefits from the knowing production work of Syndicated Rhythm Productions, aka Evan Rogers and Carl Sturken, who together produced a laundry list of contemporary teen pop sensations during the prior decade. What these guys do that's so irresistibly shrewd is synthesize Caribbean rhythms and beats with standard-issue urban dance-pop: Caribbean-inflected urban, if you will. So while a song like "Pon de Replay" – to pick the most obvious exhibit – is driven by booming dancehall-lite beats and a reggae vocal cadence (and title spelling), it's a simple dance-pop song at its core, with standard English-language singing as well as a can't-miss singalong hook (and a glitzy, urban-style MTV video to boot). The best songs on Music of the Sun follow this appealing template, including the similarly catchy few songs that follow the aforementioned album-opening smash hit: "Here I Go Again," "If It's Lovin' That You Want," and "You Don't Love Me (No, No, No)." As with most albums of this ilk, Music of the Sun descends into faceless slow jams after a while, overall consistency not being among its attributes, but thankfully it picks up the pace toward the end of its 13-song run and concludes on a fun note, with a remix of "Pon de Replay" featuring Elephant Man. The result is one of the more engaging urban dance-pop albums of the year (and one of the most infectious summer jams, for sure), as well as a nice Caribbean primer for those not ready or willing to jump on the increasingly trendy dancehall and reggaeton bandwagons concurrently sweeping through America's more fashionable cities.

~ Jason Birchmeier, All Music

***************

Rihanna - 2 Studio Albums (2005/2006) {2012, Japanese Editions} Re-Up

Track List:

01. Pon De Replay [04:07]
02. Here I Go Again [feat. J-Status] [04:12]
03. If It's Lovin' That You Want [03:29]
04. You Don't Love Me (No, No, No) [feat. Vybz Kartel] [04:21]
05. That La, La, La [03:46]
06. The Last Time [04:54]
07. Willing To Wait [04:38]
08. Music Of The Sun [03:57]
09. Let Me [03:57]
10. Rush [feat. Kardinal Offishall] [03:10]
11. There's A Thug In My Life [feat. Intro by J-Status] [03:22]
12. Now I Know [05:02]
13. Pon De Replay (Remix) [feat. Elephant Man] [03:43]
14. Should I [feat. J-Status] [03:09]
15. Hypnotized [04:16]

Exact Audio Copy V1.0 beta 6 from 9. April 2015

Отчёт EAC об извлечении, выполненном 9. августа 2015, 0:11

Rihanna / Music Of The Sun (Japan SHM-CD)

Дисковод: SlimtypeDVD A DS8A9SH Adapter: 1 ID: 0

Режим чтения : Достоверность
Использование точного потока : Да
Отключение кэша аудио : Да
Использование указателей C2 : Нет

Коррекция смещения при чтении : 6
Способность читать области Lead-in и Lead-out : Нет
Заполнение пропущенных сэмплов тишиной : Да
Удаление блоков с тишиной в начале и конце : Нет
При вычислениях CRC использовались нулевые сэмплы : Да
Интерфейс : Встроенный Win32-интерфейс для Win NT/2000

Выходной формат : Пользовательский кодировщик
Выбранный битрейт : 128 kBit/s
Качество : Высокий
Добавление ID3-тега : Нет
Утилита сжатия : D:\Programm Files\FLAC\FLAC.EXE
Дополнительные параметры : -V -8 -T "Date=%year%" -T "Genre=%genre%" %source%


TOC извлечённого CD

Трек | Старт | Длительность | Начальный сектор | Конечный сектор
––––––––––––––––––––––––––––––––––-
1 | 0:00.00 | 4:06.72 | 0 | 18521
2 | 4:06.72 | 4:11.10 | 18522 | 37356
3 | 8:18.07 | 3:28.08 | 37357 | 52964
4 | 11:46.15 | 4:20.05 | 52965 | 72469
5 | 16:06.20 | 3:45.65 | 72470 | 89409
6 | 19:52.10 | 4:53.17 | 89410 | 111401
7 | 24:45.27 | 4:37.73 | 111402 | 132249
8 | 29:23.25 | 3:56.02 | 132250 | 149951
9 | 33:19.27 | 3:56.30 | 149952 | 167681
10 | 37:15.57 | 3:09.43 | 167682 | 181899
11 | 40:25.25 | 3:21.05 | 181900 | 196979
12 | 43:46.30 | 5:01.68 | 196980 | 219622
13 | 48:48.23 | 3:42.32 | 219623 | 236304
14 | 52:30.55 | 3:08.58 | 236305 | 250462
15 | 55:39.38 | 4:15.63 | 250463 | 269650


Характеристики диапазона извлечения и сообщения об ошибках

Выбранный диапазон

Имя файла D:\My Rips\Audio\Rihanna - 2005 - Music Of The Sun (Japan SHM-CD)\Rihanna - Music Of The Sun (Japan SHM-CD).wav

Пиковый уровень 100.0 %
Скорость извлечения 4.5 X
Качество диапазона 100.0 %
CRC теста FD75173C
CRC копии FD75173C
Копирование… OK

Ошибок не произошло


AccurateRip: сводка

Трек 1 : извлечено точно (доверие 10) [2401C6A2] (AR v2)
Трек 2 : извлечено точно (доверие 10) [97F1EBC4] (AR v2)
Трек 3 : извлечено точно (доверие 10) [7B8A4EC4] (AR v2)
Трек 4 : извлечено точно (доверие 10) [B96EB70B] (AR v2)
Трек 5 : извлечено точно (доверие 10) [F734AFE5] (AR v2)
Трек 6 : извлечено точно (доверие 10) [2DD07AD2] (AR v2)
Трек 7 : извлечено точно (доверие 10) [0FE856A4] (AR v2)
Трек 8 : извлечено точно (доверие 9) [DDF94D5F] (AR v2)
Трек 9 : извлечено точно (доверие 10) [254D6928] (AR v2)
Трек 10 : извлечено точно (доверие 10) [65C13FA0] (AR v2)
Трек 11 : извлечено точно (доверие 10) [D3C18A8A] (AR v2)
Трек 12 : извлечено точно (доверие 10) [A4C87333] (AR v2)
Трек 13 : извлечено точно (доверие 10) [B8A98923] (AR v2)
Трек 14 : извлечено точно (доверие 10) [9861CFFD] (AR v2)
Трек 15 : извлечено точно (доверие 10) [753CE83E] (AR v2)

Все треки извлечены точно

Конец отчёта

==== Контрольная сумма отчёта D316BBA20C06A4EEAB895C0FD350B8248FB5314A94A1EA1A37DEACD9A3CBD41E ====

foobar2000 1.2.6 / Dynamic Range Meter 1.1.1
log date: 2015-08-11 13:32:48

––––––––––––––––––––––––––––––––––––––––
Analyzed: Rihanna / Music Of The Sun (Japan SHM-CD)
––––––––––––––––––––––––––––––––––––––––

DR Peak RMS Duration Track
––––––––––––––––––––––––––––––––––––––––
DR5 -0.01 dB -5.91 dB 4:07 01-Pon De Replay
DR6 0.00 dB -6.97 dB 4:11 02-Here I Go Again [feat. J-Status]
DR8 -0.01 dB -9.46 dB 3:28 03-If It's Lovin' That You Want
DR7 -0.01 dB -8.19 dB 4:20 04-You Don't Love Me (No, No, No) [feat. Vybz Kartel]
DR8 -0.01 dB -9.88 dB 3:46 05-That La, La, La
DR7 -0.01 dB -9.00 dB 4:53 06-The Last Time
DR6 -0.01 dB -7.12 dB 4:38 07-Willing To Wait
DR8 -0.01 dB -9.35 dB 3:56 08-Music Of The Sun
DR6 -0.01 dB -8.22 dB 3:56 09-Let Me
DR6 -0.01 dB -7.40 dB 3:10 10-Rush [feat. Kardinal Offishall]
DR8 -0.01 dB -9.36 dB 3:21 11-There's A Thug In My Life [feat. Intro by J-Status]
DR9 -1.40 dB -13.08 dB 5:02 12-Now I Know
DR5 -0.01 dB -6.20 dB 3:42 13-Pon De Replay (Remix) [feat. Elephant Man]
DR6 -0.01 dB -7.09 dB 3:09 14-Should I [feat. J-Status]
DR7 0.00 dB -8.20 dB 4:16 15-Hypnotized
––––––––––––––––––––––––––––––––––––––––

Number of tracks: 15
Official DR value: DR7

Samplerate: 44100 Hz
Channels: 2
Bits per sample: 16
Bitrate: 964 kbps
Codec: FLAC
================================================================================

[CUETools log; Date: 11.08.2015 13:32:48; Version: 2.1.5]
[CTDB TOCID: ywSba0QTjGpJv8zXyK0CRCoFQlw-] found.
Track | CTDB Status
1 | (15/15) Accurately ripped
2 | (15/15) Accurately ripped
3 | (15/15) Accurately ripped
4 | (15/15) Accurately ripped
5 | (15/15) Accurately ripped
6 | (15/15) Accurately ripped
7 | (15/15) Accurately ripped
8 | (15/15) Accurately ripped
9 | (15/15) Accurately ripped
10 | (15/15) Accurately ripped
11 | (15/15) Accurately ripped
12 | (15/15) Accurately ripped
13 | (15/15) Accurately ripped
14 | (14/15) Accurately ripped
15 | (14/15) Accurately ripped
[AccurateRip ID: 00215eb4-01793fb2-c70e0b0f] found.
Track [ CRC | V2 ] Status
01 [ee831570|2401c6a2] (04+10/14) Accurately ripped
02 [56718115|97f1ebc4] (04+10/14) Accurately ripped
03 [fea272d9|7b8a4ec4] (04+10/14) Accurately ripped
04 [b1b44f4f|b96eb70b] (04+10/14) Accurately ripped
05 [8c2d7670|f734afe5] (04+10/14) Accurately ripped
06 [a7ad4223|2dd07ad2] (04+10/14) Accurately ripped
07 [44c0fded|0fe856a4] (04+10/14) Accurately ripped
08 [0c00d364|ddf94d5f] (04+09/13) Accurately ripped
09 [baa68c99|254d6928] (04+10/14) Accurately ripped
10 [95c269f6|65c13fa0] (04+10/14) Accurately ripped
11 [b9132cd7|d3c18a8a] (04+10/14) Accurately ripped
12 [98cf218d|a4c87333] (04+10/14) Accurately ripped
13 [60208f48|b8a98923] (04+10/14) Accurately ripped
14 [9bb57d9d|9861cffd] (04+10/14) Accurately ripped
15 [c1776530|753ce83e] (04+10/14) Accurately ripped

Track Peak [ CRC32 ] [W/O NULL] [ LOG ]
– 100,0 [FD75173C] [F0597F5E] CRC32
01 99,9 [CE80E3CD] [AA04FAD9]
02 100,0 [1E5336A6] [4130D0D5]
03 99,9 [E9F13136] [D3CCF019]
04 99,9 [28AE91F4] [29413315]
05 99,9 [2D637007] [BBC230F9]
06 99,9 [26949B6E] [DF59E5D9]
07 99,9 [A6D575FB] [89A7073C]
08 99,9 [21A0D7BA] [6F3D87EC]
09 99,9 [F39412F2] [E2A0466E]
10 99,9 [A6553426] [DA643CD9]
11 99,9 [2AE15E4C] [B9F412E2]
12 85,1 [698B242A] [0BB52EF6]
13 99,9 [FDB120DB] [75FC62C4]
14 99,9 [48AAEA07] [C8D26E57]
15 100,0 [230D2A64] [8C8BFFCC]

Rihanna - 2 Studio Albums (2005/2006) {2012, Japanese Editions} Re-Up


***************

Rihanna - 2 Studio Albums (2005/2006) {2012, Japanese Editions} Re-Up

Rihanna - A Girl Like Me (2006/2012)
EAC Rip | FLAC (Img) + Cue + Log ~ 442 Mb | MP3 CBR320 ~ 149 Mb
Full Scans ~ 122 Mb | RAR 5% Recovery
The Island Def Jam Music Group #UICY-20338

A Girl like Me is the second studio album by Barbadian recording artist Rihanna. It was released by Def Jam Recordings on April 10, 2006. A Girl like Me is a pop, reggae and R&B album influenced by Rihanna's Caribbean roots. It also incoprates dancehall and rock elments and ballads, which music critics were ambivalent towards. It peaked at number five on the U.S. Billboard 200 album chart and on the UK Albums Chart. The album was successful in other Countries, entering the top ten in Ireland, New Zealand, Australia and Japan while topping the charts in Canada on the Canadian Albums Chart. A Girl like Me spawned four singles: "SOS", which became her first single to reach number-one on the Billboard Hot 100, "Unfaithful" and "Break It Off", both reaching the top ten on the Billboard Hot 100, however, the third single, "We Ride", failed to reprise the success of the previous singles. The album has been certified platinum by the Recording Industry Association of America.

Versatile urban dance-pop singer Rihanna gracefully avoids the sophomore slump with A Girl Like Me, a less tropical-flavored, more urban effort than her sun-and-fun debut. Then again, it's hard to be an effervescent island goddess 24-7 when your love life has suffered a crushing blow, something inferred by the numerous heartbreaking ballads included, all of them elegant, mature, and displaying artistic growth. Fans of her brilliant single "Pon de Replay" need not worry, though, as the album kicks off with its equal. Bursting out of the speakers, "SOS" is a sexy club tune that bites the bleepy riff from Soft Cell's "Tainted Love" in a very modern, very exciting mash-up fashion. The crunchy reggae of "Kisses Don't Lie" offers a less revolutionary alternative to Damien Marley's "Welcome to Jamrock." Then the album gets bolder and seamlessly bounces from genre to genre. Attempting things that would make lesser artists crumble, Rihanna goes from a film noir song that elegantly uses murder as a metaphor for cheating ("Unfaithful") to an easy-flowing weekend cruiser ("We Ride"). Even more stunning is the jump from the 2006 prom-song candidate "Final Goodbye" to the totally juiced "Break It Off," where she gives guest star and dancehall king Sean Paul some serious competition. The good but not great redo of "If It's Lovin' That You Want" with Corey Gunz is the only track approaching filler, but it's clearly marked "bonus," so it's a wash. Executive produced by Jay-Z, A Girl Like Me is unsurprisingly polished, yet a richer experience than you'd expect from a singer responsible for the summer jam of 2005, arguably 2006.

~ David Jeffries, All Music

***************

Rihanna - 2 Studio Albums (2005/2006) {2012, Japanese Editions} Re-Up

Track List:

01. SOS [04:01]
02. Kisses Don't Lie [03:53]
03. Unfaithful [03:49]
04. We Ride [03:57]
05. Dem Haters [feat. Dwane Husbands] [04:20]
06. Final Goodbye [03:15]
07. Break It Off [Rihanna & Sean Paul] [03:35]
08. Crazy Little Thing Called Love [feat. J-Status] [03:24]
09. Selfish Girl [03:39]
10. P.S. (I'm Still Not Over You) [04:12]
11. A Girl Like Me [04:19]
12. A Million Miles Away [04:12]
13. If It's Lovin' That You Want - Part 2 [feat. Corey Gunz] [04:09]
14. Who Ya Gonna Run To [04:05]
15. Pon De Reply (Full Phatt Remix) [03:23]
16. Coulda Been The One [03:39]

Exact Audio Copy V1.0 beta 6 from 9. April 2015

Отчёт EAC об извлечении, выполненном 9. августа 2015, 0:52

Rihanna / A Girl Like Me (Japan SHM-CD)

Дисковод: SlimtypeDVD A DS8A9SH Adapter: 1 ID: 0

Режим чтения : Достоверность
Использование точного потока : Да
Отключение кэша аудио : Да
Использование указателей C2 : Нет

Коррекция смещения при чтении : 6
Способность читать области Lead-in и Lead-out : Нет
Заполнение пропущенных сэмплов тишиной : Да
Удаление блоков с тишиной в начале и конце : Нет
При вычислениях CRC использовались нулевые сэмплы : Да
Интерфейс : Встроенный Win32-интерфейс для Win NT/2000

Выходной формат : Пользовательский кодировщик
Выбранный битрейт : 128 kBit/s
Качество : Высокий
Добавление ID3-тега : Нет
Утилита сжатия : D:\Programm Files\FLAC\FLAC.EXE
Дополнительные параметры : -V -8 -T "Date=%year%" -T "Genre=%genre%" %source%


TOC извлечённого CD

Трек | Старт | Длительность | Начальный сектор | Конечный сектор
––––––––––––––––––––––––––––––––––-
1 | 0:00.00 | 4:00.17 | 0 | 18016
2 | 4:00.17 | 3:52.66 | 18017 | 35482
3 | 7:53.08 | 3:48.41 | 35483 | 52623
4 | 11:41.49 | 3:56.51 | 52624 | 70374
5 | 15:38.25 | 4:19.26 | 70375 | 89825
6 | 19:57.51 | 3:14.15 | 89826 | 104390
7 | 23:11.66 | 3:34.37 | 104391 | 120477
8 | 26:46.28 | 3:23.55 | 120478 | 135757
9 | 30:10.08 | 3:38.24 | 135758 | 152131
10 | 33:48.32 | 4:11.32 | 152132 | 170988
11 | 37:59.64 | 4:18.03 | 170989 | 190341
12 | 42:17.67 | 4:11.40 | 190342 | 209206
13 | 46:29.32 | 4:08.61 | 209207 | 227867
14 | 50:38.18 | 4:04.37 | 227868 | 246204
15 | 54:42.55 | 3:22.70 | 246205 | 261424
16 | 58:05.50 | 3:38.21 | 261425 | 277795


Характеристики диапазона извлечения и сообщения об ошибках

Выбранный диапазон

Имя файла D:\My Rips\Audio\Rihanna - 2006(2012) - A Girl Like Me (Japan SHM-CD)\Rihanna - A Girl Like Me (Japan SHM-CD).wav

Пиковый уровень 100.0 %
Скорость извлечения 4.9 X
Качество диапазона 100.0 %
CRC теста 3DCE2CEA
CRC копии 3DCE2CEA
Копирование… OK

Ошибок не произошло


AccurateRip: сводка

Трек 1 : извлечено точно (доверие 11) [868EFD67] (AR v2)
Трек 2 : извлечено точно (доверие 11) [6C03226B] (AR v2)
Трек 3 : извлечено точно (доверие 11) [5379F41F] (AR v2)
Трек 4 : извлечено точно (доверие 10) [9BBA5D10] (AR v2)
Трек 5 : извлечено точно (доверие 11) [63ECB075] (AR v2)
Трек 6 : извлечено точно (доверие 11) [74A4F2D3] (AR v2)
Трек 7 : извлечено точно (доверие 11) [34F093E9] (AR v2)
Трек 8 : извлечено точно (доверие 11) [E21D3EDB] (AR v2)
Трек 9 : извлечено точно (доверие 11) [8DB8CF92] (AR v2)
Трек 10 : извлечено точно (доверие 11) [646537C0] (AR v2)
Трек 11 : извлечено точно (доверие 11) [F046B210] (AR v2)
Трек 12 : извлечено точно (доверие 11) [B9FB93A1] (AR v2)
Трек 13 : извлечено точно (доверие 11) [60C9A421] (AR v2)
Трек 14 : извлечено точно (доверие 11) [F595B2B8] (AR v2)
Трек 15 : извлечено точно (доверие 11) [EAC09F11] (AR v2)
Трек 16 : извлечено точно (доверие 11) [3ED1BDD0] (AR v2)

Все треки извлечены точно

Конец отчёта

==== Контрольная сумма отчёта C73BB0C258AEB7D03170D7DA8B80F8177BA08DEA831933404F92DCB826AD1FB2 ====

foobar2000 1.2.6 / Dynamic Range Meter 1.1.1
log date: 2015-08-11 13:35:08

––––––––––––––––––––––––––––––––––––––––
Analyzed: Rihanna / A Girl Like Me (Japan SHM-CD)
––––––––––––––––––––––––––––––––––––––––

DR Peak RMS Duration Track
––––––––––––––––––––––––––––––––––––––––
DR6 -0.01 dB -6.56 dB 4:00 01-SOS
DR6 -0.01 dB -7.25 dB 3:53 02-Kisses Don't Lie
DR9 -0.51 dB -11.10 dB 3:49 03-Unfaithful
DR6 -0.01 dB -7.17 dB 3:57 04-We Ride
DR8 0.00 dB -8.82 dB 4:19 05-Dem Haters [feat. Dwane Husbands]
DR7 -0.01 dB -9.56 dB 3:14 06-Final Goodbye
DR6 -0.01 dB -6.92 dB 3:34 07-Break It Off [Rihanna & Sean Paul]
DR5 -0.01 dB -7.16 dB 3:24 08-Crazy Little Thing Called Love [feat. J-Status]
DR7 -0.01 dB -8.51 dB 3:38 09-Selfish Girl
DR8 -0.01 dB -9.39 dB 4:11 10-P.S. (I'm Still Not Over You)
DR7 -0.01 dB -8.13 dB 4:18 11-A Girl Like Me
DR8 -0.01 dB -10.55 dB 4:12 12-A Million Miles Away
DR7 -0.01 dB -7.70 dB 4:09 13-If It's Lovin' That You Want - Part 2 [feat. Corey Gunz]
DR7 -0.01 dB -8.37 dB 4:04 14-Who Ya Gonna Run To
DR7 0.00 dB -7.73 dB 3:23 15-Pon De Reply (Full Phatt Remix)
DR7 -0.01 dB -8.77 dB 3:38 16-Coulda Been The One
––––––––––––––––––––––––––––––––––––––––

Number of tracks: 16
Official DR value: DR7

Samplerate: 44100 Hz
Channels: 2
Bits per sample: 16
Bitrate: 952 kbps
Codec: FLAC
================================================================================

[CUETools log; Date: 11.08.2015 13:35:10; Version: 2.1.5]
[CTDB TOCID: SQZbitRuRHpKyBML6tshh6K6v4U-] found.
Track | CTDB Status
1 | (17/18) Accurately ripped
2 | (17/18) Accurately ripped
3 | (17/18) Accurately ripped
4 | (17/18) Accurately ripped
5 | (17/18) Accurately ripped
6 | (17/18) Accurately ripped
7 | (17/18) Accurately ripped
8 | (17/18) Accurately ripped
9 | (17/18) Accurately ripped
10 | (17/18) Accurately ripped
11 | (17/18) Accurately ripped
12 | (17/18) Accurately ripped
13 | (17/18) Accurately ripped
14 | (17/18) Accurately ripped
15 | (17/18) Accurately ripped
16 | (17/18) Accurately ripped
[AccurateRip ID: 00240e24-01b0a8bb-d60e7710] found.
Track [ CRC | V2 ] Status
01 [930bc5c3|868efd67] (08+11/19) Accurately ripped
02 [9ecc262c|6c03226b] (08+11/19) Accurately ripped
03 [77690d97|5379f41f] (08+11/19) Accurately ripped
04 [73054e61|9bba5d10] (08+10/18) Accurately ripped
05 [60036ad6|63ecb075] (08+11/19) Accurately ripped
06 [a71b2a58|74a4f2d3] (08+11/19) Accurately ripped
07 [5cedf3cd|34f093e9] (08+11/19) Accurately ripped
08 [e409411e|e21d3edb] (08+11/19) Accurately ripped
09 [58d21175|8db8cf92] (08+11/19) Accurately ripped
10 [e2ffc91e|646537c0] (08+11/19) Accurately ripped
11 [f1ed5e20|f046b210] (08+11/19) Accurately ripped
12 [a6996d8b|b9fb93a1] (07+11/18) Accurately ripped
13 [5d70c2f6|60c9a421] (07+11/18) Accurately ripped
14 [823e1a5e|f595b2b8] (07+11/18) Accurately ripped
15 [fa070740|eac09f11] (07+11/18) Accurately ripped
16 [aa2baa77|3ed1bdd0] (07+11/18) Accurately ripped

Track Peak [ CRC32 ] [W/O NULL] [ LOG ]
– 100,0 [3DCE2CEA] [79E3CAD4] CRC32
01 99,9 [55F71380] [1A25EF98]
02 99,9 [5885D4EA] [2664DEA4]
03 94,2 [D43C5FD4] [73741AD9]
04 99,9 [DA828C13] [3AA2B30D]
05 99,9 [BD8458C3] [F9B951E9]
06 99,9 [7A226067] [8DC6FBB9]
07 99,9 [DD3D6C9E] [B464AFB6]
08 99,9 [91F2C205] [64572EF7]
09 99,9 [7AEB85DE] [338D35A7]
10 99,9 [DD71614C] [D3FA9059]
11 99,9 [20652C4C] [9559C712]
12 99,9 [127949A3] [E96229F7]
13 99,9 [53055ECC] [2EA6ACD4]
14 99,9 [F4DDBE47] [C79F6A27]
15 100,0 [473D5071] [7D55BF34]
16 99,9 [5200934E] [0C1A5DC9]

Rihanna - 2 Studio Albums (2005/2006) {2012, Japanese Editions} Re-Up


See also:

Rihanna - ANTI (2016) {Japanese Edition}

All thanks go to serg-82

>>> My Blog <<<

DOWNLOAD: