Tags
Language
Tags

Robert Fripp, Jeffrey Fayman - A Temple In The Clouds (2000) {Projekt}

Posted By: tiburon
Robert Fripp, Jeffrey Fayman - A Temple In The Clouds (2000) {Projekt}

Robert Fripp, Jeffrey Fayman - A Temple In The Clouds (2000) {Projekt}
EAC 1.2 | FLAC tracks level 8 | Cue+Log+M3U | Full Scans 300dpi | 358MB + 5% Recovery
MP3 CBR 320 Kbps | 134MB + 5% Recovery
Genre: Electronic, Ambient
Robert Fripp, Jeffrey Fayman - A Temple In The Clouds (2000) {Projekt}

A stunning album of looped Frippertronics and electronics, in the vein of the classic Fripp & Eno No Pussyfooting collaboration. Recorded live from a past life. Awash in the hypnotic looping structures of Robert Fripp's guitar soundscapes, Jeffrey Fayman adds an opulent cinematic brilliance to the proceedings, creating an intense and dramatic vision of a future rich in the heritage of Fripp's past. Nine years in the making, A Temple In The Clouds is a unique collaboration between one of rock's most important and influential guitarists and a contemporary cinematic composer. Fripp's contribution of two hours worth of treated guitar work (his trademark "Frippertronics") formed the basis for Fayman's layering of interwoven electronic soundscapes. Focusing on the subtleties and slight shifts in overtones and harmonics, Fayman & Fripp have created a dynamic musical kaleidoscope, ever changing and intrinsically radiant in each sonic fractal.

A Temple In The Clouds is a unique collaboration between one of rock’s most important and influential guitarists and a contemporary cinematic composer. Fripp’s contribution of two hours worth of treated guitar work (his trademark “Frippertronics”) formed the basis for Fayman’s layering of interwoven electronic soundscapes. Focusing on the subtleties and slight shifts in overtones and harmonics, Fayman & Fripp have created a dynamic musical kaleidoscope, ever changing and intrinsically radiant in each sonic fractal.
Track List
1. The Pillars Of Hercules (15:23)
2. The Sky Below (4:32)
3. A Temple In The Clouds (30:59)
4. The Stars Below (3:30)

musicians
Robert Fripp - guitars, soundscapes, frippertronics
Jeffrey Fayman - synthesizers

Produced by Robert Fripp and Jeffrey Fayman


Exact Audio Copy V1.2 from 12. August 2016

EAC extraction logfile from 9. March 2017, 21:58

Jeffrey Fayman + Robert Fripp / A Temple In The Clouds

Used drive : HL-DT-STDVDRAM AP70NS50 Adapter: 1 ID: 1

Read mode : Secure
Utilize accurate stream : Yes
Defeat audio cache : Yes
Make use of C2 pointers : No

Read offset correction : 6
Overread into Lead-In and Lead-Out : No
Fill up missing offset samples with silence : Yes
Delete leading and trailing silent blocks : No
Null samples used in CRC calculations : Yes
Used interface : Native Win32 interface for Win NT & 2000
Gap handling : Not detected, thus appended to previous track

Used output format : Internal WAV Routines
Sample format : 44.100 Hz; 16 Bit; Stereo


TOC of the extracted CD

Track | Start | Length | Start sector | End sector
––––––––––––––––––––––––––––-
1 | 0:00.00 | 15:23.05 | 0 | 69229
2 | 15:23.05 | 4:32.70 | 69230 | 89699
3 | 19:56.00 | 31:01.70 | 89700 | 229344
4 | 50:57.70 | 3:30.30 | 229345 | 245124


Track 1

Filename C:\Users\Stan.Stan-PC\Music\[Lossless]\Robert Fripp & Jeffrey Fayman\2000 A Temple in the Clouds\01 The Pillars Of Hercules.wav

Peak level 98.8 %
Extraction speed 1.4 X
Track quality 100.0 %
Copy CRC E1A8F104
Accurately ripped (confidence 6) [0295BA91] (AR v2)
Copy OK

Track 2

Filename C:\Users\Stan.Stan-PC\Music\[Lossless]\Robert Fripp & Jeffrey Fayman\2000 A Temple in the Clouds\02 The Sky Below.wav

Peak level 94.4 %
Extraction speed 1.6 X
Track quality 100.0 %
Copy CRC 6AF26A17
Accurately ripped (confidence 6) [941C368E] (AR v2)
Copy OK

Track 3

Filename C:\Users\Stan.Stan-PC\Music\[Lossless]\Robert Fripp & Jeffrey Fayman\2000 A Temple in the Clouds\03 A Temple In The Clouds.wav

Peak level 94.4 %
Extraction speed 2.2 X
Track quality 100.0 %
Copy CRC F67CC443
Accurately ripped (confidence 6) [4B5EEBFA] (AR v2)
Copy OK

Track 4

Filename C:\Users\Stan.Stan-PC\Music\[Lossless]\Robert Fripp & Jeffrey Fayman\2000 A Temple in the Clouds\04 The Stars Below.wav

Peak level 84.1 %
Extraction speed 2.2 X
Track quality 100.0 %
Copy CRC 2B4845BF
Accurately ripped (confidence 6) [71EE2AE0] (AR v2)
Copy OK


All tracks accurately ripped

No errors occurred

End of status report

–– CUETools DB Plugin V2.1.6

[CTDB TOCID: 3Ra6SL6xA5pzcUkBE.hMU_RQQuM-] found
Submit result: 3Ra6SL6xA5pzcUkBE.hMU_RQQuM- has been confirmed
Track | CTDB Status
1 | (17/18) Accurately ripped
2 | (18/18) Accurately ripped
3 | (17/18) Accurately ripped
4 | (18/18) Accurately ripped

Robert Fripp, Jeffrey Fayman - A Temple In The Clouds (2000) {Projekt}
Robert Fripp, Jeffrey Fayman - A Temple In The Clouds (2000) {Projekt}


Thanks to the original ripper