Subcategories

Roger Norrington, London Classical Players, Schutz Choir - Mozart: Requiem, Ave verum corpus, Masonic Funeral Music (2013)

Posted By: Designol
Roger Norrington, London Classical Players, Schutz Choir - Mozart: Requiem, Ave verum corpus, Masonic Funeral Music (2013)

Wolfgang Amadeus Mozart - Requiem, Ave verum corpus, Masonic Funeral Music (2013)
Nancy Argenta, soprano; Catherine Robbon, alto; John Mark Ainsley, tenor; Alastair Miles, bass
Schütz Choir of London; London Classical Players; Sir Roger Norrington, conductor

EAC | FLAC | Tracks (Cue&Log) ~ 239 Mb (incl 5%) | Mp3 (CBR320) ~ 138 Mb (incl 5%) | Scans ~ 55 Mb
Genre: Classical, Choral | Label: Virgin Classics | # 50999 7 35296 2 0 | Time: 00:57:45

The Mozart Requiem is one of the best-known sacred works in the classical repertoire. It was the composer's last work, and he left it unfinished at his death. British conductor Roger Norrington, a pioneer of authentic performing practice, and an outstanding group of singers present Duncan Druce's version of the Requiem, based on the latest Mozart research, together with other moving choral works.

Roger Norrington has always been one of those conductors who makes a difference, whose approach to the music is historically informed and challenging. This applies not only to performance styles but to the editions of the scores as well. Nowhere can such a challenge be more interesting than in the case of the Mozart Requiem, the major work that lay unfinished on the composer’s desk at the time of his death.

The convention has been and remains to perform the music in the completion by Mozart’s pupil Franz Xaver Süssmayr, but over the years there have been other completions too. One of the most recent has been that by Duncan Druce, and it is this version that Norrington chooses here, in this recording dating from the Mozart bicentenary year of 1991. Druce completed his edition in 1984 and it was performed at the Proms in the bicentenary year, as well as recorded the following month.

Druce’s involvement begins as early as the Recordare and Sanctus movements, and always remains beautifully judged in terms of line and style. There is never any question that Norrington is less than 100% committed to the score, and the performance is vital and weighty, as appropriate to the context. Any questions will relate to the sound of his ensemble, the London Classical Players, compared with the big modern-instrument orchestras that have come to dominate the recorded catalogue. Among these there are several splendid alternatives, for example the LPO with Franz Welser-Möst (EMI 8782912) or the Swedish Radio Choir with the Berlin Philharmonic and Riccardo Muti (EMI 0979772). This Norrington version, incidentally, is also available in a bargain-price 2 CD compilation (Virgin Classics 9125662), coupled with the Brahms’ German Requiem, issued only two months after this (see review).

Norrington’s soloists are very good, so too the recorded sound, and this version of the Mozart Requiem can be enthusiastically welcomed, both as an edition and as a performance.

There are two bonus items in the shape of the beautiful short motet Ave Verum Corpus and the wonderful Masonic Funeral Music of 1785. The latter is not the most profound interpretation, lightweight of texture and tempo, but it is an interesting performance. Something weightier is worth experiencing in this, one of Mozart’s greatest works. A worthwhile choice is István Kertész (EMI Eloquence ELQ 4769781), coupled with a fine rendition of the Süssmayr version of the Requiem.

This latest reissue of Norrington’s Virgin Classics recording comes at bargain price but there are a couple of drawbacks. The weakness of the general presentation is clear from the brief introductory note on the back cover, which is the only programme note there is. This states: ‘… an outstanding group of singers present Duncan Druce’s version of the Requiem together with other moving choral works.’ However, the Masonic Funeral Music is purely instrumental - enough said. Nor are text and translation provided, since the insert leaflet merely lists the tracks and advertises other issues in the series.

Review by Terry Barfoot, MusicWeb-International

Roger Norrington, London Classical Players, Schutz Choir - Mozart: Requiem, Ave verum corpus, Masonic Funeral Music (2013)



Roger Norrington, London Classical Players, Schutz Choir - Mozart: Requiem, Ave verum corpus, Masonic Funeral Music (2013)



rec. September 1991, St Augustine’s Church, Kilburn, London

Tracklist:

01. Masonic Funeral Music, K. 477 (K. 479a) (03:31)

Requiem in D minor, K-626
02. I. Introitus: Requiem aeternam (04:00)
03. II. Kyrie (02:16)
04. III. Sequenz: Dies irae (01:52)
05. III. Sequenz: Tuba mirum (02:46)
06. III. Sequenz: Rex tremendae (01:51)
07. III. Sequenz: Recordare (04:35)
08. III. Sequenz: Confutatis (02:32)
09. III. Sequenz: Lacrimosa (03:35)
10. III. Sequenz: Amen (02:25)
11. IV. Offertorium: Domine Jesu (03:18)
12. IV. Offertorium: Hostias (04:00)
13. V. Sanctus et Benedictus: Sanctus - Osanna I (02:18)
14. V. Sanctus et Benedictus: Benedictus - Osanna II (06:45)
15. VI. Agnus Dei (03:36)
16. VII. Communio: Lux aeterna - Cum sanctis tuis (05:21)

17. Ave verum corpus, K. 618 (02:40)


Exact Audio Copy V1.1 from 23. June 2015

EAC extraction logfile from 10. November 2016, 21:00

London Classical Players / Requiem

Used drive : HL-DT-STDVDRAM GH24NSD0 Adapter: 1 ID: 0

Read mode : Secure
Utilize accurate stream : Yes
Defeat audio cache : Yes
Make use of C2 pointers : No

Read offset correction : 6
Overread into Lead-In and Lead-Out : No
Fill up missing offset samples with silence : Yes
Delete leading and trailing silent blocks : No
Null samples used in CRC calculations : Yes
Used interface : Native Win32 interface for Win NT & 2000
Gap handling : Appended to previous track

Used output format : User Defined Encoder
Selected bitrate : 768 kBit/s
Quality : High
Add ID3 tag : No
Command line compressor : C:\Program Files (x86)\Exact Audio Copy\FLAC\FLAC.EXE
Additional command line options : -V -8 -T "Genre=%genre%" -T "Artist=%artist%" -T "Title=%title%" -T "Album=%albumtitle%" -T "Date=%year%" -T "Tracknumber=%tracknr%" -T "Comment=%comment%" %source%


TOC of the extracted CD

Track | Start | Length | Start sector | End sector
––––––––––––––––––––––––––––-
1 | 0:00.00 | 3:39.55 | 0 | 16479
2 | 3:39.55 | 4:00.26 | 16480 | 34505
3 | 7:40.06 | 2:16.71 | 34506 | 44776
4 | 9:57.02 | 1:52.06 | 44777 | 53182
5 | 11:49.08 | 2:46.22 | 53183 | 65654
6 | 14:35.30 | 1:51.33 | 65655 | 74012
7 | 16:26.63 | 4:35.02 | 74013 | 94639
8 | 21:01.65 | 2:32.71 | 94640 | 106110
9 | 23:34.61 | 3:35.25 | 106111 | 122260
10 | 27:10.11 | 2:25.62 | 122261 | 133197
11 | 29:35.73 | 3:18.70 | 133198 | 148117
12 | 32:54.68 | 4:00.26 | 148118 | 166143
13 | 36:55.19 | 2:18.74 | 166144 | 176567
14 | 39:14.18 | 6:45.12 | 176568 | 206954
15 | 45:59.30 | 3:36.00 | 206955 | 223154
16 | 49:35.30 | 5:28.34 | 223155 | 247788
17 | 55:03.64 | 2:40.72 | 247789 | 259860


Track 1

Filename D:\g.y.m\Mozart - Requiem (2013) [FLAC]\01. Masonic Funeral Music, K. 477 (K. 479a).wav

Pre-gap length 0:00:02.00

Peak level 33.6 %
Extraction speed 0.9 X
Track quality 99.9 %
Test CRC 5367A8A6
Copy CRC 5367A8A6
Accurately ripped (confidence 2) [8BB91B32] (AR v2)
Copy OK

Track 2

Filename D:\g.y.m\Mozart - Requiem (2013) [FLAC]\02. Requiem in D minor, K-626- I. Introitus- Requiem aeternam.wav

Pre-gap length 0:00:08.14

Peak level 65.3 %
Extraction speed 1.0 X
Track quality 99.9 %
Test CRC DAECD173
Copy CRC DAECD173
Accurately ripped (confidence 2) [C387BC5E] (AR v2)
Copy OK

Track 3

Filename D:\g.y.m\Mozart - Requiem (2013) [FLAC]\03. Requiem in D minor, K-626- II. Kyrie.wav

Peak level 77.9 %
Extraction speed 1.1 X
Track quality 100.0 %
Test CRC 1FCC34C8
Copy CRC 1FCC34C8
Accurately ripped (confidence 2) [0BE22FB7] (AR v2)
Copy OK

Track 4

Filename D:\g.y.m\Mozart - Requiem (2013) [FLAC]\04. Requiem in D minor, K-626- III. Sequenz- Dies irae.wav

Peak level 94.2 %
Extraction speed 1.1 X
Track quality 100.0 %
Test CRC 7FCDF3B4
Copy CRC 7FCDF3B4
Accurately ripped (confidence 2) [FCE526A3] (AR v2)
Copy OK

Track 5

Filename D:\g.y.m\Mozart - Requiem (2013) [FLAC]\05. Requiem in D minor, K-626- III. Sequenz- Tuba mirum.wav

Peak level 35.3 %
Extraction speed 0.2 X
Track quality 100.0 %
Test CRC F6D7B074
Copy CRC F6D7B074
Accurately ripped (confidence 2) [52F81FF2] (AR v2)
Copy OK

Track 6

Filename D:\g.y.m\Mozart - Requiem (2013) [FLAC]\06. Requiem in D minor, K-626- III. Sequenz- Rex tremendae.wav

Peak level 98.7 %
Extraction speed 1.2 X
Track quality 100.0 %
Test CRC 3CAFB375
Copy CRC 3CAFB375
Accurately ripped (confidence 2) [9969C0E8] (AR v2)
Copy OK

Track 7

Filename D:\g.y.m\Mozart - Requiem (2013) [FLAC]\07. Requiem in D minor, K-626- III. Sequenz- Recordare.wav

Peak level 54.2 %
Extraction speed 1.4 X
Track quality 100.0 %
Test CRC 9BD76321
Copy CRC 9BD76321
Accurately ripped (confidence 2) [2417B8A1] (AR v2)
Copy OK

Track 8

Filename D:\g.y.m\Mozart - Requiem (2013) [FLAC]\08. Requiem in D minor, K-626- III. Sequenz- Confutatis.wav

Peak level 52.2 %
Extraction speed 1.4 X
Track quality 100.0 %
Test CRC 0C5A984F
Copy CRC 0C5A984F
Accurately ripped (confidence 2) [5037D182] (AR v2)
Copy OK

Track 9

Filename D:\g.y.m\Mozart - Requiem (2013) [FLAC]\09. Requiem in D minor, K-626- III. Sequenz- Lacrimosa.wav

Peak level 99.8 %
Extraction speed 1.5 X
Track quality 100.0 %
Test CRC 213F229A
Copy CRC 213F229A
Accurately ripped (confidence 2) [2502B071] (AR v2)
Copy OK

Track 10

Filename D:\g.y.m\Mozart - Requiem (2013) [FLAC]\10. Requiem in D minor, K-626- III. Sequenz- Amen.wav

Peak level 81.1 %
Extraction speed 1.5 X
Track quality 100.0 %
Test CRC 775E5D12
Copy CRC 775E5D12
Accurately ripped (confidence 2) [4D82FF65] (AR v2)
Copy OK

Track 11

Filename D:\g.y.m\Mozart - Requiem (2013) [FLAC]\11. Requiem in D minor, K-626- IV. Offertorium- Domine Jesu.wav

Peak level 90.0 %
Extraction speed 1.6 X
Track quality 100.0 %
Test CRC 2C93538F
Copy CRC 2C93538F
Accurately ripped (confidence 2) [E1D984E1] (AR v2)
Copy OK

Track 12

Filename D:\g.y.m\Mozart - Requiem (2013) [FLAC]\12. Requiem in D minor, K-626- IV. Offertorium- Hostias.wav

Peak level 80.6 %
Extraction speed 1.5 X
Track quality 99.9 %
Test CRC B647273B
Copy CRC B647273B
Accurately ripped (confidence 2) [9981E831] (AR v2)
Copy OK

Track 13

Filename D:\g.y.m\Mozart - Requiem (2013) [FLAC]\13. Requiem in D minor, K-626- V. Sanctus et Benedictus- Sanctus - Osanna I.wav

Peak level 99.6 %
Extraction speed 1.6 X
Track quality 100.0 %
Test CRC E3046430
Copy CRC E3046430
Accurately ripped (confidence 2) [139B5686] (AR v2)
Copy OK

Track 14

Filename D:\g.y.m\Mozart - Requiem (2013) [FLAC]\14. Requiem in D minor, K-626- V. Sanctus et Benedictus- Benedictus - Osanna II.wav

Peak level 96.0 %
Extraction speed 2.0 X
Track quality 100.0 %
Test CRC 3CB1EBB9
Copy CRC 3CB1EBB9
Accurately ripped (confidence 2) [A1F7D8C1] (AR v2)
Copy OK

Track 15

Filename D:\g.y.m\Mozart - Requiem (2013) [FLAC]\15. Requiem in D minor, K-626- VI. Agnus Dei.wav

Peak level 96.0 %
Extraction speed 1.9 X
Track quality 100.0 %
Test CRC E01E42D3
Copy CRC E01E42D3
Accurately ripped (confidence 2) [C52D5466] (AR v2)
Copy OK

Track 16

Filename D:\g.y.m\Mozart - Requiem (2013) [FLAC]\16. Requiem in D minor, K-626- VII. Communio- Lux aeterna - Cum sanctis tuis.wav

Peak level 87.4 %
Extraction speed 2.1 X
Track quality 100.0 %
Test CRC 4E4C1991
Copy CRC 4E4C1991
Accurately ripped (confidence 2) [B20553C2] (AR v2)
Copy OK

Track 17

Filename D:\g.y.m\Mozart - Requiem (2013) [FLAC]\17. Ave verum corpus, K. 618.wav

Pre-gap length 0:00:06.50

Peak level 28.3 %
Extraction speed 1.9 X
Track quality 100.0 %
Test CRC 9686D06B
Copy CRC 9686D06B
Accurately ripped (confidence 2) [857D3897] (AR v2)
Copy OK


All tracks accurately ripped

No errors occurred

End of status report

==== Log checksum D110C1595D559E29859D32D3CC9BD0336464FC9DC96182E38D495D94ACC60216 ====

foobar2000 1.2 / Dynamic Range Meter 1.1.1
log date: 2016-11-14 23:46:24

––––––––––––––––––––––––––––––––––––––––
Analyzed: London Classical Players / Requiem
––––––––––––––––––––––––––––––––––––––––

DR Peak RMS Duration Track
––––––––––––––––––––––––––––––––––––––––
DR12 -9.47 dB -27.07 dB 3:40 01-Masonic Funeral Music, K. 477 (K. 479a)
DR13 -3.70 dB -22.94 dB 4:00 02-Requiem in D minor, K-626: I. Introitus: Requiem aeternam
DR13 -2.17 dB -21.37 dB 2:17 03-Requiem in D minor, K-626: II. Kyrie
DR13 -0.52 dB -18.05 dB 1:52 04-Requiem in D minor, K-626: III. Sequenz: Dies irae
DR14 -9.03 dB -28.30 dB 2:46 05-Requiem in D minor, K-626: III. Sequenz: Tuba mirum
DR14 -0.11 dB -19.74 dB 1:51 06-Requiem in D minor, K-626: III. Sequenz: Rex tremendae
DR13 -5.32 dB -28.07 dB 4:35 07-Requiem in D minor, K-626: III. Sequenz: Recordare
DR13 -5.63 dB -24.33 dB 2:33 08-Requiem in D minor, K-626: III. Sequenz: Confutatis
DR16 -0.01 dB -25.11 dB 3:35 09-Requiem in D minor, K-626: III. Sequenz: Lacrimosa
DR12 -1.81 dB -18.56 dB 2:26 10-Requiem in D minor, K-626: III. Sequenz: Amen
DR14 -0.91 dB -21.69 dB 3:19 11-Requiem in D minor, K-626: IV. Offertorium: Domine Jesu
DR13 -1.87 dB -22.56 dB 4:00 12-Requiem in D minor, K-626: IV. Offertorium: Hostias
DR11 -0.03 dB -18.35 dB 2:19 13-Requiem in D minor, K-626: V. Sanctus et Benedictus: Sanctus - Osanna I
DR18 -0.35 dB -26.07 dB 6:45 14-Requiem in D minor, K-626: V. Sanctus et Benedictus: Benedictus - Osanna II
DR13 -0.35 dB -22.63 dB 3:36 15-Requiem in D minor, K-626: VI. Agnus Dei
DR14 -1.16 dB -20.78 dB 5:28 16-Requiem in D minor, K-626: VII. Communio: Lux aeterna - Cum sanctis tuis
DR13 -10.94 dB -29.88 dB 2:41 17-Ave verum corpus, K. 618
––––––––––––––––––––––––––––––––––––––––

Number of tracks: 17
Official DR value: DR14

Samplerate: 44100 Hz
Channels: 2
Bits per sample: 16
Bitrate: 454 kbps
Codec: FLAC
================================================================================

Roger Norrington, London Classical Players, Schutz Choir - Mozart: Requiem, Ave verum corpus, Masonic Funeral Music (2013)

Roger Norrington, London Classical Players, Schutz Choir - Mozart: Requiem, Ave verum corpus, Masonic Funeral Music (2013)