Subcategories
Tags
Language
Tags

Roger Waters - KAOS Creek (1987)

Posted By: v3122
Roger Waters - KAOS Creek (1987)

Roger Waters - KAOS Creek (1987)
Flac(Image) + Cue & MP3 CBR 320Kbps
2CD | Harvested, HRV CDR 027 | ~ 884 or 344 Mb
Progressive Rock

~ Poplar Creek, Illinois, September 9th, 1987 ~

Roger Waters - KAOS Creek (1987):

Tracklist CD1:

1. Radio Waves (5:03)
2. Welcome To The Machine (8:20)
3. Who Needs Info (7:25)
4. Money (5:58)
5. In The Flesh (3:27)
6. Have A Cigar (3:05)
7. Pigs 3DO (3:40)
8. Wish You Were Here (4:54)
9. Mother (7:29)
10. Mollys Song (3:17)
11. Me Or Him (5:03)
12. The Powers That Be (4:09)
13. Phone Calls (3:37)

[CUETools log; Date: 16.06.2021 21:03:47; Version: 2.1.4]
[AccurateRip ID: 00220d2a-014cb224-a50f5c0d] found.
Track [ CRC | V2 ] Status
01 [10ee559e|b2fe53a8] (1+0/2) Accurately ripped
02 [39dd3223|674870f1] (1+0/2) Accurately ripped
03 [ab7bf6ff|59fda97b] (1+0/2) Accurately ripped
04 [810dd9f4|d95dc1e0] (1+0/2) Accurately ripped
05 [6b240ffa|7465d703] (1+0/2) Accurately ripped
06 [c6da66d7|f13f475a] (1+0/2) Accurately ripped
07 [18a11cce|763164f5] (1+0/2) Accurately ripped
08 [0ef52f46|6b4f49d2] (1+0/2) Accurately ripped
09 [9c38bc79|9873a4db] (1+0/2) Accurately ripped
10 [304f91cf|262a7a56] (1+0/2) Accurately ripped
11 [f23a5653|ad540a48] (1+0/2) Accurately ripped
12 [9f424db0|34257504] (1+0/2) Accurately ripped
13 [1fc35d9f|ba3f6274] (1+0/2) Accurately ripped

Track Peak [ CRC32 ] [W/O NULL]
– 100,0 [E0CD80D8] [7E1BFBD9]
01 100,0 [E828D5A2] [BEC04EC7]
02 98,5 [725AFEFE] [64A759D6]
03 100,0 [6A137CB8] [99905406]
04 91,8 [BA7F328E] [B90FD41C]
05 91,7 [EBBEF320] [EC22B649]
06 95,0 [7BC1404E] [2D50D9CC]
07 94,7 [D82B4753] [106B7118]
08 96,4 [67E30F16] [6D52E026]
09 85,3 [4BC510F3] [0ED29A65]
10 92,4 [0ADF9B27] [D8EDDC4B]
11 74,8 [915A4200] [E506CF97]
12 91,4 [88A4D806] [1DFBCFA7]
13 66,2 [70DB6ADB] [91E1E917]


Tracklist CD2:

14. Going To Live In LA (7:14)
15. Sunset Strip (4:09)
16. Fish Report (2:13)
17. Get Your Filthy Hands Off My Desert (1:05)
18. Southampton Dock (2:20)
19. Arnold Layne (2:58)
20. If (3:49)
21. Every Strangers Eyes (5:06)
22. Not Now John (4:42)
23. Another Brick 1 (4:02)
24. Happiest Days (1:17)
25. Another Brick 2 (5:27)
26. Nobody Home (4:11)
27. Home (7:03)
28. 4 Minutes (4:06)
29. Tide Is Turning (6:31)
30. Band Intros (1:10)
31. Breathe (4:03)
32. Woof Woof (1:12)
33. Brain Damage (3:45)
34. Eclipse (3:18)

[CUETools log; Date: 16.06.2021 21:13:44; Version: 2.1.4]
[AccurateRip ID: 003d2c01-03aabc32-3b12b915] found.
Track [ CRC | V2 ] Status
01 [af7c6b48|4a029ffc] (1+0/2) Accurately ripped
02 [22f730cd|b9a1214e] (1+0/2) Accurately ripped
03 [ce4226bd|db935a33] (1+0/2) Accurately ripped
04 [1dd8d310|00e22ca9] (1+0/2) Accurately ripped
05 [754f962f|3cd9ae98] (1+0/2) Accurately ripped
06 [b4d6610c|0c2e7d6a] (1+0/2) Accurately ripped
07 [c001cff2|32eebdb2] (1+0/2) Accurately ripped
08 [46e38303|8367dc62] (1+0/2) Accurately ripped
09 [fd7f0ac8|282cf8e4] (1+0/2) Accurately ripped
10 [ee7a5f50|480c2cd4] (1+0/2) Accurately ripped
11 [7f120c28|0776118c] (1+0/2) Accurately ripped
12 [b6bf5d92|b0951343] (1+0/2) Accurately ripped
13 [ee7dcf25|c6979af4] (1+0/2) Accurately ripped
14 [6ce659b6|e4e3c12f] (1+0/2) Accurately ripped
15 [9fcdb5b1|54750ee3] (1+0/2) Accurately ripped
16 [918131fa|78307b19] (1+0/2) Accurately ripped
17 [7f94e1b0|3f6f5b86] (1+0/2) Accurately ripped
18 [9af049e2|09e89003] (1+0/2) Accurately ripped
19 [bcba3af6|5ef0ffd1] (1+0/2) Accurately ripped
20 [6df9da4c|cc086328] (1+0/2) Accurately ripped
21 [333bc39c|5d5af071] (1+0/2) Accurately ripped

Track Peak [ CRC32 ] [W/O NULL]
– 100,0 [D08DE612] [EB66DA4A]
01 100,0 [EF63D30D] [F72011F7]
02 86,2 [EFBBC4D8] [ADB4125A]
03 100,0 [79EE8AC0] [3FF6EB6C]
04 87,4 [4326380B] [B4F54A99]
05 93,9 [AB7308B6] [E6EAFD77]
06 91,9 [9D5C85D5] [F39D44C7]
07 98,8 [54F9D9BC] [20EDA752]
08 100,0 [86469A43] [08DC4C9A]
09 100,0 [2174C3A0] [53A3347C]
10 100,0 [EEA56D36] [D2EE0382]
11 100,0 [C10B15BE] [4922B294]
12 100,0 [18F6846A] [5B3BFBDC]
13 98,3 [71F4F19F] [C07E54AF]
14 100,0 [82C01251] [8A2F705B]
15 100,0 [F7885390] [F262B0A2]
16 97,4 [73E56AE9] [04494EFE]
17 93,4 [FCE88FC6] [3D394A08]
18 100,0 [1E7C956D] [4A13602B]
19 96,8 [5CD64953] [B1DE512A]
20 100,0 [0D6E01FB] [DF195FCF]
21 100,0 [8FD06EF4] [F7067773]


Roger Waters - KAOS Creek (1987)

All thanks go to the original releaser

Pink Floyd in my Blog

Download Roger Waters - KAOS Creek (1987):