Subcategories

Roger Norrington, London Classical Players - Schubert: Symphonies Nos. 4, 5, 6 & 8 (2003)

Posted By: ArlegZ
Roger Norrington, London Classical Players - Schubert: Symphonies Nos. 4, 5, 6 & 8 (2003)

Roger Norrington, London Classical Players - Schubert: Symphonies Nos. 4, 5, 6 & 8 (2003)
EAC | FLAC | Image (Cue & Log) ~ 468 Mb | Total time: 59:32+58:39 | Scans included
Classical | Label: Erato | # 7243 5 62227 24 | Recorded: 1988-90

These performances of three early and one "late" symphony of Schubert are both bracing and youthfully brisk, done on tart "period" instruments of Schubert's time. This produces what Schubert would have heard and expected to hear. Just listening to each performance convinces that these are "right." Sound is good. Warm and focused.
(amazon.com)

Performer:
London Classical Players
Conductor - Roger Norrington

Track List:
CD1:
01. Symphony No. 4 in C minor, D. 417, 'Tragic': I. Adagio molto - Allegro vivace
02. II. Andante
03. III. Menuetto: Allegro vivace
04. IV. Allegro
05. Symphony No. 6 in C major, D. 589: I. Adagio - Allegro - Piu moto
06. II. Andante
07. III. Scherzo: Presto
08. IV. Allegro moderato
CD2:
01. Symphony No. 5 in B flat major, D. 485: I. Allegro
02. II. Andante con moto
03. III. Menuetto: Allegro molto
04. IV. Finale: Allegro vivace
05. Symphony No. 8 in B minor, D. 759, 'Unfinished': I. Allegro moderato
06. II. Andante con moto
07. Die Zauberharfe - Overture


Exact Audio Copy V1.3 from 2. September 2016

EAC extraction logfile from 6. February 2018, 21:49

Roger Norrington, London Classical Players / Schubert - Symphonies Nos. 4 & 6

Used drive : HL-DT-STDVDRAM GH24NS95 Adapter: 1 ID: 0

Read mode : Secure
Utilize accurate stream : Yes
Defeat audio cache : Yes
Make use of C2 pointers : No

Read offset correction : 6
Overread into Lead-In and Lead-Out : No
Fill up missing offset samples with silence : Yes
Delete leading and trailing silent blocks : No
Null samples used in CRC calculations : Yes
Used interface : Native Win32 interface for Win NT & 2000

Used output format : User Defined Encoder
Selected bitrate : 128 kBit/s
Quality : High
Add ID3 tag : No
Command line compressor : C:\Program Files\Exact Audio Copy\Flac\flac.exe
Additional command line options : -V -8 -T "Date=%year%" -T "Genre=%genre%" %source%


TOC of the extracted CD

Track | Start | Length | Start sector | End sector
––––––––––––––––––––––––––––-
1 | 0:00.00 | 8:59.30 | 0 | 40454
2 | 8:59.30 | 7:38.54 | 40455 | 74858
3 | 16:38.09 | 3:30.35 | 74859 | 90643
4 | 20:08.44 | 7:29.51 | 90644 | 124369
5 | 27:38.20 | 8:50.70 | 124370 | 164189
6 | 36:29.15 | 6:24.36 | 164190 | 193025
7 | 42:53.51 | 7:14.67 | 193026 | 225642
8 | 50:08.43 | 9:22.27 | 225643 | 267819


Range status and errors

Selected range

Filename C:\Program Files\Exact Audio Copy\Flac\Schubert - Symphonies Nos. 4 & 6.wav

Peak level 100.0 %
Extraction speed 7.4 X
Range quality 100.0 %
Test CRC B7FBB511
Copy CRC B7FBB511
Copy OK

No errors occurred

End of status report

==== Log checksum 47ACFEAB2BC67316E9F9EA05A81472151446BBE0F5BE5E54AFC3B44B8AA53FAB ====


Exact Audio Copy V1.3 from 2. September 2016

EAC extraction logfile from 6. February 2018, 22:12

Roger Norrington, London Classical Players / Schubert - Symphonies Nos. 5 & 8

Used drive : HL-DT-STDVDRAM GH24NS95 Adapter: 1 ID: 0

Read mode : Secure
Utilize accurate stream : Yes
Defeat audio cache : Yes
Make use of C2 pointers : No

Read offset correction : 6
Overread into Lead-In and Lead-Out : No
Fill up missing offset samples with silence : Yes
Delete leading and trailing silent blocks : No
Null samples used in CRC calculations : Yes
Used interface : Native Win32 interface for Win NT & 2000

Used output format : User Defined Encoder
Selected bitrate : 128 kBit/s
Quality : High
Add ID3 tag : No
Command line compressor : C:\Program Files\Exact Audio Copy\Flac\flac.exe
Additional command line options : -V -8 -T "Date=%year%" -T "Genre=%genre%" %source%


TOC of the extracted CD

Track | Start | Length | Start sector | End sector
––––––––––––––––––––––––––––-
1 | 0:00.00 | 6:21.21 | 0 | 28595
2 | 6:21.21 | 7:47.53 | 28596 | 63673
3 | 14:08.74 | 5:22.13 | 63674 | 87836
4 | 19:31.12 | 7:30.00 | 87837 | 121586
5 | 27:01.12 | 12:44.08 | 121587 | 178894
6 | 39:45.20 | 9:12.20 | 178895 | 220314
7 | 48:57.40 | 9:39.70 | 220315 | 263809


Range status and errors

Selected range

Filename C:\Program Files\Exact Audio Copy\Flac\Schubert - Symphonies Nos. 5 & 8.wav

Peak level 100.0 %
Extraction speed 7.4 X
Range quality 100.0 %
Test CRC DED4C2BB
Copy CRC DED4C2BB
Copy OK

No errors occurred

End of status report

==== Log checksum 4BC8B019F9DAC2AA5487C36B06B3682030DB920EA02DE504D860421C0CDEACF4 ====

Roger Norrington, London Classical Players - Schubert: Symphonies Nos. 4, 5, 6 & 8 (2003)