Tags
Language
Tags

Ron Carter - The Golden Striker (2003)

Posted By: popsakov
Ron Carter - The Golden Striker (2003)

Ron Carter - The Golden Striker (2003)
EAC Rip | FLAC (Img) + Cue + Log ~ 224 Mb | MP3 CBR320 ~ 145 Mb
Full Scans | 00:48:19 | RAR 5% Recovery
Blue Note Records / Toshiba EMI Ltd. / GALA Records #7243 5 90832 2 3
Jazz / Hard Bop / Post-Bop / Modern Creative

Neither extravagantly experimental nor conservative, The Golden Striker presents a befittingly mature, somewhat brooding collection of tunes. Working within a guitar trio format with pianist Mulgrew Miller and guitarist Russell Malone, Carter offers nine tracks which include four of his own compositions, as well as one each by his band-mates.

In order to emulate a "club" atmosphere, Carter, Miller and Malone recorded with little rehearsal, and with two exceptions layed down each tune on first takes. Executed with a refined attention to detail, the album as a whole presents solid musicianship and the blending of three well-matched yet distinct voices. Malone’s guitar sings soft, astute lines that play gracefully against Carter’s resonate, warm bass and Miller’s often almost classically melodic approach. With the unfortunate exception of missteps, "The Golden Striker" and "A Quick Sketch," all the album’s selections offer subtle readings of quite difficult arrangements.

***************

Ron Carter - The Golden Striker (2003)

Ron Carter - The Golden Striker (2003)

Track List:

01. The Golden Striker [5:22]
02. On And On [3:01]
03. N.Y. Slick [4:08]
04. Concierto de Aranjuez (Adagio Theme) [7:03]
05. Cedar Tree [5:04]
06. A Quick Sketch [6:28]
07. Parade [5:32]
08. A Theme In 3/4 [5:20]
09. Autumn Leaves [6:20]

Personnel:
Bass – Ron Carter
Guitar – Russell Malone
Piano – Mulgrew Miller

Exact Audio Copy V1.3 from 2. September 2016

Отчёт EAC об извлечении, выполненном 20. апреля 2017, 12:50

Ron Carter / The Golden Striker

Дисковод: _NEC DVD_RW ND-3550A Adapter: 1 ID: 3

Режим чтения : Достоверность
Использование точного потока : Да
Отключение кэша аудио : Да
Использование указателей C2 : Нет

Коррекция смещения при чтении : 48
Способность читать области Lead-in и Lead-out : Нет
Заполнение пропущенных сэмплов тишиной : Да
Удаление блоков с тишиной в начале и конце : Нет
При вычислениях CRC использовались нулевые сэмплы : Да
Интерфейс : Встроенный Win32-интерфейс для Win NT/2000

Выходной формат : Пользовательский кодировщик
Выбранный битрейт : 1024 kBit/s
Качество : Высокий
Добавление ID3-тега : Нет
Утилита сжатия : C:\Program Files (x86)\Exact Audio Copy\FLAC\FLAC.EXE
Дополнительные параметры : -6 -V -T "ARTIST=%artist%" -T "TITLE=%title%" -T "ALBUM=%albumtitle%" -T "DATE=%year%" -T "TRACKNUMBER=%tracknr%" -T "GENRE=%genre%" -T "COMMENT=%comment%" -T "BAND=%albuminterpret%" -T "ALBUMARTIST=%albuminterpret%" -T "COMPOSER=%composer%" %haslyrics%–tag-from-file=LYRICS="%lyricsfile%"%haslyrics% -T "DISCNUMBER=%cdnumber%" -T "TOTALDISCS=%totalcds%" -T "TOTALTRACKS=%numtracks%" %hascover%–picture="%coverfile%"%hascover% %source% -o %dest%


TOC извлечённого CD

Трек | Старт | Длительность | Начальный сектор | Конечный сектор
––––––––––––––––––––––––––––––––––-
1 | 0:00.00 | 5:22.23 | 0 | 24172
2 | 5:22.23 | 3:01.35 | 24173 | 37782
3 | 8:23.58 | 4:08.10 | 37783 | 56392
4 | 12:31.68 | 7:02.58 | 56393 | 88100
5 | 19:34.51 | 5:04.23 | 88101 | 110923
6 | 24:38.74 | 6:27.46 | 110924 | 139994
7 | 31:06.45 | 5:32.22 | 139995 | 164916
8 | 36:38.67 | 5:20.34 | 164917 | 188950
9 | 41:59.26 | 6:19.51 | 188951 | 217426
10 | 50:51.02 | 23:06.73 | 228827 | 332849


Характеристики диапазона извлечения и сообщения об ошибках

Выбранный диапазон

Имя файла C:\Users\Desktop\Ron Carter - The Golden Striker (2003)\Ron Carter - The Golden Striker.wav

Пиковый уровень 93.4 %
Скорость извлечения 7.3 X
Качество диапазона 99.9 %
CRC теста 77EE00F2
CRC копии 77EE00F2
Копирование… OK

Ошибок не произошло


AccurateRip: сводка

Трек 1 точность не определена (достоверность 5) [0055796C], AccurateRip вернул [6B3C95F8] (AR v2)
Трек 2 точность не определена (достоверность 7) [9F52F73E], AccurateRip вернул [E4B24808] (AR v2)
Трек 3 точность не определена (достоверность 7) [D2FFD44D], AccurateRip вернул [82875EA9] (AR v2)
Трек 4 точность не определена (достоверность 5) [2F004A9D], AccurateRip вернул [3270D912] (AR v2)
Трек 5 точность не определена (достоверность 3) [E3920079], AccurateRip вернул [AAE84130] (AR v2)
Трек 6 точность не определена (достоверность 3) [60797F90], AccurateRip вернул [EE057AC7] (AR v2)
Трек 7 точность не определена (достоверность 3) [E8603F41], AccurateRip вернул [12744646] (AR v2)
Трек 8 точность не определена (достоверность 5) [C5007E1A], AccurateRip вернул [38370A0A] (AR v2)
Трек 9 точность не определена (достоверность 5) [C5FDE32A], AccurateRip вернул [A880DC4E] (AR v2)

Ни один трек не прошёл проверки на точность
В вашей базе может быть иной вариант штамповки диска

Конец отчёта

–– CUETools DB Plugin V2.1.6

[CTDB TOCID: 1ULDKWahoO27lnMAgEqSjiGHwXU-] found
Submit result: 1ULDKWahoO27lnMAgEqSjiGHwXU- has been uploaded
Track | CTDB Status
1 | ( 0/18) No match
2 | ( 0/18) No match
3 | ( 0/18) No match
4 | ( 0/18) No match
5 | ( 0/18) No match
6 | ( 0/18) No match
7 | ( 0/18) No match
8 | ( 0/18) No match
9 | ( 0/18) No match


==== Контрольная сумма отчёта CDB3DA9714FEFDB806DF2D3E6F316A61C72453ACC3EF54586D2CD9511089A226 ====

[CUETools log; Date: 21.04.2017 11:31:52; Version: 2.1.5]
CD-Extra data track length 23:06:73.
[CTDB TOCID: 1ULDKWahoO27lnMAgEqSjiGHwXU-] found.
Track | CTDB Status
1 | ( 1/19) Accurately ripped
2 | ( 1/19) Accurately ripped
3 | ( 1/19) Accurately ripped
4 | ( 1/19) Accurately ripped
5 | ( 1/19) Accurately ripped
6 | ( 1/19) Accurately ripped
7 | ( 1/19) Accurately ripped
8 | ( 1/19) Accurately ripped
9 | ( 1/19) Accurately ripped
[AccurateRip ID: 00117517-00869bad-7011560a] found.
Track [ CRC | V2 ] Status
01 [78aa7893|0055796c] (00+00/07) No match
02 [ccc5fd8c|9f52f73e] (00+00/11) No match
03 [c6c71f7d|d2ffd44d] (00+00/11) No match
04 [e4cfff31|2f004a9d] (00+00/07) No match
05 [b0ee4428|e3920079] (00+00/07) No match
06 [3cb8df30|60797f90] (00+00/05) No match
07 [cf26fd32|e8603f41] (00+00/03) No match
08 [5740234a|c5007e1a] (00+00/09) No match
09 [c235a774|c5fde32a] (00+00/05) No match

Track Peak [ CRC32 ] [W/O NULL] [ LOG ]
– 93,4 [77EE00F2] [B6822810] CRC32
01 93,2 [95CF0182] [FA8622B0]
02 88,1 [B15840F0] [6C8E851C]
03 93,4 [6DFE6983] [8050CD5A]
04 93,4 [5F50FA9F] [3849745B]
05 91,8 [63A5E315] [9FB1F4A5]
06 92,0 [61E91EEF] [589B9B96]
07 93,3 [A1EB9754] [89A7A5BA]
08 88,3 [74A9358E] [F3635454]
09 93,2 [F7FD9B52] [6D204C8E]

Ron Carter - The Golden Striker (2003)


All thanks go to Olegator

>>> My Blog <<<

DOWNLOAD: