Tags
Language
Tags

Ronnie Milsap - The Essential Ronnie Milsap (2006) 2CDs

Posted By:
Ronnie Milsap - The Essential Ronnie Milsap (2006) 2CDs

Ronnie Milsap - The Essential Ronnie Milsap (2006) 2CDs
EAC | FLAC | Tracks (Cue&Log) ~ 843 Mb | Mp3 (CBR320) ~ 322 Mb | Scans ~ 22 Mb
Label: RCA Nashville, Legacy | # 82876767672 | Time: 02:21:13
Country, Country-Pop, Urban Cowboy, Pop/Rock

To get an idea of exactly how many Ronnie Milsap collections are on the market, just turn to the back page of the booklet for RCA/Legacy's 2006 double-disc set The Essential Ronnie Milsap, where it lists other Ronnie albums you might also enjoy. There are ten listed, all but one of them a compilation (that would be his very, very good 2006 comeback, My Life). Which begs the natural question, is The Essential Ronnie Milsap needed? Especially since there is already another compilation called The Essential Ronnie Milsap (dating from 1995), and there already was an excellent double-disc set called 40 #1 Hits released six years earlier? The answer is, yes it is, particularly since 40 #1 Hits has fallen out of print. Of course, it also helps that Essential is an expertly chosen and sequenced collection of Milsap's best work, from 1973's "(All Together Now) Let's Fall Apart" and running all the way to 1989's "A Woman in Love." Most of this material was on 40 #1 Hits, so if you already own that, there's not much need for this, but this has a slight edge over the previous comp because it has a greater concentration of his prime material and is very listenable; its non-chronological sequencing works for it, since it emphasizes the consistently high quality of his hits singles. So, even if there is a surplus of Milsap collections out on the market, this superb set indeed proves that there's always room for another good one.

Review by Stephen Thomas Erlewine, Allmusic.com

Ronnie Milsap at Allmusic
Ronnie Milsap at Wiki

Tracklist:

CD1:

01. Daydreams About Night Things (2:24)
02. Smoky Mountain Rain (3:45)
03. Pure Love (2:22)
04. That Girl Who Waits On Tables (3:00)
05. It Was Almost Like A Song (3:38)
06. (All Together Now) Let's Fall Apart (2:26)
07. What Goes On When The Sun Goes Down (2:54)
08. Don't You Ever Get Tired (Of Hurting Me) (3:05)
09. (I'm A) Stand By My Woman Man (3:00)
10. I Hate You (2:50)
11. Please Don't Tell Me How The Story Ends (2:45)
12. (There's) No Gettin' Over Me (3:17)
13. (I'd Be) A Legend In My Time (2:58)
14. Only One Love In My Liffe (3:31)
15. My Heart (2:43)
16. Stranger Things Have Happened (3:12)
17. Am I Losing You (3:40)
18. A Woman In Love (3:17)
19. Just In Case (3:01)
20. Back On My Mind Again (3:17)
21. Let My Love Be Your Pillow (3:12)

CD2:

01. I Wouldn't Have Missed It For The World (3:36)
02. Any Day Now (3:42)
03. Stranger in My House (4:13)
04. What A Difference You've Made In My Life (4:00)
05. Lost In The Fifities Tonight (In The Still Of The Night) (4:19)
06. Nobody Likes Sad Songs (4:05)
07. Why Don't You Spend the Night (4:12)
08. Let's Take The Long Way Around The World (3:27)
09. Happy, Happy Birthday Baby (3:41)
10. She Keeps The Home Fires Burning (3:58)
11. Inside (4:03)
12. Where Do The Nights Go (4:32)
13. In Love (4:35)
14. Cowboys and Clowns (From the Motion Picture Bronco Billy) (3:16)
15. Make No Mistake, She's Mine (3:58)
16. How Do I Turn You On (4:46)
17. Still Losing You (5:19)
18. Show Her (4:01)
19. He Got You (3:31)


Exact Audio Copy V1.6 from 23. October 2020

EAC extraction logfile from 6. February 2021, 11:11

Ronnie Milsap / The Essential Ronnie Milsap (Disc 1)

Used drive : ATAPI iHAS124 F Adapter: 1 ID: 0

Read mode : Secure
Utilize accurate stream : Yes
Defeat audio cache : Yes
Make use of C2 pointers : No

Read offset correction : 6
Overread into Lead-In and Lead-Out : No
Fill up missing offset samples with silence : Yes
Delete leading and trailing silent blocks : No
Null samples used in CRC calculations : Yes
Used interface : Native Win32 interface for Win NT & 2000
Gap handling : Appended to previous track

Used output format : User Defined Encoder
Selected bitrate : 1024 kBit/s
Quality : High
Add ID3 tag : No
Command line compressor : C:\Program Files (x86)\Exact Audio Copy\Flac\flac.exe
Additional command line options : -V -6 -T "artist=%artist%" -T "title=%title%" -T "album=%albumtitle%" -T "album artist=%albumartist%" -T "date=%year%" -T "tracknumber=%tracknr%" -T "discnumber=%cdnumber%" -T "genre=%genre%" %source% -o %dest%


TOC of the extracted CD

Track | Start | Length | Start sector | End sector
––––––––––––––––––––––––––––-
1 | 0:00.00 | 2:23.57 | 0 | 10781
2 | 2:23.57 | 3:44.55 | 10782 | 27636
3 | 6:08.37 | 2:21.50 | 27637 | 38261
4 | 8:30.12 | 2:59.70 | 38262 | 51756
5 | 11:30.07 | 3:37.43 | 51757 | 68074
6 | 15:07.50 | 2:25.50 | 68075 | 78999
7 | 17:33.25 | 2:53.12 | 79000 | 91986
8 | 20:26.37 | 3:04.28 | 91987 | 105814
9 | 23:30.65 | 2:59.37 | 105815 | 119276
10 | 26:30.27 | 2:49.53 | 119277 | 132004
11 | 29:20.05 | 2:44.35 | 132005 | 144339
12 | 32:04.40 | 3:16.70 | 144340 | 159109
13 | 35:21.35 | 2:57.52 | 159110 | 172436
14 | 38:19.12 | 3:30.13 | 172437 | 188199
15 | 41:49.25 | 2:42.12 | 188200 | 200361
16 | 44:31.37 | 3:11.70 | 200362 | 214756
17 | 47:43.32 | 3:39.03 | 214757 | 231184
18 | 51:22.35 | 3:16.07 | 231185 | 245891
19 | 54:38.42 | 3:00.23 | 245892 | 259414
20 | 57:38.65 | 3:16.50 | 259415 | 274164
21 | 60:55.40 | 3:11.42 | 274165 | 288531


Track 1

Filename D:\WORKING\Ronnie Milsap - The Essential Ronnie Milsap (Disc 1)\01. Daydreams About Night Things.wav

Pre-gap length 0:00:02.00

Peak level 99.8 %
Extraction speed 4.0 X
Track quality 99.9 %
Test CRC 293F5895
Copy CRC 293F5895
Accurately ripped (confidence 12) [A4D2B61A] (AR v2)
Copy OK

Track 2

Filename D:\WORKING\Ronnie Milsap - The Essential Ronnie Milsap (Disc 1)\02. Smoky Mountain Rain.wav

Pre-gap length 0:00:00.32

Peak level 99.7 %
Extraction speed 5.0 X
Track quality 99.9 %
Test CRC C677E9E8
Copy CRC C677E9E8
Accurately ripped (confidence 13) [2916D8D4] (AR v2)
Copy OK

Track 3

Filename D:\WORKING\Ronnie Milsap - The Essential Ronnie Milsap (Disc 1)\03. Pure Love.wav

Pre-gap length 0:00:00.25

Peak level 99.8 %
Extraction speed 5.6 X
Track quality 100.0 %
Test CRC 0C909A50
Copy CRC 0C909A50
Accurately ripped (confidence 13) [C1E55BA7] (AR v2)
Copy OK

Track 4

Filename D:\WORKING\Ronnie Milsap - The Essential Ronnie Milsap (Disc 1)\04. That Girl Who Waits On Tables.wav

Pre-gap length 0:00:00.17

Peak level 99.5 %
Extraction speed 5.3 X
Track quality 99.9 %
Test CRC 0B14D4D2
Copy CRC 0B14D4D2
Accurately ripped (confidence 11) [4DE66E55] (AR v2)
Copy OK

Track 5

Filename D:\WORKING\Ronnie Milsap - The Essential Ronnie Milsap (Disc 1)\05. It Was Almost Like A Song.wav

Pre-gap length 0:00:00.32

Peak level 99.8 %
Extraction speed 6.7 X
Track quality 100.0 %
Test CRC 306597E4
Copy CRC 306597E4
Accurately ripped (confidence 12) [7B97E7CE] (AR v2)
Copy OK

Track 6

Filename D:\WORKING\Ronnie Milsap - The Essential Ronnie Milsap (Disc 1)\06. (All Together Now) Let's Fall Apart.wav

Pre-gap length 0:00:00.38

Peak level 97.4 %
Extraction speed 6.5 X
Track quality 100.0 %
Test CRC 06684D38
Copy CRC 06684D38
Accurately ripped (confidence 11) [CC468899] (AR v2)
Copy OK

Track 7

Filename D:\WORKING\Ronnie Milsap - The Essential Ronnie Milsap (Disc 1)\07. What Goes On When The Sun Goes Down.wav

Pre-gap length 0:00:01.00

Peak level 94.5 %
Extraction speed 7.0 X
Track quality 100.0 %
Test CRC 794D2755
Copy CRC 794D2755
Accurately ripped (confidence 11) [E46EA19F] (AR v2)
Copy OK

Track 8

Filename D:\WORKING\Ronnie Milsap - The Essential Ronnie Milsap (Disc 1)\08. Don't You Ever Get Tired (Of Hurting Me).wav

Pre-gap length 0:00:00.27

Peak level 100.0 %
Extraction speed 7.3 X
Track quality 100.0 %
Test CRC 88174A5E
Copy CRC 88174A5E
Accurately ripped (confidence 11) [6C7AA9F2] (AR v2)
Copy OK

Track 9

Filename D:\WORKING\Ronnie Milsap - The Essential Ronnie Milsap (Disc 1)\09. (I'm A) Stand By My Woman Man.wav

Pre-gap length 0:00:01.20

Peak level 99.8 %
Extraction speed 7.6 X
Track quality 100.0 %
Test CRC BBAC57D9
Copy CRC BBAC57D9
Accurately ripped (confidence 12) [57744E77] (AR v2)
Copy OK

Track 10

Filename D:\WORKING\Ronnie Milsap - The Essential Ronnie Milsap (Disc 1)\10. I Hate You.wav

Pre-gap length 0:00:00.62

Peak level 91.0 %
Extraction speed 7.7 X
Track quality 100.0 %
Test CRC EA1F3B63
Copy CRC EA1F3B63
Accurately ripped (confidence 11) [11CCD3FB] (AR v2)
Copy OK

Track 11

Filename D:\WORKING\Ronnie Milsap - The Essential Ronnie Milsap (Disc 1)\11. Please Don't Tell Me How The Story Ends.wav

Pre-gap length 0:00:00.25

Peak level 87.3 %
Extraction speed 7.9 X
Track quality 100.0 %
Test CRC 769F61F6
Copy CRC 769F61F6
Accurately ripped (confidence 11) [CF2CF10D] (AR v2)
Copy OK

Track 12

Filename D:\WORKING\Ronnie Milsap - The Essential Ronnie Milsap (Disc 1)\12. (There's) No Gettin' Over Me.wav

Pre-gap length 0:00:01.18

Peak level 99.8 %
Extraction speed 8.4 X
Track quality 100.0 %
Test CRC 1DE21F95
Copy CRC 1DE21F95
Accurately ripped (confidence 12) [C5C82924] (AR v2)
Copy OK

Track 13

Filename D:\WORKING\Ronnie Milsap - The Essential Ronnie Milsap (Disc 1)\13. (I'd Be) A Legend In My Time.wav

Pre-gap length 0:00:00.48

Peak level 99.8 %
Extraction speed 8.5 X
Track quality 100.0 %
Test CRC 73FC7B5C
Copy CRC 73FC7B5C
Accurately ripped (confidence 12) [EFB249A2] (AR v2)
Copy OK

Track 14

Filename D:\WORKING\Ronnie Milsap - The Essential Ronnie Milsap (Disc 1)\14. Only One Love In My Liffe.wav

Pre-gap length 0:00:00.40

Peak level 99.8 %
Extraction speed 7.8 X
Track quality 99.9 %
Test CRC 5827B8AD
Copy CRC 5827B8AD
Accurately ripped (confidence 11) [E3444F68] (AR v2)
Copy OK

Track 15

Filename D:\WORKING\Ronnie Milsap - The Essential Ronnie Milsap (Disc 1)\15. My Heart.wav

Pre-gap length 0:00:00.50

Peak level 99.8 %
Extraction speed 8.7 X
Track quality 100.0 %
Test CRC 577E6201
Copy CRC 577E6201
Accurately ripped (confidence 11) [6654F975] (AR v2)
Copy OK

Track 16

Filename D:\WORKING\Ronnie Milsap - The Essential Ronnie Milsap (Disc 1)\16. Stranger Things Have Happened.wav

Pre-gap length 0:00:00.55

Peak level 100.0 %
Extraction speed 9.1 X
Track quality 100.0 %
Test CRC EE530FF0
Copy CRC EE530FF0
Accurately ripped (confidence 11) [8E0123A5] (AR v2)
Copy OK

Track 17

Filename D:\WORKING\Ronnie Milsap - The Essential Ronnie Milsap (Disc 1)\17. Am I Losing You.wav

Pre-gap length 0:00:02.02

Peak level 99.8 %
Extraction speed 9.7 X
Track quality 100.0 %
Test CRC 8CD84A77
Copy CRC 8CD84A77
Accurately ripped (confidence 11) [BF803E94] (AR v2)
Copy OK

Track 18

Filename D:\WORKING\Ronnie Milsap - The Essential Ronnie Milsap (Disc 1)\18. A Woman In Love.wav

Pre-gap length 0:00:01.03

Peak level 100.0 %
Extraction speed 9.6 X
Track quality 100.0 %
Test CRC 48A61B34
Copy CRC 48A61B34
Accurately ripped (confidence 11) [0675E123] (AR v2)
Copy OK

Track 19

Filename D:\WORKING\Ronnie Milsap - The Essential Ronnie Milsap (Disc 1)\19. Just In Case.wav

Pre-gap length 0:00:01.55

Peak level 99.8 %
Extraction speed 9.7 X
Track quality 100.0 %
Test CRC 65C31B5C
Copy CRC 65C31B5C
Accurately ripped (confidence 11) [69088F70] (AR v2)
Copy OK

Track 20

Filename D:\WORKING\Ronnie Milsap - The Essential Ronnie Milsap (Disc 1)\20. Back On My Mind Again.wav

Pre-gap length 0:00:01.15

Peak level 99.8 %
Extraction speed 10.3 X
Track quality 100.0 %
Test CRC A1706A5D
Copy CRC A1706A5D
Accurately ripped (confidence 11) [E6051ABE] (AR v2)
Copy OK

Track 21

Filename D:\WORKING\Ronnie Milsap - The Essential Ronnie Milsap (Disc 1)\21. Let My Love Be Your Pillow.wav

Pre-gap length 0:00:00.65

Peak level 99.8 %
Extraction speed 8.8 X
Track quality 99.9 %
Test CRC BD92E446
Copy CRC BD92E446
Accurately ripped (confidence 11) [7FA2AD9E] (AR v2)
Copy OK


All tracks accurately ripped

No errors occurred

End of status report

–– CUETools DB Plugin V2.1.6

[CTDB TOCID: ZHySuTFwj9ZqycHMHj0x7JrCNuo-] found
Submit result: already submitted
Track | CTDB Status
1 | (39/39) Accurately ripped
2 | (39/39) Accurately ripped
3 | (39/39) Accurately ripped
4 | (39/39) Accurately ripped
5 | (39/39) Accurately ripped
6 | (39/39) Accurately ripped
7 | (39/39) Accurately ripped
8 | (39/39) Accurately ripped
9 | (39/39) Accurately ripped
10 | (39/39) Accurately ripped
11 | (39/39) Accurately ripped
12 | (39/39) Accurately ripped
13 | (39/39) Accurately ripped
14 | (39/39) Accurately ripped
15 | (38/39) Accurately ripped
16 | (39/39) Accurately ripped
17 | (38/39) Accurately ripped
18 | (38/39) Accurately ripped
19 | (39/39) Accurately ripped
20 | (39/39) Accurately ripped
21 | (39/39) Accurately ripped


==== Log checksum 3006E58E488BC7F3CF1D7E01BB88BA3A5390ACEB770867039B59B9614A6FB932 ====

[CUETools log; Date: 02.07.2021 21:30:50; Version: 2.1.7]
[CTDB TOCID: ZHySuTFwj9ZqycHMHj0x7JrCNuo-] found.
Track | CTDB Status
1 | (47/47) Accurately ripped
2 | (47/47) Accurately ripped
3 | (47/47) Accurately ripped
4 | (47/47) Accurately ripped
5 | (47/47) Accurately ripped
6 | (47/47) Accurately ripped
7 | (47/47) Accurately ripped
8 | (47/47) Accurately ripped
9 | (47/47) Accurately ripped
10 | (47/47) Accurately ripped
11 | (47/47) Accurately ripped
12 | (47/47) Accurately ripped
13 | (47/47) Accurately ripped
14 | (47/47) Accurately ripped
15 | (46/47) Accurately ripped
16 | (47/47) Accurately ripped
17 | (46/47) Accurately ripped
18 | (46/47) Accurately ripped
19 | (47/47) Accurately ripped
20 | (47/47) Accurately ripped
21 | (47/47) Accurately ripped
[AccurateRip ID: 002f5910-02d9db2b-110f0715] found.
Track [ CRC | V2 ] Status
01 [886e957c|a4d2b61a] (14+15/51) Accurately ripped
02 [02c1dafe|2916d8d4] (14+16/55) Accurately ripped
03 [93d60294|c1e55ba7] (14+16/53) Accurately ripped
04 [9b918408|4de66e55] (13+14/50) Accurately ripped
05 [05516d61|7b97e7ce] (14+15/53) Accurately ripped
06 [383a09b7|cc468899] (13+14/50) Accurately ripped
07 [8a6fca13|e46ea19f] (13+14/50) Accurately ripped
08 [b40c2558|6c7aa9f2] (13+14/50) Accurately ripped
09 [6b63cda5|57744e77] (13+15/51) Accurately ripped
10 [fe0ef779|11ccd3fb] (13+14/50) Accurately ripped
11 [bceeaa21|cf2cf10d] (13+14/50) Accurately ripped
12 [2d8fc21c|c5c82924] (14+15/54) Accurately ripped
13 [0f07cd3a|efb249a2] (13+15/51) Accurately ripped
14 [f01582dc|e3444f68] (14+14/51) Accurately ripped
15 [1dae4fb0|6654f975] (13+14/48) Accurately ripped
16 [5656bd93|8e0123a5] (13+14/50) Accurately ripped
17 [8fc3ddd2|bf803e94] (13+14/51) Accurately ripped
18 [12b59f1d|0675e123] (13+14/50) Accurately ripped
19 [a421066c|69088f70] (13+14/50) Accurately ripped
20 [433bc71d|e6051abe] (14+14/51) Accurately ripped
21 [1418fbf1|7fa2ad9e] (13+14/51) Accurately ripped
Offsetted by -664:
01 [8e12bdf4] (03/51) Accurately ripped
02 [e11f608e] (03/55) Accurately ripped
03 [a122a614] (03/53) Accurately ripped
04 [b8ee3618] (03/50) Accurately ripped
05 [2907ae91] (03/53) Accurately ripped
06 [79c87e67] (03/50) Accurately ripped
07 [d21191f3] (03/50) Accurately ripped
08 [9d67bbc0] (03/50) Accurately ripped
09 [bc6847c5] (03/51) Accurately ripped
10 [69d727d1] (03/50) Accurately ripped
11 [a4d81b21] (03/50) Accurately ripped
12 [0bf551f4] (03/54) Accurately ripped
13 [3bc589e2] (03/51) Accurately ripped
14 [9cc6409c] (03/51) Accurately ripped
15 [fce40510] (03/48) Accurately ripped
16 [9837a5bb] (03/50) Accurately ripped
17 [606a6fd2] (03/51) Accurately ripped
18 [34e85545] (03/50) Accurately ripped
19 [fdf1079c] (03/50) Accurately ripped
20 [35af16ed] (03/51) Accurately ripped
21 [7b283201] (03/51) Accurately ripped
Offsetted by -646:
01 [d1012efa] (02/51) Accurately ripped
02 [e07dffa2] (02/55) Accurately ripped
03 [ac575174] (02/53) Accurately ripped
04 [156f8dcc] (02/50) Accurately ripped
05 [da2eb16d] (02/53) Accurately ripped
06 [7676c0a3] (02/50) Accurately ripped
07 [b5e8f18b] (02/50) Accurately ripped
08 [a6803d12] (02/50) Accurately ripped
09 [f02fdead] (02/51) Accurately ripped
10 [c438486f] (02/50) Accurately ripped
11 [9b791a61] (02/50) Accurately ripped
12 [a1b040f2] (02/54) Accurately ripped
13 [1eccbb84] (02/51) Accurately ripped
14 [dcb8354c] (02/51) Accurately ripped
15 [dd64e088] (02/48) Accurately ripped
16 [9faf3cbd] (02/50) Accurately ripped
17 [a6536a52] (02/51) Accurately ripped
18 [01dc29c7] (02/50) Accurately ripped
19 [4337ba78] (02/50) Accurately ripped
20 [42637b51] (02/51) Accurately ripped
21 [4012f6b5] (02/51) Accurately ripped
Offsetted by -1310:
01 [d6a55772] (00/51) No match (V2 was not tested)
02 [bedb8532] (00/55) No match (V2 was not tested)
03 [b9a3f4f4] (00/53) No match (V2 was not tested)
04 [32cc3fdc] (00/50) No match (V2 was not tested)
05 [fde4f29d] (00/53) No match (V2 was not tested)
06 [b8053553] (00/50) No match (V2 was not tested)
07 [fd8ab96b] (00/50) No match (V2 was not tested)
08 [8fdbd37a] (00/50) No match (V2 was not tested)
09 [413458cd] (00/51) No match (V2 was not tested)
10 [300078c7] (00/50) No match (V2 was not tested)
11 [83628b61] (00/50) No match (V2 was not tested)
12 [8015d0ca] (00/54) No match (V2 was not tested)
13 [4b8a782c] (00/51) No match (V2 was not tested)
14 [8968f30c] (00/51) No match (V2 was not tested)
15 [bc9a95e8] (00/48) No match (V2 was not tested)
16 [e19024e5] (00/50) No match (V2 was not tested)
17 [76f9fc52] (00/51) No match (V2 was not tested)
18 [240edfef] (00/50) No match (V2 was not tested)
19 [9d07bba8] (00/50) No match (V2 was not tested)
20 [34d6cb21] (00/51) No match (V2 was not tested)
21 [a7222cc5] (00/51) No match (V2 was not tested)

Track Peak [ CRC32 ] [W/O NULL] [ LOG ]
– 100,0 [F3ED21A4] [FA4C99DA]
01 99,8 [293F5895] [88E0C515] CRC32
02 99,7 [C677E9E8] [4D5FFFF5] CRC32
03 99,8 [0C909A50] [979878BE] CRC32
04 99,5 [0B14D4D2] [3041F6D9] CRC32
05 99,8 [306597E4] [F23A0E2E] CRC32
06 97,4 [06684D38] [705298DA] CRC32
07 94,5 [794D2755] [C2009ED0] CRC32
08 100,0 [88174A5E] [DD9B1FD1] CRC32
09 99,8 [BBAC57D9] [A2803DD9] CRC32
10 91,0 [EA1F3B63] [9C58F9B1] CRC32
11 87,3 [769F61F6] [45142F7E] CRC32
12 99,8 [1DE21F95] [E9771D21] CRC32
13 99,8 [73FC7B5C] [779912E0] CRC32
14 99,8 [5827B8AD] [F4602D47] CRC32
15 99,8 [577E6201] [0301E5E0] CRC32
16 100,0 [EE530FF0] [850A363B] CRC32
17 99,8 [8CD84A77] [2D4BE585] CRC32
18 100,0 [48A61B34] [98EBE0AB] CRC32
19 99,8 [65C31B5C] [00353940] CRC32
20 99,8 [A1706A5D] [58AA4DDA] CRC32
21 99,8 [BD92E446] [D676B7DE] CRC32

foobar2000 1.6.3 / Dynamic Range Meter 1.1.1
log date: 2021-07-02 21:14:47

––––––––––––––––––––––––––––––––––––––––
Analyzed: Ronnie Milsap / The Essential Ronnie Milsap (Disc 1)
––––––––––––––––––––––––––––––––––––––––

DR Peak RMS Duration Track
––––––––––––––––––––––––––––––––––––––––
DR11 -0.01 dB -12.75 dB 2:24 01-Daydreams About Night Things
DR12 -0.02 dB -15.11 dB 3:45 02-Smoky Mountain Rain
DR11 -0.01 dB -13.45 dB 2:22 03-Pure Love
DR10 -0.04 dB -12.47 dB 3:00 04-That Girl Who Waits On Tables
DR10 -0.01 dB -15.00 dB 3:38 05-It Was Almost Like A Song
DR11 -0.23 dB -13.83 dB 2:26 06-(All Together Now) Let's Fall Apart
DR10 -0.49 dB -13.29 dB 2:53 07-What Goes On When The Sun Goes Down
DR11 0.00 dB -13.33 dB 3:04 08-Don't You Ever Get Tired (Of Hurting Me)
DR12 -0.01 dB -14.62 dB 2:59 09-(I'm A) Stand By My Woman Man
DR10 -0.82 dB -13.92 dB 2:50 10-I Hate You
DR10 -1.18 dB -15.43 dB 2:44 11-Please Don't Tell Me How The Story Ends
DR11 -0.01 dB -13.13 dB 3:17 12-(There's) No Gettin' Over Me
DR9 -0.01 dB -13.59 dB 2:58 13-(I'd Be) A Legend In My Time
DR13 -0.01 dB -16.20 dB 3:30 14-Only One Love In My Liffe
DR12 -0.01 dB -14.09 dB 2:42 15-My Heart
DR12 0.00 dB -15.69 dB 3:12 16-Stranger Things Have Happened
DR11 -0.01 dB -14.23 dB 3:39 17-Am I Losing You
DR13 0.00 dB -14.75 dB 3:16 18-A Woman In Love
DR12 -0.01 dB -14.17 dB 3:00 19-Just In Case
DR13 -0.01 dB -15.35 dB 3:17 20-Back On My Mind Again
DR10 -0.01 dB -12.57 dB 3:12 21-Let My Love Be Your Pillow
––––––––––––––––––––––––––––––––––––––––

Number of tracks: 21
Official DR value: DR11

Samplerate: 44100 Hz
Channels: 2
Bits per sample: 16
Bitrate: 849 kbps
Codec: FLAC
================================================================================


Exact Audio Copy V1.6 from 23. October 2020

EAC extraction logfile from 6. February 2021, 11:35

Ronnie Milsap / The Essential Ronnie Milsap (Disc 2)

Used drive : ATAPI iHAS124 F Adapter: 1 ID: 0

Read mode : Secure
Utilize accurate stream : Yes
Defeat audio cache : Yes
Make use of C2 pointers : No

Read offset correction : 6
Overread into Lead-In and Lead-Out : No
Fill up missing offset samples with silence : Yes
Delete leading and trailing silent blocks : No
Null samples used in CRC calculations : Yes
Used interface : Native Win32 interface for Win NT & 2000
Gap handling : Appended to previous track

Used output format : User Defined Encoder
Selected bitrate : 1024 kBit/s
Quality : High
Add ID3 tag : No
Command line compressor : C:\Program Files (x86)\Exact Audio Copy\Flac\flac.exe
Additional command line options : -V -6 -T "artist=%artist%" -T "title=%title%" -T "album=%albumtitle%" -T "album artist=%albumartist%" -T "date=%year%" -T "tracknumber=%tracknr%" -T "discnumber=%cdnumber%" -T "genre=%genre%" %source% -o %dest%


TOC of the extracted CD

Track | Start | Length | Start sector | End sector
––––––––––––––––––––––––––––-
1 | 0:00.00 | 3:35.57 | 0 | 16181
2 | 3:35.57 | 3:41.15 | 16182 | 32771
3 | 7:16.72 | 4:12.50 | 32772 | 51721
4 | 11:29.47 | 3:59.43 | 51722 | 69689
5 | 15:29.15 | 4:18.22 | 69690 | 89061
6 | 19:47.37 | 4:04.10 | 89062 | 107371
7 | 23:51.47 | 4:12.00 | 107372 | 126271
8 | 28:03.47 | 3:26.43 | 126272 | 141764
9 | 31:30.15 | 3:40.67 | 141765 | 158331
10 | 35:11.07 | 3:58.00 | 158332 | 176181
11 | 39:09.07 | 4:02.70 | 176182 | 194401
12 | 43:12.02 | 4:31.30 | 194402 | 214756
13 | 47:43.32 | 4:34.33 | 214757 | 235339
14 | 52:17.65 | 3:15.30 | 235340 | 249994
15 | 55:33.20 | 3:57.57 | 249995 | 267826
16 | 59:31.02 | 4:45.30 | 267827 | 289231
17 | 64:16.32 | 5:18.03 | 289232 | 313084
18 | 69:34.35 | 4:00.30 | 313085 | 331114
19 | 73:34.65 | 3:31.00 | 331115 | 346939


Track 1

Filename D:\WORKING\Ronnie Milsap - The Essential Ronnie Milsap (Disc 2)\01. I Wouldn't Have Missed It For The World.wav

Pre-gap length 0:00:02.00

Peak level 92.0 %
Extraction speed 4.9 X
Track quality 99.9 %
Test CRC 448ACAA1
Copy CRC 448ACAA1
Accurately ripped (confidence 12) [AE1A9BEF] (AR v2)
Copy OK

Track 2

Filename D:\WORKING\Ronnie Milsap - The Essential Ronnie Milsap (Disc 2)\02. Any Day Now.wav

Peak level 99.8 %
Extraction speed 6.0 X
Track quality 100.0 %
Test CRC 116F3729
Copy CRC 116F3729
Accurately ripped (confidence 13) [1748E00A] (AR v2)
Copy OK

Track 3

Filename D:\WORKING\Ronnie Milsap - The Essential Ronnie Milsap (Disc 2)\03. Stranger in My House.wav

Pre-gap length 0:00:00.62

Peak level 99.8 %
Extraction speed 6.0 X
Track quality 99.9 %
Test CRC BC0973F5
Copy CRC BC0973F5
Accurately ripped (confidence 12) [48E13A87] (AR v2)
Copy OK

Track 4

Filename D:\WORKING\Ronnie Milsap - The Essential Ronnie Milsap (Disc 2)\04. What A Difference You've Made In My Life.wav

Pre-gap length 0:00:01.07

Peak level 99.8 %
Extraction speed 7.0 X
Track quality 100.0 %
Test CRC E60A7CFA
Copy CRC E60A7CFA
Accurately ripped (confidence 13) [794E26C5] (AR v2)
Copy OK

Track 5

Filename D:\WORKING\Ronnie Milsap - The Essential Ronnie Milsap (Disc 2)\05. Lost In The Fifities Tonight (In The Still Of The Night).wav

Pre-gap length 0:00:00.38

Peak level 100.0 %
Extraction speed 6.8 X
Track quality 99.9 %
Test CRC 6A402498
Copy CRC 6A402498
Accurately ripped (confidence 13) [0DD09143] (AR v2)
Copy OK

Track 6

Filename D:\WORKING\Ronnie Milsap - The Essential Ronnie Milsap (Disc 2)\06. Nobody Likes Sad Songs.wav

Pre-gap length 0:00:01.00

Peak level 99.8 %
Extraction speed 7.8 X
Track quality 100.0 %
Test CRC 49AD2F54
Copy CRC 49AD2F54
Accurately ripped (confidence 12) [90EA8BC3] (AR v2)
Copy OK

Track 7

Filename D:\WORKING\Ronnie Milsap - The Essential Ronnie Milsap (Disc 2)\07. Why Don't You Spend the Night.wav

Pre-gap length 0:00:00.20

Peak level 99.8 %
Extraction speed 7.4 X
Track quality 99.9 %
Test CRC A28C0D30
Copy CRC A28C0D30
Accurately ripped (confidence 11) [AC519F9E] (AR v2)
Copy OK

Track 8

Filename D:\WORKING\Ronnie Milsap - The Essential Ronnie Milsap (Disc 2)\08. Let's Take The Long Way Around The World.wav

Pre-gap length 0:00:00.55

Peak level 99.8 %
Extraction speed 8.3 X
Track quality 100.0 %
Test CRC A73F6CF7
Copy CRC A73F6CF7
Accurately ripped (confidence 11) [C799A19F] (AR v2)
Copy OK

Track 9

Filename D:\WORKING\Ronnie Milsap - The Essential Ronnie Milsap (Disc 2)\09. Happy, Happy Birthday Baby.wav

Pre-gap length 0:00:00.65

Peak level 100.0 %
Extraction speed 8.6 X
Track quality 100.0 %
Test CRC 2CF87F38
Copy CRC 2CF87F38
Accurately ripped (confidence 12) [1154BA02] (AR v2)
Copy OK

Track 10

Filename D:\WORKING\Ronnie Milsap - The Essential Ronnie Milsap (Disc 2)\10. She Keeps The Home Fires Burning.wav

Pre-gap length 0:00:00.42

Peak level 100.0 %
Extraction speed 9.1 X
Track quality 100.0 %
Test CRC 3019B700
Copy CRC 3019B700
Accurately ripped (confidence 12) [2EACC059] (AR v2)
Copy OK

Track 11

Filename D:\WORKING\Ronnie Milsap - The Essential Ronnie Milsap (Disc 2)\11. Inside.wav

Pre-gap length 0:00:01.62

Peak level 99.8 %
Extraction speed 9.4 X
Track quality 100.0 %
Test CRC 2F186C3A
Copy CRC 2F186C3A
Accurately ripped (confidence 11) [2EE6D844] (AR v2)
Copy OK

Track 12

Filename D:\WORKING\Ronnie Milsap - The Essential Ronnie Milsap (Disc 2)\12. Where Do The Nights Go.wav

Pre-gap length 0:00:00.60

Peak level 100.0 %
Extraction speed 9.7 X
Track quality 100.0 %
Test CRC 67B1354F
Copy CRC 67B1354F
Accurately ripped (confidence 11) [B4E9B257] (AR v2)
Copy OK

Track 13

Filename D:\WORKING\Ronnie Milsap - The Essential Ronnie Milsap (Disc 2)\13. In Love.wav

Pre-gap length 0:00:01.20

Peak level 100.0 %
Extraction speed 10.0 X
Track quality 100.0 %
Test CRC D3BF0A43
Copy CRC D3BF0A43
Accurately ripped (confidence 11) [D5FA7708] (AR v2)
Copy OK

Track 14

Filename D:\WORKING\Ronnie Milsap - The Essential Ronnie Milsap (Disc 2)\14. Cowboys and Clowns (From the Motion Picture Bronco Billy).wav

Pre-gap length 0:00:00.08

Peak level 87.5 %
Extraction speed 9.8 X
Track quality 100.0 %
Test CRC 70A8D241
Copy CRC 70A8D241
Accurately ripped (confidence 11) [5BD9AB22] (AR v2)
Copy OK

Track 15

Filename D:\WORKING\Ronnie Milsap - The Essential Ronnie Milsap (Disc 2)\15. Make No Mistake, She's Mine.wav

Pre-gap length 0:00:00.35

Peak level 99.8 %
Extraction speed 10.5 X
Track quality 100.0 %
Test CRC A3B9EF04
Copy CRC A3B9EF04
Accurately ripped (confidence 11) [8B9C8B64] (AR v2)
Copy OK

Track 16

Filename D:\WORKING\Ronnie Milsap - The Essential Ronnie Milsap (Disc 2)\16. How Do I Turn You On.wav

Peak level 100.0 %
Extraction speed 11.0 X
Track quality 100.0 %
Test CRC C251AE63
Copy CRC C251AE63
Accurately ripped (confidence 11) [93B45539] (AR v2)
Copy OK

Track 17

Filename D:\WORKING\Ronnie Milsap - The Essential Ronnie Milsap (Disc 2)\17. Still Losing You.wav

Pre-gap length 0:00:00.32

Peak level 100.0 %
Extraction speed 10.3 X
Track quality 99.9 %
Test CRC 5E7B0A74
Copy CRC 5E7B0A74
Accurately ripped (confidence 11) [1FB14AFD] (AR v2)
Copy OK

Track 18

Filename D:\WORKING\Ronnie Milsap - The Essential Ronnie Milsap (Disc 2)\18. Show Her.wav

Pre-gap length 0:00:01.45

Peak level 99.8 %
Extraction speed 11.1 X
Track quality 100.0 %
Test CRC DE4A8468
Copy CRC DE4A8468
Accurately ripped (confidence 11) [7C925A71] (AR v2)
Copy OK

Track 19

Filename D:\WORKING\Ronnie Milsap - The Essential Ronnie Milsap (Disc 2)\19. He Got You.wav

Pre-gap length 0:00:00.70

Peak level 99.8 %
Extraction speed 11.2 X
Track quality 100.0 %
Test CRC 3E350DBC
Copy CRC 3E350DBC
Accurately ripped (confidence 12) [3E1F1CCD] (AR v2)
Copy OK


All tracks accurately ripped

No errors occurred

End of status report

–– CUETools DB Plugin V2.1.6

[CTDB TOCID: WV40qLXmF7VxH1Q8S_OPWSkEJuU-] found
Submit result: WV40qLXmF7VxH1Q8S_OPWSkEJuU- has been confirmed
Track | CTDB Status
1 | (37/38) Accurately ripped
2 | (38/38) Accurately ripped
3 | (38/38) Accurately ripped
4 | (37/38) Accurately ripped
5 | (35/38) Accurately ripped
6 | (36/38) Accurately ripped
7 | (38/38) Accurately ripped
8 | (38/38) Accurately ripped
9 | (38/38) Accurately ripped
10 | (38/38) Accurately ripped
11 | (38/38) Accurately ripped
12 | (38/38) Accurately ripped
13 | (38/38) Accurately ripped
14 | (37/38) Accurately ripped
15 | (37/38) Accurately ripped
16 | (37/38) Accurately ripped
17 | (38/38) Accurately ripped
18 | (37/38) Accurately ripped
19 | (37/38) Accurately ripped


==== Log checksum 1FBDC24E4D28001A57C8C748C0A390A1DF358359CC6D335329D7A7A78F4321E6 ====

[CUETools log; Date: 02.07.2021 21:31:14; Version: 2.1.7]
[CTDB TOCID: WV40qLXmF7VxH1Q8S_OPWSkEJuU-] found.
Track | CTDB Status
1 | (45/46) Accurately ripped
2 | (46/46) Accurately ripped
3 | (46/46) Accurately ripped
4 | (45/46) Accurately ripped
5 | (43/46) Accurately ripped
6 | (44/46) Accurately ripped
7 | (46/46) Accurately ripped
8 | (46/46) Accurately ripped
9 | (46/46) Accurately ripped
10 | (46/46) Accurately ripped
11 | (46/46) Accurately ripped
12 | (46/46) Accurately ripped
13 | (46/46) Accurately ripped
14 | (45/46) Accurately ripped
15 | (45/46) Accurately ripped
16 | (44/46) Accurately ripped
17 | (46/46) Accurately ripped
18 | (45/46) Accurately ripped
19 | (45/46) Accurately ripped
[AccurateRip ID: 0034104c-02dcac23-23121113] found.
Track [ CRC | V2 ] Status
01 [a0782dae|ae1a9bef] (15+15/56) Accurately ripped
02 [82800137|1748e00a] (15+16/58) Accurately ripped
03 [b21e2199|48e13a87] (14+15/57) Accurately ripped
04 [c828ad1c|794e26c5] (15+16/56) Accurately ripped
05 [64316aeb|0dd09143] (15+16/55) Accurately ripped
06 [e01473de|90ea8bc3] (14+15/54) Accurately ripped
07 [ca4fa45d|ac519f9e] (14+14/53) Accurately ripped
08 [426d50f5|c799a19f] (15+14/55) Accurately ripped
09 [f347a8c4|1154ba02] (14+15/54) Accurately ripped
10 [580fd9dd|2eacc059] (14+15/55) Accurately ripped
11 [971d3aee|2ee6d844] (14+14/54) Accurately ripped
12 [21d0a6f6|b4e9b257] (14+14/54) Accurately ripped
13 [8e7a2dcf|d5fa7708] (14+14/54) Accurately ripped
14 [ad80c4d7|5bd9ab22] (14+14/55) Accurately ripped
15 [eb50eb9d|8b9c8b64] (14+14/54) Accurately ripped
16 [f8fc9840|93b45539] (14+13/53) Accurately ripped
17 [553d9d67|1fb14afd] (15+14/55) Accurately ripped
18 [e482599f|7c925a71] (14+14/54) Accurately ripped
19 [e9801fd4|3e1f1ccd] (14+15/54) Accurately ripped
Offsetted by -664:
01 [fc3dff1e] (04/56) Accurately ripped
02 [400e81c7] (04/58) Accurately ripped
03 [0fa558e1] (04/57) Accurately ripped
04 [7bba402c] (04/56) Accurately ripped
05 [f4fecee3] (04/55) Accurately ripped
06 [fac73f36] (04/54) Accurately ripped
07 [4bab1d1d] (04/53) Accurately ripped
08 [07eb049d] (04/55) Accurately ripped
09 [0cddb664] (04/54) Accurately ripped
10 [af863a8d] (04/55) Accurately ripped
11 [0bf5e026] (04/54) Accurately ripped
12 [76fb2c4e] (04/54) Accurately ripped
13 [688d170f] (04/54) Accurately ripped
14 [e286b457] (04/55) Accurately ripped
15 [1a42a43d] (04/54) Accurately ripped
16 [67ca7c58] (04/53) Accurately ripped
17 [d16db247] (04/55) Accurately ripped
18 [e00355e7] (04/54) Accurately ripped
19 [097e47e4] (04/54) Accurately ripped
Offsetted by -646:
01 [995e6aca] (02/56) Accurately ripped
02 [1397c09b] (02/58) Accurately ripped
03 [5a380b0b] (02/57) Accurately ripped
04 [def4c320] (02/56) Accurately ripped
05 [a6465949] (02/55) Accurately ripped
06 [55d04794] (02/54) Accurately ripped
07 [cfdf618d] (02/53) Accurately ripped
08 [c04048ff] (02/55) Accurately ripped
09 [f69504ac] (02/54) Accurately ripped
10 [05d3fbc9] (02/55) Accurately ripped
11 [9a87229c] (02/54) Accurately ripped
12 [1449712c] (02/54) Accurately ripped
13 [886c311f] (02/54) Accurately ripped
14 [e05156b7] (02/55) Accurately ripped
15 [0a564e45] (02/54) Accurately ripped
16 [59389126] (02/53) Accurately ripped
17 [df069c1f] (02/55) Accurately ripped
18 [9dd25851] (02/54) Accurately ripped
19 [0c7b3f18] (02/54) Accurately ripped

Track Peak [ CRC32 ] [W/O NULL] [ LOG ]
– 100,0 [493CEA56] [286F81D3]
01 92,0 [448ACAA1] [5B7B78B0] CRC32
02 99,8 [116F3729] [DEA06E60] CRC32
03 99,8 [BC0973F5] [7DBDCDC9] CRC32
04 99,8 [E60A7CFA] [17C5B6E7] CRC32
05 100,0 [6A402498] [08EC8780] CRC32
06 99,8 [49AD2F54] [FF40AB01] CRC32
07 99,8 [A28C0D30] [23250468] CRC32
08 99,8 [A73F6CF7] [2943D648] CRC32
09 100,0 [2CF87F38] [36E5F9E2] CRC32
10 100,0 [3019B700] [B62914FE] CRC32
11 99,8 [2F186C3A] [64F98247] CRC32
12 100,0 [67B1354F] [1EA12D6B] CRC32
13 100,0 [D3BF0A43] [0B5B075D] CRC32
14 87,5 [70A8D241] [18AE7806] CRC32
15 99,8 [A3B9EF04] [49D53069] CRC32
16 100,0 [C251AE63] [C12870EE] CRC32
17 100,0 [5E7B0A74] [8E05B7DA] CRC32
18 99,8 [DE4A8468] [2C459F0E] CRC32
19 99,8 [3E350DBC] [C75B1063] CRC32

foobar2000 1.6.3 / Dynamic Range Meter 1.1.1
log date: 2021-07-02 21:15:18

––––––––––––––––––––––––––––––––––––––––
Analyzed: Ronnie Milsap / The Essential Ronnie Milsap (Disc 2)
––––––––––––––––––––––––––––––––––––––––

DR Peak RMS Duration Track
––––––––––––––––––––––––––––––––––––––––
DR11 -0.72 dB -13.92 dB 3:36 01-I Wouldn't Have Missed It For The World
DR11 -0.01 dB -13.52 dB 3:41 02-Any Day Now
DR12 -0.01 dB -13.93 dB 4:13 03-Stranger in My House
DR12 -0.01 dB -15.01 dB 4:00 04-What A Difference You've Made In My Life
DR11 0.00 dB -14.40 dB 4:18 05-Lost In The Fifities Tonight (In The Still Of The Night)
DR11 -0.01 dB -13.89 dB 4:04 06-Nobody Likes Sad Songs
DR11 -0.01 dB -14.49 dB 4:12 07-Why Don't You Spend the Night
DR10 -0.01 dB -14.72 dB 3:27 08-Let's Take The Long Way Around The World
DR10 0.00 dB -13.06 dB 3:41 09-Happy, Happy Birthday Baby
DR12 0.00 dB -14.31 dB 3:58 10-She Keeps The Home Fires Burning
DR12 -0.01 dB -14.39 dB 4:03 11-Inside
DR11 0.00 dB -13.82 dB 4:31 12-Where Do The Nights Go
DR11 0.00 dB -13.20 dB 4:34 13-In Love
DR9 -1.16 dB -13.38 dB 3:15 14-Cowboys and Clowns (From the Motion Picture Bronco Billy)
DR11 -0.01 dB -15.37 dB 3:58 15-Make No Mistake, She's Mine
DR12 0.00 dB -13.54 dB 4:45 16-How Do I Turn You On
DR14 0.00 dB -16.20 dB 5:18 17-Still Losing You
DR10 -0.01 dB -13.72 dB 4:00 18-Show Her
DR12 -0.01 dB -14.56 dB 3:31 19-He Got You
––––––––––––––––––––––––––––––––––––––––

Number of tracks: 19
Official DR value: DR11

Samplerate: 44100 Hz
Channels: 2
Bits per sample: 16
Bitrate: 830 kbps
Codec: FLAC
================================================================================

Ronnie Milsap - The Essential Ronnie Milsap (2006) 2CDs

Ronnie Milsap - The Essential Ronnie Milsap (2006) 2CDs

All thanks to original releaser - doolykim

More interesting music in My Blog