Tags
Language
Tags

Roxy Music - Country Life (1974) [2015, Universal Music Japan, UICY-40125]

Posted By: v3122
Roxy Music - Country Life (1974) [2015, Universal Music Japan, UICY-40125]

Roxy Music - Country Life (1974)
EAC | Flac(Image) + Cue + Log & MP3 CBR 320Kbps
Universal Music Japan, UICY-40125 | ~ 258 or 104 Mb | Scans(png) -> 190 Mb
Art Rock / Pop Rock / Glam

Continuing with the stylistic developments of Stranded, Country Life finds Roxy Music at the peak of their powers, alternating between majestic, unsettling art rock and glamorous, elegant pop/rock. At their best, Roxy combine these two extremes, like on the exhilarating opener "The Thrill of It All," but Country Life benefits considerably from the ebb and flow of the group's two extremes, since it showcases their deft instrumental execution and their textured, enthralling songwriting. And, in many ways, Country Life offers the greatest and most consistent set of Roxy Music songs, illustrating their startling depth. From the sleek rock of "All I Want Is You" and "Prairie Rose" to the elegant, string-laced pop of "A Really Good Time," Country Life is filled with thrilling songs, and Roxy Music rarely sounded as invigorating as they do here.

by Stephen Thomas Erlewine, AMG
Roxy Music - Country Life (1974):

Roxy Music - Country Life (1974) [2015, Universal Music Japan, UICY-40125]

Tracklist:

01. The Thrill Of It All 06:26
02. Three And Nine 04:05
03. All I Want Is You 02:52
04. Out Of The Blue 04:49
05. If It Takes All Night 03:13
06. Bitter-Sweet 04:51
07. Triptych 03:09
08. Casanova 03:27
09. A Really Good Time 03:46
10. Prairie Rose 05:14

Exact Audio Copy V1.0 beta 4 from 7. December 2014

EAC extraction logfile from 14. February 2015, 12:23

Roxy Music / Country Life PT-SHM

Used drive : PLEXTOR BD-R PX-B950SA Adapter: 1 ID: 1

Read mode : Secure
Utilize accurate stream : Yes
Defeat audio cache : Yes
Make use of C2 pointers : No

Read offset correction : 6
Overread into Lead-In and Lead-Out : No
Fill up missing offset samples with silence : Yes
Delete leading and trailing silent blocks : No
Null samples used in CRC calculations : Yes
Used interface : Native Win32 interface for Win NT & 2000

Used output format : Internal WAV Routines
Sample format : 44.100 Hz; 16 Bit; Stereo


TOC of the extracted CD

Track | Start | Length | Start sector | End sector
––––––––––––––––––––––––––––-
1 | 0:00.00 | 6:26.12 | 0 | 28961
2 | 6:26.12 | 4:05.30 | 28962 | 47366
3 | 10:31.42 | 2:52.55 | 47367 | 60321
4 | 13:24.22 | 4:49.08 | 60322 | 82004
5 | 18:13.30 | 3:13.62 | 82005 | 96541
6 | 21:27.17 | 4:51.58 | 96542 | 118424
7 | 26:19.00 | 3:09.60 | 118425 | 132659
8 | 29:28.60 | 3:27.52 | 132660 | 148236
9 | 32:56.37 | 3:46.50 | 148237 | 165236
10 | 36:43.12 | 5:14.00 | 165237 | 188786


Range status and errors

Selected range

Filename C:\Users\Meijin\Desktop\ALLexxess\Roxy Music\1974 Country Life (Mini LP PT-SHM Universal Japan 2015)\Roxy Music - Country Life PT-SHM.wav

Peak level 97.9 %
Extraction speed 6.6 X
Range quality 100.0 %
Test CRC 0B7EFDDE
Copy CRC 0B7EFDDE
Copy OK

No errors occurred


AccurateRip summary

Track 1 not present in database
Track 2 not present in database
Track 3 not present in database
Track 4 not present in database
Track 5 not present in database
Track 6 not present in database
Track 7 not present in database
Track 8 not present in database
Track 9 not present in database
Track 10 not present in database

None of the tracks are present in the AccurateRip database

End of status report

–– CUETools DB Plugin V2.1.4

[CTDB TOCID: ZulNXwyNvmuYBtxxdUbuWGUyT18-] disk not present in database
Submit result: ZulNXwyNvmuYBtxxdUbuWGUyT18- has been uploaded


==== Log checksum 84A3624BB08A2611CD77112A7DF99C210B44D13C14254598C66E92E14BE9F86D ====

foobar2000 1.2.9 / Dynamic Range Meter 1.1.1
log date: 2015-02-23 15:18:27

––––––––––––––––––––––––––––––––––––––––
Analyzed: Roxy Music / Country Life PT-SHM
––––––––––––––––––––––––––––––––––––––––

DR Peak RMS Duration Track
––––––––––––––––––––––––––––––––––––––––
DR11 -0.80 dB -13.12 dB 6:26 01-The Thrill Of It All
DR12 -1.25 dB -15.36 dB 4:05 02-Three And Nine
DR10 -1.20 dB -13.87 dB 2:53 03-All I Want Is You
DR11 -1.14 dB -14.14 dB 4:49 04-Out Of The Blue
DR12 -0.60 dB -14.34 dB 3:14 05-If It Takes All Night
DR13 -1.49 dB -19.40 dB 4:52 06-Bitter-Sweet
DR12 -4.78 dB -18.98 dB 3:10 07-Triptych
DR11 -0.18 dB -14.39 dB 3:28 08-Casanova
DR13 -2.23 dB -17.95 dB 3:47 09-A Really Good Time
DR11 -1.15 dB -14.08 dB 5:14 10-Prairie Rose
––––––––––––––––––––––––––––––––––––––––

Number of tracks: 10
Official DR value: DR12

Samplerate: 44100 Hz
Channels: 2
Bits per sample: 16
Bitrate: 810 kbps
Codec: FLAC

[CUETools log; Date: 21.02.2015 19:42:07; Version: 2.1.4]
[CTDB TOCID: ZulNXwyNvmuYBtxxdUbuWGUyT18-] found.
Track | CTDB Status
1 | (1/1) Accurately ripped
2 | (1/1) Accurately ripped
3 | (1/1) Accurately ripped
4 | (1/1) Accurately ripped
5 | (1/1) Accurately ripped
6 | (1/1) Accurately ripped
7 | (1/1) Accurately ripped
8 | (1/1) Accurately ripped
9 | (1/1) Accurately ripped
10 | (1/1) Accurately ripped
[AccurateRip ID: 00104e00-007fee06-9209d50a] disk not present in database.

Track Peak [ CRC32 ] [W/O NULL] [ LOG ]
– 97,9 [0B7EFDDE] [A72E14EC] CRC32
01 91,1 [30B0741B] [99467407]
02 86,6 [1F19F25D] [45F9A7A1]
03 87,1 [6536DBBB] [A8F9DFC5]
04 87,7 [92B5D1AA] [87B872BF]
05 93,3 [71B1A39F] [9568BC6D]
06 84,2 [66394DD7] [046CA9E7]
07 57,6 [12230A93] [D1C3DE30]
08 97,9 [D6D9EB60] [C002B0BB]
09 77,3 [AF52A7BA] [0BF2ED24]
10 87,5 [0EE8407E] [6EC5E66D]

Roxy Music - Country Life (1974) [2015, Universal Music Japan, UICY-40125]

All thanks go to ALLexxess

Download Roxy Music - Country Life (1974):