Tags
Language
Tags

Roxy Music - Siren (1975) [2015, Universal Music Japan, UICY-40126]

Posted By: v3122
Roxy Music - Siren (1975) [2015, Universal Music Japan, UICY-40126]

Roxy Music - Siren (1975)
EAC | Flac(Image) + Cue + Log & MP3 CBR 320Kbps
Universal Music Japan, UICY-40126 | ~ 255 or 104 Mb | Scans(png) -> 196 Mb
Art Rock / Pop Rock / Glam

Abandoning the intoxicating blend of art rock and glam-pop that distinguished Stranded and Country Life, Roxy Music concentrates on Bryan Ferry's suave, charming crooner persona for the elegantly modern Siren. As the disco-fied opener "Love Is the Drug" makes clear, Roxy embraces dance and unabashed pop on Siren, weaving them into their sleek, arty sound. It does come at the expense of their artier inclinations, which is part of what distinguished Roxy, but the end result is captivating. Lacking the consistently amazing songs of its predecessor, Siren has a thematic consistency that works in its favor, and helps elevate its best songs – "Sentimental Fool," "Both Ends Burning," "Just Another High" – as well as the album itself into the realm of classics.

by Stephen Thomas Erlewine, AMG
Roxy Music - Siren (1975):

Roxy Music - Siren (1975) [2015, Universal Music Japan, UICY-40126]

Tracklist:

01. Love Is The Drug
02. End Of The Line
03. Sentimental Fool
04. Whirlwind
05. She Sells
06. Could It Happen To Me?
07. Both Ends Burning
08. Nightingale
09. Just Another High

Exact Audio Copy V1.0 beta 4 from 7. December 2014

EAC extraction logfile from 14. February 2015, 12:00

Roxy Music / Siren PT-SHM

Used drive : PLEXTOR BD-R PX-B950SA Adapter: 1 ID: 1

Read mode : Secure
Utilize accurate stream : Yes
Defeat audio cache : Yes
Make use of C2 pointers : No

Read offset correction : 6
Overread into Lead-In and Lead-Out : No
Fill up missing offset samples with silence : Yes
Delete leading and trailing silent blocks : No
Null samples used in CRC calculations : Yes
Used interface : Native Win32 interface for Win NT & 2000

Used output format : Internal WAV Routines
Sample format : 44.100 Hz; 16 Bit; Stereo


TOC of the extracted CD

Track | Start | Length | Start sector | End sector
––––––––––––––––––––––––––––-
1 | 0:00.00 | 4:11.50 | 0 | 18874
2 | 4:11.50 | 5:14.40 | 18875 | 42464
3 | 9:26.15 | 6:14.07 | 42465 | 70521
4 | 15:40.22 | 3:38.58 | 70522 | 86929
5 | 19:19.05 | 3:50.00 | 86930 | 104179
6 | 23:09.05 | 3:36.55 | 104180 | 120434
7 | 26:45.60 | 5:16.65 | 120435 | 144199
8 | 32:02.50 | 4:10.55 | 144200 | 163004
9 | 36:13.30 | 6:30.10 | 163005 | 192264


Range status and errors

Selected range

Filename C:\Users\Meijin\Desktop\ALLexxess\Roxy Music\1975 Siren (Mini LP PT-SHM Universal Japan 2015)\Roxy Music - Siren PT-SHM.wav

Peak level 99.3 %
Extraction speed 6.7 X
Range quality 100.0 %
Test CRC DA02FE59
Copy CRC DA02FE59
Copy OK

No errors occurred


AccurateRip summary

Track 1 not present in database
Track 2 not present in database
Track 3 not present in database
Track 4 not present in database
Track 5 not present in database
Track 6 not present in database
Track 7 not present in database
Track 8 not present in database
Track 9 not present in database

None of the tracks are present in the AccurateRip database

End of status report

–– CUETools DB Plugin V2.1.4

[CTDB TOCID: YZIkpTbUS_DJiGBxCEoWVgShTpY-] disk not present in database
Submit result: YZIkpTbUS_DJiGBxCEoWVgShTpY- has been uploaded


==== Log checksum AF47D4AB7E96ACE26B911521E9F76B601D604095514283B70DE56BD61D6236AA ====

foobar2000 1.2.9 / Dynamic Range Meter 1.1.1
log date: 2015-02-22 17:43:41

––––––––––––––––––––––––––––––––––––––––
Analyzed: Roxy Music / Siren PT-SHM
––––––––––––––––––––––––––––––––––––––––

DR Peak RMS Duration Track
––––––––––––––––––––––––––––––––––––––––
DR14 -0.06 dB -17.58 dB 4:12 01-Love Is The Drug
DR13 -1.88 dB -17.65 dB 5:15 02-End Of The Line
DR14 -1.62 dB -18.73 dB 6:14 03-Sentimental Fool
DR12 -1.66 dB -15.28 dB 3:39 04-Whirlwind
DR13 -1.08 dB -15.56 dB 3:50 05-She Sells
DR14 -1.24 dB -16.62 dB 3:37 06-Could It Happen To Me?
DR13 -2.10 dB -16.72 dB 5:17 07-Both Ends Burning
DR13 -1.41 dB -18.46 dB 4:11 08-Nightingale
DR14 -1.10 dB -17.46 dB 6:30 09-Just Another High
––––––––––––––––––––––––––––––––––––––––

Number of tracks: 9
Official DR value: DR13

Samplerate: 44100 Hz
Channels: 2
Bits per sample: 16
Bitrate: 756 kbps
Codec: FLAC

[CUETools log; Date: 21.02.2015 19:42:30; Version: 2.1.4]
[CTDB TOCID: YZIkpTbUS_DJiGBxCEoWVgShTpY-] found.
Track | CTDB Status
1 | (1/1) Accurately ripped
2 | (1/1) Accurately ripped
3 | (1/1) Accurately ripped
4 | (1/1) Accurately ripped
5 | (1/1) Accurately ripped
6 | (1/1) Accurately ripped
7 | (1/1) Accurately ripped
8 | (1/1) Accurately ripped
9 | (1/1) Accurately ripped
[AccurateRip ID: 000e631d-00692ef8-720a0309] disk not present in database.

Track Peak [ CRC32 ] [W/O NULL] [ LOG ]
– 99,3 [DA02FE59] [189B4FD5] CRC32
01 99,3 [D24AFF85] [99CD4E0A]
02 80,5 [5D778385] [3F140F36]
03 82,9 [CC5EA9B7] [E45E8DE0]
04 82,6 [30686DF1] [82A8D72A]
05 88,3 [959183AE] [54176156]
06 86,7 [71075D32] [76E8EB91]
07 78,4 [D331D252] [3CD62702]
08 85,0 [A2DB88A5] [C9FE2206]
09 88,1 [93CCEC35] [3A9FAB34]

Roxy Music - Siren (1975) [2015, Universal Music Japan, UICY-40126]

All thanks go to ALLexxess

Download Roxy Music - Siren (1975):