Tags
Language
Tags

Roy Orbison - Orbison 1955-1965 [2001, 7CD Box, Bear Family BCD 16423 GL]

Posted By: v3122
Roy Orbison - Orbison 1955-1965 [2001, 7CD Box, Bear Family BCD 16423 GL]

Roy Orbison - Orbison 1955-1965 [2001, 7CD Box, Bear Family BCD 16423 GL]
Rock'n'Roll | EAC Rip | Flac(Image) + Cue + Log | MP3 CBR 320Kbps | Covers(300dpi) -> 39 Mb
Bear Family Records | BCD 16423 GL | ~2303 + 1142 Mb

The ultimate Orbison! Between 1955 and 1965 Roy Orbison revolutionised popular music and these are the recordings that did it! This 7-CD set includes every recording from his golden decade! Beginning his career as a rockabilly singer on Jew-Wel and Sun Records , Roy scored one hit, 'Oooby Dooby', and left many great early rare and rockin' sides behind …'Problem Child, Down The Line, Rockhouse, Cat Called Domino'… as well as songs he wrote for Buddy Holly, like 'An Empty Cup' and 'You've Got Love'. Then Roy's song 'Claudette' (both early demo's included here for the first time!) became a hit for the Everly Brothers, and Roy went to Nashville to record first for RCA, then Monument. At Monument Records, Roy made the most perfectly realised pop music of the early-to-mid Sixties. Bruce Springsteen spoke of its "mysterious sense of longing." As Roy's contemporaries fell to the British Invasion, he went from strength to strength. All of his Monument recordings are complete here for the first time. All The hits, 'Uptown, Only The Lonely, Blue Angel, I'm Hurtin', Running Scared, Crying, Candy Man, Dream Baby, In Dreams, Falling, Mean Woman Blues, Blue Bayou, Pretty Paper, It's Over, Oh Pretty Woman', and more! All the B-sides, including songs that became big hits for other artists, like 'Today's Teardrops, Love Hurts', and 'Distant Drums'. And all the album tracks from all the Monument LPs, plus previously unissued alternate takes and rare demos! This set concludes with Roy's first MGM hit, 'Ride Away' from 1965, closing out incredible 10 years…10 years that changed the way popular music was made…
Roy Orbison - Orbison 1955-1965 [2001, 7CD Box, Bear Family BCD 16423 GL]

Roy Orbison:

Born: April 23, 1936, Vernon, TX
Died: December 06, 1988, Madison, TN
Active: '50s, '60s, '70s, '80s
Genres: Rock
Instrument: Vocals
Representative Albums: "16 Biggest Hits", "For the Lonely: 18 Greatest Hits", "The All-Time Greatest Hits of Roy Orbison"
Representative Songs: "Ooby Dooby", "Oh, Pretty Woman", "Crying"

Although he shared the same rockabilly roots as Carl Perkins, Johnny Cash, and Elvis Presley, Roy Orbison went on to pioneer an entirely different brand of country/pop-based rock & roll in the early '60s. What he lacked in charisma and photogenic looks, Orbison made up for in spades with his quavering operatic voice and melodramatic narratives of unrequited love and yearning. In the process, he established rock & roll archetypes of the underdog and the hopelessly romantic loser. These were not only amplified by peers such as Del Shannon and Gene Pitney, but also influenced future generations of roots rockers such as Bruce Springsteen and Chris Isaak, as well as modern country stars the Mavericks.

Orbison made his first widely distributed recordings for Sun Records in 1956. Roy was a capable rockabilly singer, and had a small national hit with his first Sun single, "Ooby Dooby." But even then, he was far more comfortable as a ballad singer than as a hepped-up rockabilly jive cat. Other Sun singles met with no success, and by the late '50s he was concentrating primarily on building a career as a songwriter, his biggest early success being "Claudette" (recorded by the Everly Brothers).

After a brief, unsuccessful stint with RCA, Orbison finally found his voice with Monument Records, scoring a number-two hit in 1960 with "Only the Lonely." This established the Roy Orbison persona for good: a brooding rockaballad of failed love with a sweet, haunting melody, enhanced by his Caruso-like vocal trills at the song's emotional climax. These and his subsequent Monument hits also boasted innovative, quasi-symphonic production, with Roy's voice and guitar backed by surging strings, ominous drum rolls, and heavenly choirs of backup vocalists.

Between 1960 and 1965, Orbison would have 15 Top 40 hits for Monument, including such nail-biting mini-dramas as "Running Scared," "Crying," "In Dreams," and "It's Over." Not just a singer of tear-jerking ballads, he was also capable of effecting a tough, bluesy swagger on "Dream Baby," "Candy Man," and "Mean Woman Blues." In fact, his biggest and best hit was also his hardest-rocking: "Oh, Pretty Woman" soared to number one in late 1964, at the peak of the British Invasion.

It seemed at that time that Roy was well-equipped to survive the British onslaught of the mid-'60s. He had even toured with the Beatles in Britain in 1963, and John Lennon has admitted to trying to emulate Orbison when writing the Beatles' first British chart-topper, "Please Please Me." But Orbison's fortunes declined rapidly after he left Monument for MGM in 1965. It would be easy to say that the major label couldn't replicate the unique production values of the classic Monument singles, but that's only part of the story. Roy, after all, was still writing most of his material, and his early MGM records were produced in a style that closely approximated the Monument era. The harder truth to face was that his songs were starting to sound like lesser variations of themselves, and that contemporary trends in rock and soul were making him sound outdated.

Orbison, like many early rock greats, could always depend on large overseas audiences to pay the bills. The two decades between the mid-'60s and mid-'80s were undeniably tough ones for him, though, both personally and professionally. A late-'60s stab at acting failed miserably. In 1966, his wife died in a motorcycle accident; a couple of years later, his house burned down, two of his sons perishing in the flames. Periodic comeback attempts with desultory albums in the 1970s came to naught.

Orbison's return to the public eye came about through unexpected circumstances. In the mid-'80s, David Lynch's Blue Velvet film prominently featured "In Dreams" on its soundtrack. That led to the singer making an entire album of re-recordings of hits, with T-Bone Burnett acting as producer. The record was no substitute for the originals, but it did help restore him to prominence within the industry. Shortly afterward, he joined George Harrison, Bob Dylan, Tom Petty, and Jeff Lynne in the Traveling Wilburys. Their successful album set the stage for Orbison's best album in over 20 years, Mystery Girl, which emulated the sound of his classic '60s work without sounding hackneyed. By the time it reached the charts in early 1989, however, Orbison was dead, claimed by a heart attack in December 1988

~ Richie Unterberger, Rovi

Roy Orbison - Orbison 1955-1965:

Roy Orbison - Orbison 1955-1965 [2001, 7CD Box, Bear Family BCD 16423 GL]

Tracklist Disc 1:

01 - Roy Orbison - 1956 - Ooby Dooby (The Teen Kings)
02 - Roy Orbison - 1956 - Trying To Get To You (The Teen Kings)
03 - Roy Orbison - 1956 - Ooby Dooby (Sun Master)
04 - Roy Orbison - 1956 - Go! Go! Go!
05 - Roy Orbison - 1989 - Trying To Get To You
06 - Roy Orbison - 1956 - You're My Baby
07 - Roy Orbison - 1956 - Rock House
08 - Roy Orbison - 1957 - Sweet And Easy To Love
09 - Roy Orbison - 1957 - Devil Doll
10 - Roy Orbison - 2001 - Love Dumb Baby (Fragment)
11 - Roy Orbison - 1974 - Fool's Hall Of Fame
12 - Roy Orbison - 1974 - A True Love Goodbye
13 - Roy Orbison - 1957 - Chicken Hearted
14 - Roy Orbison - 1957 - I Like Love
15 - Roy Orbison - 1988 - Mean Little Mama
16 - Roy Orbison - 1988 - Problem Child
17 - Roy Orbison - 1973 - Cat Called Domino
18 - Roy Orbison - 1984 - You Tell Me
19 - Roy Orbison - 1984 - I Give Up
20 - Roy Orbison - 1976 - One More Time
21 - Roy Orbison - 1976 - Lovestruck
22 - Roy Orbison - 1976 - The Clown
23 - Roy Orbison - 1974 - Claudette
24 - Roy Orbison - 1974 - The Cause Of It All
25 - Roy Orbison - 1988 - You're Gonna Cry
26 - Roy Orbison - 1988 - This Kind Of Love
27 - Roy Orbison - 1988 - It's Too Late
28 - Roy Orbison - 1988 - I Never Knew
29 - Roy Orbison - 1988 – Claudette

Exact Audio Copy V0.99 prebeta 4 from 23. January 2008

Отчёт EAC об извлечении, выполненном 25. февраля 2009, 22:49

Roy Orbison / Orbison - CD 1

Дисковод: Optiarc DVD RW AD-7203A Adapter: 3 ID: 0

Режим чтения : Достоверность
Использование точного потока : Да
Отключение кэша аудио : Да
Использование указателей C2 : Нет

Коррекция смещения при чтении : 48
Способность читать области Lead-in и Lead-out : Нет
Заполнение пропущенных сэмплов тишиной : Да
Удаление блоков с тишиной в начале и конце : Нет
При вычислениях CRC использовались нулевые сэмплы : Да
Интерфейс : Установленный внешний ASPI-интерфейс

Выходной формат : Внутренние WAV-операции
Формат сэмплов : 44.100 Гц; 16 бит; стерео


TOC извлечённого CD

Трек | Старт | Длительность | Начальный сектор | Конечный сектор
––––––––––––––––––––––––––––––––––-
1 | 0:00.00 | 2:25.00 | 0 | 10874
2 | 2:25.00 | 2:49.20 | 10875 | 23569
3 | 5:14.20 | 2:13.63 | 23570 | 33607
4 | 7:28.08 | 2:10.42 | 33608 | 43399
5 | 9:38.50 | 2:44.32 | 43400 | 55731
6 | 12:23.07 | 2:09.07 | 55732 | 65413
7 | 14:32.14 | 2:05.08 | 65414 | 74796
8 | 16:37.22 | 2:15.54 | 74797 | 84975
9 | 18:53.01 | 2:14.48 | 84976 | 95073
10 | 21:07.49 | 0:29.63 | 95074 | 97311
11 | 21:37.37 | 2:29.40 | 97312 | 108526
12 | 24:07.02 | 2:20.38 | 108527 | 119064
13 | 26:27.40 | 2:17.29 | 119065 | 129368
14 | 28:44.69 | 2:34.10 | 129369 | 140928
15 | 31:19.04 | 2:00.31 | 140929 | 149959
16 | 33:19.35 | 2:20.37 | 149960 | 160496
17 | 35:39.72 | 2:16.27 | 160497 | 170723
18 | 37:56.24 | 1:36.18 | 170724 | 177941
19 | 39:32.42 | 2:00.61 | 177942 | 187002
20 | 41:33.28 | 1:18.71 | 187003 | 192923
21 | 42:52.24 | 1:27.59 | 192924 | 199507
22 | 44:20.08 | 1:48.37 | 199508 | 207644
23 | 46:08.45 | 2:15.18 | 207645 | 217787
24 | 48:23.63 | 2:29.22 | 217788 | 228984
25 | 50:53.10 | 2:09.47 | 228985 | 238706
26 | 53:02.57 | 2:10.62 | 238707 | 248518
27 | 55:13.44 | 2:02.52 | 248519 | 257720
28 | 57:16.21 | 2:23.47 | 257721 | 268492
29 | 59:39.68 | 1:56.71 | 268493 | 277263


Характеристики диапазона извлечения и сообщения об ошибках

Выбранный диапазон

Имя файла D:\Раздачи\Orbison\CD 1\Roy Orbison - Orbison - CD 1.wav

Пиковый уровень 100.0 %
Качество диапазона 99.9 %
CRC копии 748FB378
Копирование… OK

Ошибок не произошло


AccurateRip: сводка

Трек 1 нет в базе данных
Трек 2 нет в базе данных
Трек 3 нет в базе данных
Трек 4 нет в базе данных
Трек 5 нет в базе данных
Трек 6 нет в базе данных
Трек 7 нет в базе данных
Трек 8 нет в базе данных
Трек 9 нет в базе данных
Трек 10 нет в базе данных
Трек 11 нет в базе данных
Трек 12 нет в базе данных
Трек 13 нет в базе данных
Трек 14 нет в базе данных
Трек 15 нет в базе данных
Трек 16 нет в базе данных
Трек 17 нет в базе данных
Трек 18 нет в базе данных
Трек 19 нет в базе данных
Трек 20 нет в базе данных
Трек 21 нет в базе данных
Трек 22 нет в базе данных
Трек 23 нет в базе данных
Трек 24 нет в базе данных
Трек 25 нет в базе данных
Трек 26 нет в базе данных
Трек 27 нет в базе данных
Трек 28 нет в базе данных
Трек 29 нет в базе данных

Ни одного трека нет в базе AccurateRip

Конец отчёта

AUDIOCHECKER v2.0 beta (build 457) - by Dester - opdester@freemail.hu
~~~~~~~~~~~~~~~~~~~~~~~~~~~~~~~~~~
-=== DO NOT EDIT THIS FILE! ===-

Path: …\CD 1

1 -=- Roy Orbison - Orbison - CD 1.flac -=- CDDA (100%)

161851652

[Verification date: 12.10.2010 14:15:53]
[Disc ID: 00411958-053161a0-b90e701d]
Track [ CRC ] Status
01 [fa650556] (04/04) Accurately ripped as in pressing(s) #1
02 [95682876] (04/04) Accurately ripped as in pressing(s) #1
03 [aac42744] (04/04) Accurately ripped as in pressing(s) #1
04 [e3c82426] (04/04) Accurately ripped as in pressing(s) #1
05 [c0a3fc82] (04/04) Accurately ripped as in pressing(s) #1
06 [f6024a13] (04/04) Accurately ripped as in pressing(s) #1
07 [5a00e24d] (04/04) Accurately ripped as in pressing(s) #1
08 [b4d1503b] (04/04) Accurately ripped as in pressing(s) #1
09 [a68d2a1b] (04/04) Accurately ripped as in pressing(s) #1
10 [651e089f] (04/04) Accurately ripped as in pressing(s) #1
11 [8bd03c78] (04/04) Accurately ripped as in pressing(s) #1
12 [bca53e9e] (04/04) Accurately ripped as in pressing(s) #1
13 [56945c68] (04/04) Accurately ripped as in pressing(s) #1
14 [7f9b3a93] (04/04) Accurately ripped as in pressing(s) #1
15 [95396100] (04/04) Accurately ripped as in pressing(s) #1
16 [82658400] (04/04) Accurately ripped as in pressing(s) #1
17 [dca1d548] (04/04) Accurately ripped as in pressing(s) #1
18 [80abcedf] (04/04) Accurately ripped as in pressing(s) #1
19 [2343112e] (04/04) Accurately ripped as in pressing(s) #1
20 [de2173dc] (04/04) Accurately ripped as in pressing(s) #1
21 [c463faa8] (04/04) Accurately ripped as in pressing(s) #1
22 [84229e50] (04/04) Accurately ripped as in pressing(s) #1
23 [7dc24e46] (04/04) Accurately ripped as in pressing(s) #1
24 [d38cf190] (04/04) Accurately ripped as in pressing(s) #1
25 [b67c8b79] (04/04) Accurately ripped as in pressing(s) #1
26 [c489e937] (04/04) Accurately ripped as in pressing(s) #1
27 [d2bb773c] (04/04) Accurately ripped as in pressing(s) #1
28 [b70f389b] (04/04) Accurately ripped as in pressing(s) #1
29 [8d6c2d77] (04/04) Accurately ripped as in pressing(s) #1

Track [ CRC32 ] [W/O NULL] [ LOG ]
– [748FB378] [E460D9D0] CRC32
01 [BBD6D620] [701FD526]
02 [19B922D3] [AE5A6974]
03 [7B6EB534] [A1B0F702]
04 [7696070D] [3A9B77B8]
05 [AA7E21EB] [A4C964E6]
06 [33881817] [C96DB6E6]
07 [37C51088] [6F630F26]
08 [8D969348] [C75076A5]
09 [3B658ADC] [4012039E]
10 [F474F56B] [87CFA7FF]
11 [5065BA4B] [BAE6ECED]
12 [2B782603] [1897436C]
13 [61A8EC05] [C437D8B5]
14 [44194A79] [11FADF80]
15 [938FA4B4] [E52EF4E9]
16 [06CD3233] [6BE18302]
17 [4F8CFC4D] [83E4FCFD]
18 [08B967EA] [0D37DC62]
19 [7C966C2D] [5CA36067]
20 [66406898] [7E1E5D25]
21 [484C9DFB] [6F79881A]
22 [E8A70A2C] [48067294]
23 [40EAC87B] [90D9A587]
24 [6AB38D77] [75FB19BD]
25 [8FCA8302] [2EDF1C50]
26 [966655EE] [8DE46B4D]
27 [93FFA430] [2352894F]
28 [75BF6E1F] [927688ED]
29 [231BFBEC] [18BD83A9]


Roy Orbison - Orbison 1955-1965 [2001, 7CD Box, Bear Family BCD 16423 GL]

Tracklist Disc 2:

01 - Roy Orbison - 1989 - Ooby Dooby (Alt.)
02 - Roy Orbison - 1984 - Ooby Dooby (Alt.2)
03 - Roy Orbison - 2001 - Ooby Dooby (Alt.3)
04 - Roy Orbison - 1988 - Trying To Get To You (Alt.)
05 - Roy Orbison - 2001 - Chicken Hearted (Semi Spolen Vocal)
06 - Roy Orbison - 1988 - Problem Child (Alt.)
07 - Roy Orbison - 1989 - The Clown (Alt.)
08 - Roy Orbison - 1988 - This Kind Of Love
09 - Roy Orbison - 1988 - It's Too Late (Alt.)
10 - Roy Orbison - 1958 - I Was A Fool (& Ken Cook)
11 - Roy Orbison - 1958 - Seems To Me
12 - Roy Orbison - 1958 - Sweet And Innocent
13 - Roy Orbison - 1983 - I'll Never Tell
14 - Roy Orbison - 1959 - Almost Eighteen
15 - Roy Orbison - 1959 - Jolle
16 - Roy Orbison - 1982 - Paper Boy
17 - Roy Orbison - 1982 - With The Bug
18 - Roy Orbison - 2001 - Ooby Dooby (The Wink Westerners)
19 - Roy Orbison - 2001 - Hey! Miss Fannie (The Wink Westerners)
20 - Roy Orbison - 2001 - A True Love Goodbye (The Teen Kings)
21 - Roy Orbison - 2001 - An Empty Cup (The Teen Kings)
22 - Roy Orbison - 2001 - Cat Called Domino (The Teen Kings)
23 - Roy Orbison - 2001 - I Guess I'm Lonely (& Joe Melson)
24 - Roy Orbison - 2001 - You Fool You (& Joe Melson)
25 - Roy Orbison - 2001 - Velveteen Doll (& Joe Melson)
26 - Roy Orbison - 2001 - She's Okay (& Joe Melson)

Exact Audio Copy V0.99 prebeta 4 from 23. January 2008

Отчёт EAC об извлечении, выполненном 25. февраля 2009, 23:16

Roy Orbison / Orbison - CD 2

Дисковод: Optiarc DVD RW AD-7203A Adapter: 3 ID: 0

Режим чтения : Достоверность
Использование точного потока : Да
Отключение кэша аудио : Да
Использование указателей C2 : Нет

Коррекция смещения при чтении : 48
Способность читать области Lead-in и Lead-out : Нет
Заполнение пропущенных сэмплов тишиной : Да
Удаление блоков с тишиной в начале и конце : Нет
При вычислениях CRC использовались нулевые сэмплы : Да
Интерфейс : Установленный внешний ASPI-интерфейс

Выходной формат : Внутренние WAV-операции
Формат сэмплов : 44.100 Гц; 16 бит; стерео


TOC извлечённого CD

Трек | Старт | Длительность | Начальный сектор | Конечный сектор
––––––––––––––––––––––––––––––––––-
1 | 0:00.00 | 2:13.59 | 0 | 10033
2 | 2:13.59 | 2:14.03 | 10034 | 20086
3 | 4:27.62 | 2:15.36 | 20087 | 30247
4 | 6:43.23 | 2:44.05 | 30248 | 42552
5 | 9:27.28 | 2:17.08 | 42553 | 52835
6 | 11:44.36 | 2:29.01 | 52836 | 64011
7 | 14:13.37 | 1:57.13 | 64012 | 72799
8 | 16:10.50 | 2:07.48 | 72800 | 82372
9 | 18:18.23 | 2:50.02 | 82373 | 95124
10 | 21:08.25 | 2:28.28 | 95125 | 106252
11 | 23:36.53 | 2:19.72 | 106253 | 116749
12 | 25:56.50 | 2:21.35 | 116750 | 127359
13 | 28:18.10 | 2:07.15 | 127360 | 136899
14 | 30:25.25 | 2:05.68 | 136900 | 146342
15 | 32:31.18 | 1:54.25 | 146343 | 154917
16 | 34:25.43 | 2:16.33 | 154918 | 165150
17 | 36:42.01 | 2:29.42 | 165151 | 176367
18 | 39:11.43 | 2:27.51 | 176368 | 187443
19 | 41:39.19 | 2:36.72 | 187444 | 199215
20 | 44:16.16 | 2:22.21 | 199216 | 209886
21 | 46:38.37 | 2:22.37 | 209887 | 220573
22 | 49:00.74 | 2:08.30 | 220574 | 230203
23 | 51:09.29 | 2:40.57 | 230204 | 242260
24 | 53:50.11 | 1:31.27 | 242261 | 249112
25 | 55:21.38 | 1:36.54 | 249113 | 256366
26 | 56:58.17 | 1:29.10 | 256367 | 263051


Характеристики диапазона извлечения и сообщения об ошибках

Выбранный диапазон

Имя файла D:\Раздачи\Orbison\CD 2\Roy Orbison - Orbison - CD 2.wav

Пиковый уровень 100.0 %
Качество диапазона 100.0 %
CRC копии 9D5F8956
Копирование… OK

Ошибок не произошло


AccurateRip: сводка

Трек 1 нет в базе данных
Трек 2 нет в базе данных
Трек 3 нет в базе данных
Трек 4 нет в базе данных
Трек 5 нет в базе данных
Трек 6 нет в базе данных
Трек 7 нет в базе данных
Трек 8 нет в базе данных
Трек 9 нет в базе данных
Трек 10 нет в базе данных
Трек 11 нет в базе данных
Трек 12 нет в базе данных
Трек 13 нет в базе данных
Трек 14 нет в базе данных
Трек 15 нет в базе данных
Трек 16 нет в базе данных
Трек 17 нет в базе данных
Трек 18 нет в базе данных
Трек 19 нет в базе данных
Трек 20 нет в базе данных
Трек 21 нет в базе данных
Трек 22 нет в базе данных
Трек 23 нет в базе данных
Трек 24 нет в базе данных
Трек 25 нет в базе данных
Трек 26 нет в базе данных

Ни одного трека нет в базе AccurateRip

Конец отчёта

AUDIOCHECKER v2.0 beta (build 457) - by Dester - opdester@freemail.hu
~~~~~~~~~~~~~~~~~~~~~~~~~~~~~~~~~~
-=== DO NOT EDIT THIS FILE! ===-

Path: …\CD 2

1 -=- Roy Orbison - Orbison - CD 2.flac -=- CDDA (99%)

10116612

[Verification date: 12.10.2010 14:16:36]
[Disc ID: 0037d1f5-041015cb-490db31a]
Track [ CRC ] Status
01 [84626a38] (04/04) Accurately ripped as in pressing(s) #1
02 [5a2b2088] (04/04) Accurately ripped as in pressing(s) #1
03 [ec30154f] (04/04) Accurately ripped as in pressing(s) #1
04 [f53cb31d] (04/04) Accurately ripped as in pressing(s) #1
05 [3366a2db] (04/04) Accurately ripped as in pressing(s) #1
06 [ea67fe8c] (04/04) Accurately ripped as in pressing(s) #1
07 [3fa17e3e] (04/04) Accurately ripped as in pressing(s) #1
08 [7afb98ae] (04/04) Accurately ripped as in pressing(s) #1
09 [cbf7102a] (04/04) Accurately ripped as in pressing(s) #1
10 [467324d2] (04/04) Accurately ripped as in pressing(s) #1
11 [2b02a50f] (04/04) Accurately ripped as in pressing(s) #1
12 [136935eb] (04/04) Accurately ripped as in pressing(s) #1
13 [84f76110] (04/04) Accurately ripped as in pressing(s) #1
14 [71763f6c] (04/04) Accurately ripped as in pressing(s) #1
15 [0647a073] (04/04) Accurately ripped as in pressing(s) #1
16 [6cbb625d] (04/04) Accurately ripped as in pressing(s) #1
17 [b1cb4ce4] (04/04) Accurately ripped as in pressing(s) #1
18 [8005c94b] (04/04) Accurately ripped as in pressing(s) #1
19 [e3effe82] (04/04) Accurately ripped as in pressing(s) #1
20 [56822576] (04/04) Accurately ripped as in pressing(s) #1
21 [f26c2739] (04/04) Accurately ripped as in pressing(s) #1
22 [eb42b1d6] (04/04) Accurately ripped as in pressing(s) #1
23 [812b9d45] (04/04) Accurately ripped as in pressing(s) #1
24 [2192dddf] (04/04) Accurately ripped as in pressing(s) #1
25 [437fc5ee] (04/04) Accurately ripped as in pressing(s) #1
26 [dbe09fe0] (04/04) Accurately ripped as in pressing(s) #1

Track [ CRC32 ] [W/O NULL] [ LOG ]
– [9D5F8956] [9EA3DCDD] CRC32
01 [CFC52443] [FE6EE2C3]
02 [5AA6A479] [D9651658]
03 [6ECFCB74] [7DF785F8]
04 [CF321185] [1E53AE07]
05 [32AEE130] [9DA884C9]
06 [BF0C044A] [4D79FA20]
07 [1CF14584] [0F2B93D9]
08 [D72E0ADE] [5715DB7E]
09 [177F7F8B] [FDAE026C]
10 [00C332C4] [82D7BD87]
11 [6DD3752A] [5EAD0539]
12 [34189C9E] [1AC27F40]
13 [884A6CDE] [B95DEAEB]
14 [F74ED2DB] [FE20E481]
15 [5F7C36B6] [0170F064]
16 [8991A6E8] [8A4CDDF6]
17 [D4BC4349] [48841B5D]
18 [93C37B0B] [F6D6E67B]
19 [265B3DD4] [BE6CA894]
20 [548A6416] [FE99F27F]
21 [7AE3B3F3] [DEFB5CB8]
22 [8458503A] [23C4F56C]
23 [B301746E] [124AA568]
24 [263D87DF] [F9E5823A]
25 [91073265] [604D02ED]
26 [5261FDF1] [2E4933A3]

Roy Orbison - Orbison 1955-1965 [2001, 7CD Box, Bear Family BCD 16423 GL]

Tracklist Disc 3:

01 - Roy Orbison - Ooby Dooby
02 - Roy Orbison - Racker Tacker
03 - Roy Orbison - Blue Suede Shoes
04 - Roy Orbison - Brown Eyed Handsome Man
05 - Roy Orbison - St. Louis Blues
06 - Roy Orbison - All By Myself
07 - Roy Orbison - Lawdy Miss Clawdy
08 - Roy Orbison - Jam
09 - Roy Orbison - Rock House
10 - Roy Orbison - Singing The Blues
11 - Roy Orbison - Pretend
12 - Roy Orbison - Rip It Up
13 - Roy Orbison - Trying To Get To You
14 - Roy Orbison - TK Blues
15 - Roy Orbison - Go! Go! Go!
16 - Roy Orbison - Bo Diddley
17 - Roy Orbison - Do You Remember (Talk About The Teen Kings)

Exact Audio Copy V0.99 prebeta 4 from 23. January 2008

Отчёт EAC об извлечении, выполненном 25. февраля 2009, 23:40

Roy Orbison / Orbison (3 of 7)

Дисковод: Optiarc DVD RW AD-7203A Adapter: 3 ID: 0

Режим чтения : Достоверность
Использование точного потока : Да
Отключение кэша аудио : Да
Использование указателей C2 : Нет

Коррекция смещения при чтении : 48
Способность читать области Lead-in и Lead-out : Нет
Заполнение пропущенных сэмплов тишиной : Да
Удаление блоков с тишиной в начале и конце : Нет
При вычислениях CRC использовались нулевые сэмплы : Да
Интерфейс : Установленный внешний ASPI-интерфейс

Выходной формат : Внутренние WAV-операции
Формат сэмплов : 44.100 Гц; 16 бит; стерео


TOC извлечённого CD

Трек | Старт | Длительность | Начальный сектор | Конечный сектор
––––––––––––––––––––––––––––––––––-
1 | 0:00.50 | 2:02.62 | 50 | 9261
2 | 2:03.37 | 2:08.25 | 9262 | 18886
3 | 4:11.62 | 1:54.00 | 18887 | 27436
4 | 6:05.62 | 2:17.03 | 27437 | 37714
5 | 8:22.65 | 1:55.67 | 37715 | 46406
6 | 10:18.57 | 1:57.00 | 46407 | 55181
7 | 12:15.57 | 2:18.15 | 55182 | 65546
8 | 14:33.72 | 2:00.55 | 65547 | 74601
9 | 16:34.52 | 1:53.63 | 74602 | 83139
10 | 18:28.40 | 2:07.37 | 83140 | 92701
11 | 20:36.02 | 2:12.23 | 92702 | 102624
12 | 22:48.25 | 3:04.37 | 102625 | 116461
13 | 25:52.62 | 2:22.25 | 116462 | 127136
14 | 28:15.12 | 2:20.53 | 127137 | 137689
15 | 30:35.65 | 1:32.67 | 137690 | 144656
16 | 32:08.57 | 2:03.08 | 144657 | 153889
17 | 34:11.65 | 38:34.12 | 153890 | 327451


Характеристики диапазона извлечения и сообщения об ошибках

Выбранный диапазон

Имя файла D:\Раздачи\Orbison\CD 3\Roy Orbison - Orbison (3 of 7).wav

Пиковый уровень 89.3 %
Качество диапазона 100.0 %
CRC копии A9F46ADE
Копирование… OK

Ошибок не произошло


AccurateRip: сводка

Трек 1 нет в базе данных
Трек 2 нет в базе данных
Трек 3 нет в базе данных
Трек 4 нет в базе данных
Трек 5 нет в базе данных
Трек 6 нет в базе данных
Трек 7 нет в базе данных
Трек 8 нет в базе данных
Трек 9 нет в базе данных
Трек 10 нет в базе данных
Трек 11 нет в базе данных
Трек 12 нет в базе данных
Трек 13 нет в базе данных
Трек 14 нет в базе данных
Трек 15 нет в базе данных
Трек 16 нет в базе данных
Трек 17 нет в базе данных

Ни одного трека нет в базе AccurateRip

Конец отчёта

AUDIOCHECKER v2.0 beta (build 457) - by Dester - opdester@freemail.hu
~~~~~~~~~~~~~~~~~~~~~~~~~~~~~~~~~~
-=== DO NOT EDIT THIS FILE! ===-

Path: …\CD 3

1 -=- Roy Orbison - Orbison (3 of 7).flac -=- CDDA (100%)

239781556

[Verification date: 12.10.2010 14:17:26]
[Disc ID: 0018bb6c-01481346-de110e11]
Pregap length 00:00:50.
Track [ CRC ] Status
01 [f6a120d2] (05/05) Accurately ripped as in pressing(s) #1
02 [a93d1dda] (05/05) Accurately ripped as in pressing(s) #1
03 [4ca994c0] (05/05) Accurately ripped as in pressing(s) #1
04 [7dff15d8] (05/05) Accurately ripped as in pressing(s) #1
05 [491fe43a] (05/05) Accurately ripped as in pressing(s) #1
06 [44e7e4a2] (05/05) Accurately ripped as in pressing(s) #1
07 [01f1e33f] (05/05) Accurately ripped as in pressing(s) #1
08 [9655214c] (05/05) Accurately ripped as in pressing(s) #1
09 [24ebf53b] (05/05) Accurately ripped as in pressing(s) #1
10 [2b7e52fc] (05/05) Accurately ripped as in pressing(s) #1
11 [b8da12f7] (05/05) Accurately ripped as in pressing(s) #1
12 [428cd1ef] (05/05) Accurately ripped as in pressing(s) #1
13 [0a1feda0] (05/05) Accurately ripped as in pressing(s) #1
14 [ac96670a] (05/05) Accurately ripped as in pressing(s) #1
15 [f2a88619] (05/05) Accurately ripped as in pressing(s) #1
16 [96d100db] (05/05) Accurately ripped as in pressing(s) #1
17 [bb8919e5] (04/04) Accurately ripped as in pressing(s) #1

Track [ CRC32 ] [W/O NULL] [ LOG ]
– [A9F46ADE] [AF9B632E] CRC32
01 [EC8082C2] [37D5E6D2]
02 [5052CEF7] [B8DEE156]
03 [720DBB60] [DB8DD5D3]
04 [1C2DF7C7] [3E356D2E]
05 [286755C4] [907F3DEC]
06 [2D95B8CB] [FCF25CE8]
07 [AAC96869] [0413B065]
08 [48895CF2] [101CE34F]
09 [B3826162] [B13A0C11]
10 [7C041C61] [866B04CA]
11 [0A8ED771] [D29DBBDC]
12 [8DAB418E] [18430BDD]
13 [FDE368AD] [7CCD9ABA]
14 [2E95A4BC] [A3312A95]
15 [91A458BE] [DD5EA54B]
16 [657D10FF] [A884A18B]
17 [A6D96BA3] [AFD752C9]

Roy Orbison - Orbison 1955-1965 [2001, 7CD Box, Bear Family BCD 16423 GL]

Tracklist Disc 4:

01 - Roy Orbison - 1959 - Paper Boy
02 - Roy Orbison - 1989 - Double Date
03 - Roy Orbison - 1959 - With The Bug
04 - Roy Orbison - 1959 - Up Town
05 - Roy Orbison - 1960 - Raindrops
06 - Roy Orbison - 1959 - Pretty One
07 - Roy Orbison - 1960 - Blue Avenue
08 - Roy Orbison - 1960 - Only The Lonely
09 - Roy Orbison - 1960 - Here Comes That Song Again
10 - Roy Orbison - 1960 - Today's Teardrops
11 - Roy Orbison - 1960 - Blue Angel
12 - Roy Orbison - 1960 - I'll Say It's My Fault
13 - Roy Orbison - 1960 - Come Back To Me (My Love)
14 - Roy Orbison - 1960 - (I'd Be) A Legend In My Time
15 - Roy Orbison - 1960 - Bye Bye Love
16 - Roy Orbison - 1960 - Twentytwo Days
17 - Roy Orbison - 1960 - Cry
18 - Roy Orbison - 1960 - I Can't Stop Loving You
19 - Roy Orbison - 1960 - I'm Hurtin'
20 - Roy Orbison - 1983 - Darkness
21 - Roy Orbison - 1961 - Let's Make A Memory
22 - Roy Orbison - 1961 - Love Hurts
23 - Roy Orbison - 1961 - Running Scared
24 - Roy Orbison - 1961 - Nightlife (semi spoken intro)
25 - Roy Orbison - 1961 - Summer Song
26 - Roy Orbison - 1961 - Loneliness
27 - Roy Orbison - 1961 – Dance

Exact Audio Copy V0.99 prebeta 4 from 23. January 2008

Отчёт EAC об извлечении, выполненном 26. февраля 2009, 0:05

Roy Orbison / Orbison - CD 4

Дисковод: Optiarc DVD RW AD-7203A Adapter: 3 ID: 0

Режим чтения : Достоверность
Использование точного потока : Да
Отключение кэша аудио : Да
Использование указателей C2 : Нет

Коррекция смещения при чтении : 48
Способность читать области Lead-in и Lead-out : Нет
Заполнение пропущенных сэмплов тишиной : Да
Удаление блоков с тишиной в начале и конце : Нет
При вычислениях CRC использовались нулевые сэмплы : Да
Интерфейс : Установленный внешний ASPI-интерфейс

Выходной формат : Внутренние WAV-операции
Формат сэмплов : 44.100 Гц; 16 бит; стерео


TOC извлечённого CD

Трек | Старт | Длительность | Начальный сектор | Конечный сектор
––––––––––––––––––––––––––––––––––-
1 | 0:00.00 | 2:12.45 | 0 | 9944
2 | 2:12.45 | 2:22.36 | 9945 | 20630
3 | 4:35.06 | 2:26.25 | 20631 | 31605
4 | 7:01.31 | 2:06.59 | 31606 | 41114
5 | 9:08.15 | 1:57.16 | 41115 | 49905
6 | 11:05.31 | 2:20.19 | 49906 | 60424
7 | 13:25.50 | 2:22.51 | 60425 | 71125
8 | 15:48.26 | 2:29.54 | 71126 | 82354
9 | 18:18.05 | 2:48.71 | 82355 | 95025
10 | 21:07.01 | 2:13.03 | 95026 | 105003
11 | 23:20.04 | 2:55.26 | 105004 | 118154
12 | 26:15.30 | 2:27.63 | 118155 | 129242
13 | 28:43.18 | 2:31.43 | 129243 | 140610
14 | 31:14.61 | 3:09.08 | 140611 | 154793
15 | 34:23.69 | 2:17.49 | 154794 | 165117
16 | 36:41.43 | 2:53.70 | 165118 | 178162
17 | 39:35.38 | 2:46.42 | 178163 | 190654
18 | 42:22.05 | 2:46.30 | 190655 | 203134
19 | 45:08.35 | 2:48.28 | 203135 | 215762
20 | 47:56.63 | 2:51.18 | 215763 | 228605
21 | 50:48.06 | 2:18.36 | 228606 | 238991
22 | 53:06.42 | 2:28.02 | 238992 | 250093
23 | 55:34.44 | 2:15.68 | 250094 | 260286
24 | 57:50.37 | 2:33.05 | 260287 | 271766
25 | 60:23.42 | 2:47.59 | 271767 | 284350
26 | 63:11.26 | 2:33.67 | 284351 | 295892
27 | 65:45.18 | 2:51.58 | 295893 | 308775


Характеристики диапазона извлечения и сообщения об ошибках

Выбранный диапазон

Имя файла D:\Раздачи\Orbison\CD 4\Roy Orbison - Orbison - CD 4.wav

Пиковый уровень 100.0 %
Качество диапазона 100.0 %
CRC копии 705018FF
Копирование… OK

Ошибок не произошло


AccurateRip: сводка

Трек 1 нет в базе данных
Трек 2 нет в базе данных
Трек 3 нет в базе данных
Трек 4 нет в базе данных
Трек 5 нет в базе данных
Трек 6 нет в базе данных
Трек 7 нет в базе данных
Трек 8 нет в базе данных
Трек 9 нет в базе данных
Трек 10 нет в базе данных
Трек 11 нет в базе данных
Трек 12 нет в базе данных
Трек 13 нет в базе данных
Трек 14 нет в базе данных
Трек 15 нет в базе данных
Трек 16 нет в базе данных
Трек 17 нет в базе данных
Трек 18 нет в базе данных
Трек 19 нет в базе данных
Трек 20 нет в базе данных
Трек 21 нет в базе данных
Трек 22 нет в базе данных
Трек 23 нет в базе данных
Трек 24 нет в базе данных
Трек 25 нет в базе данных
Трек 26 нет в базе данных
Трек 27 нет в базе данных

Ни одного трека нет в базе AccurateRip

Конец отчёта

AUDIOCHECKER v2.0 beta (build 457) - by Dester - opdester@freemail.hu
~~~~~~~~~~~~~~~~~~~~~~~~~~~~~~~~~~
-=== DO NOT EDIT THIS FILE! ===-

Path: …\CD 4

1 -=- Roy Orbison - Orbison - CD 4.flac -=- CDDA (100%)

161757444

[Verification date: 12.10.2010 14:18:10]
[Disc ID: 00401c46-04e4b42e-8310151b]
Track [ CRC ] Status
01 [ff9a007d] (04/04) Accurately ripped as in pressing(s) #1
02 [99b19a37] (04/04) Accurately ripped as in pressing(s) #1
03 [95ec08a0] (04/04) Accurately ripped as in pressing(s) #1
04 [4ea13c0a] (04/04) Accurately ripped as in pressing(s) #1
05 [a75fbd81] (04/04) Accurately ripped as in pressing(s) #1
06 [5ae74025] (04/04) Accurately ripped as in pressing(s) #1
07 [71a82329] (04/04) Accurately ripped as in pressing(s) #1
08 [37541c97] (04/04) Accurately ripped as in pressing(s) #1
09 [afdf7dc5] (04/04) Accurately ripped as in pressing(s) #1
10 [c4bb31ff] (04/04) Accurately ripped as in pressing(s) #1
11 [a4f3067a] (04/04) Accurately ripped as in pressing(s) #1
12 [966baec7] (04/04) Accurately ripped as in pressing(s) #1
13 [3e75e89e] (04/04) Accurately ripped as in pressing(s) #1
14 [66cad332] (04/04) Accurately ripped as in pressing(s) #1
15 [b56bd4f6] (04/04) Accurately ripped as in pressing(s) #1
16 [c083bd65] (04/04) Accurately ripped as in pressing(s) #1
17 [7799ee2a] (04/04) Accurately ripped as in pressing(s) #1
18 [5c47df77] (04/04) Accurately ripped as in pressing(s) #1
19 [fbd4c1d4] (04/04) Accurately ripped as in pressing(s) #1
20 [263ed5c9] (04/04) Accurately ripped as in pressing(s) #1
21 [56f34df6] (04/04) Accurately ripped as in pressing(s) #1
22 [9c8b96e5] (04/04) Accurately ripped as in pressing(s) #1
23 [c4706fc3] (04/04) Accurately ripped as in pressing(s) #1
24 [7a5189cf] (04/04) Accurately ripped as in pressing(s) #1
25 [1fe79c42] (04/04) Accurately ripped as in pressing(s) #1
26 [cff15a6d] (04/04) Accurately ripped as in pressing(s) #1
27 [acec14a3] (04/04) Accurately ripped as in pressing(s) #1

Track [ CRC32 ] [W/O NULL] [ LOG ]
– [705018FF] [E0813B2E] CRC32
01 [9EC58A58] [900D480B]
02 [814115E2] [C6121C02]
03 [B5CB084A] [747ABF13]
04 [F6A5293A] [CB72172D]
05 [A2517DB1] [AC5D9DC0]
06 [A99CAC8B] [A6E786BD]
07 [1412FE15] [B03BB192]
08 [69D2274F] [E541175C]
09 [EB58B112] [1A52393B]
10 [DC7F7561] [B0D83C15]
11 [662BB38B] [69A16D4E]
12 [78ED5353] [4B7D1FEF]
13 [FDA5678E] [AA13A127]
14 [00D9B5FD] [3A54AAAC]
15 [9F791318] [FB9461EC]
16 [691325EE] [D4711F93]
17 [25725EC8] [F6DFE24A]
18 [BE9905DB] [CD1B65CD]
19 [5468047B] [F06B79D4]
20 [A0B575A9] [35AD76C0]
21 [DBF376DD] [ED5E7639]
22 [718CEFDB] [DC46289D]
23 [8D351916] [2309992E]
24 [6FDC7900] [BAD9717E]
25 [F5C4F658] [2C8BA998]
26 [D654A43D] [3E90544B]
27 [C530F344] [DE2A4422]

Roy Orbison - Orbison 1955-1965 [2001, 7CD Box, Bear Family BCD 16423 GL]

Tracklist Disc 5:

01 - Roy Orbison - 1961 / Lana
02 - Roy Orbison - 1965 / Dance
03 - Roy Orbison - 1961 / She Wears My Ring
04 - Roy Orbison - 1961 / Crying
05 - Roy Orbison - 1963 / Sunset
06 - Roy Orbison - 1961 / The Great Pretender
07 - Roy Orbison - 1961 / Candy Man
08 - Roy Orbison - 1963 / House Without Windows
09 - Roy Orbison - 1990 / (They Call You) Gigolette
10 - Roy Orbison - 1983 / How Are Things In Paradise
11 - Roy Orbison - 1963 / (They Call You) Gigolette
12 - Roy Orbison - 1961 / Wedding Day
13 - Roy Orbison - 1983 / Yes
14 - Roy Orbison - 1965 / Let The Good Times Roll
15 - Roy Orbison - 1963 / Blue Bayou (2)
16 - Roy Orbison - 1983 / Party Heart
17 - Roy Orbison - 1962 / Evergreen
18 - Roy Orbison - 1962 / Love Star
19 - Roy Orbison - 1962 / Dream Baby
20 - Roy Orbison - 1962 / The Actress
21 - Roy Orbison - 1963 / No One Will Ever Know
22 - Roy Orbison - 1962 / The Crowd (2)
23 - Roy Orbison - 1962 / Mama
24 - Roy Orbison - 1965 / (I Get So) Sentimental
25 - Roy Orbison - 1962 / Leah
26 - Roy Orbison - 1962 / Working For The Man
27 - Roy Orbison - 1964 / Borne On The Wind
28 - Roy Orbison - 1963 / Distant Drums

Exact Audio Copy V0.99 prebeta 4 from 23. January 2008

Отчёт EAC об извлечении, выполненном 26. февраля 2009, 0:31

Roy Orbison / Orbison - CD 5

Дисковод: Optiarc DVD RW AD-7203A Adapter: 3 ID: 0

Режим чтения : Достоверность
Использование точного потока : Да
Отключение кэша аудио : Да
Использование указателей C2 : Нет

Коррекция смещения при чтении : 48
Способность читать области Lead-in и Lead-out : Нет
Заполнение пропущенных сэмплов тишиной : Да
Удаление блоков с тишиной в начале и конце : Нет
При вычислениях CRC использовались нулевые сэмплы : Да
Интерфейс : Установленный внешний ASPI-интерфейс

Выходной формат : Внутренние WAV-операции
Формат сэмплов : 44.100 Гц; 16 бит; стерео


TOC извлечённого CD

Трек | Старт | Длительность | Начальный сектор | Конечный сектор
––––––––––––––––––––––––––––––––––-
1 | 0:00.00 | 2:17.51 | 0 | 10325
2 | 2:17.51 | 2:43.58 | 10326 | 22608
3 | 5:01.34 | 2:33.62 | 22609 | 34145
4 | 7:35.21 | 2:48.06 | 34146 | 46751
5 | 10:23.27 | 2:31.60 | 46752 | 58136
6 | 12:55.12 | 3:02.66 | 58137 | 71852
7 | 15:58.03 | 2:43.45 | 71853 | 84122
8 | 18:41.48 | 2:24.53 | 84123 | 94975
9 | 21:06.26 | 2:49.27 | 94976 | 107677
10 | 23:55.53 | 2:11.44 | 107678 | 117546
11 | 26:07.22 | 2:39.58 | 117547 | 129529
12 | 28:47.05 | 2:09.63 | 129530 | 139267
13 | 30:56.68 | 2:19.44 | 139268 | 149736
14 | 33:16.37 | 2:34.09 | 149737 | 161295
15 | 35:50.46 | 2:29.44 | 161296 | 172514
16 | 38:20.15 | 2:34.59 | 172515 | 184123
17 | 40:54.74 | 2:48.12 | 184124 | 196735
18 | 43:43.11 | 3:01.46 | 196736 | 210356
19 | 46:44.57 | 2:36.57 | 210357 | 222113
20 | 49:21.39 | 2:40.02 | 222114 | 234115
21 | 52:01.41 | 2:31.50 | 234116 | 245490
22 | 54:33.16 | 2:25.37 | 245491 | 256402
23 | 56:58.53 | 3:02.64 | 256403 | 270116
24 | 60:01.42 | 2:42.23 | 270117 | 282289
25 | 62:43.65 | 2:42.08 | 282290 | 294447
26 | 65:25.73 | 2:25.20 | 294448 | 305342
27 | 67:51.18 | 2:54.58 | 305343 | 318450
28 | 70:46.01 | 3:10.50 | 318451 | 332750


Характеристики диапазона извлечения и сообщения об ошибках

Выбранный диапазон

Имя файла D:\Раздачи\Orbison\CD 5\Roy Orbison - Orbison - CD 5.wav

Пиковый уровень 100.0 %
Качество диапазона 99.9 %
CRC копии 2210BCD4
Копирование… OK

Ошибок не произошло


AccurateRip: сводка

Трек 1 нет в базе данных
Трек 2 нет в базе данных
Трек 3 нет в базе данных
Трек 4 точное извлечение (доверие 2) [B77690C8]
Трек 5 нет в базе данных
Трек 6 нет в базе данных
Трек 7 нет в базе данных
Трек 8 нет в базе данных
Трек 9 нет в базе данных
Трек 10 нет в базе данных
Трек 11 нет в базе данных
Трек 12 нет в базе данных
Трек 13 нет в базе данных
Трек 14 нет в базе данных
Трек 15 нет в базе данных
Трек 16 нет в базе данных
Трек 17 нет в базе данных
Трек 18 нет в базе данных
Трек 19 нет в базе данных
Трек 20 нет в базе данных
Трек 21 нет в базе данных
Трек 22 нет в базе данных
Трек 23 нет в базе данных
Трек 24 нет в базе данных
Трек 25 нет в базе данных
Трек 26 нет в базе данных
Трек 27 нет в базе данных
Трек 28 нет в базе данных

1 трек(и) скопированы точно
27 трек(и) не содержатся в базе AccurateRip

Некоторые треки не прошли проверку на точность

Конец отчёта

AUDIOCHECKER v2.0 beta (build 457) - by Dester - opdester@freemail.hu
~~~~~~~~~~~~~~~~~~~~~~~~~~~~~~~~~~
-=== DO NOT EDIT THIS FILE! ===-

Path: …\CD 5

1 -=- Roy Orbison - Orbison - CD 5.flac -=- CDDA (100%)

161769732

[Verification date: 12.10.2010 14:18:59]
[Disc ID: 00488752-05ac5624-a511541c]
Track [ CRC ] Status
01 [7b6d068b] (05/05) Accurately ripped as in pressing(s) #1
02 [69c57bbf] (05/05) Accurately ripped as in pressing(s) #1
03 [314e37ed] (05/05) Accurately ripped as in pressing(s) #1
04 [b77690c8] (06/06) Accurately ripped as in pressing(s) #1
05 [f2ad61ec] (05/05) Accurately ripped as in pressing(s) #1
06 [b24f30ae] (05/05) Accurately ripped as in pressing(s) #1
07 [bbedd364] (05/05) Accurately ripped as in pressing(s) #1
08 [41f5f3e0] (05/05) Accurately ripped as in pressing(s) #1
09 [265efdcf] (05/05) Accurately ripped as in pressing(s) #1
10 [a05fb755] (05/05) Accurately ripped as in pressing(s) #1
11 [7384d444] (05/05) Accurately ripped as in pressing(s) #1
12 [bc95f544] (05/05) Accurately ripped as in pressing(s) #1
13 [26b85f09] (05/05) Accurately ripped as in pressing(s) #1
14 [8717eaa2] (05/05) Accurately ripped as in pressing(s) #1
15 [fae620df] (05/05) Accurately ripped as in pressing(s) #1
16 [f0db9965] (05/05) Accurately ripped as in pressing(s) #1
17 [ce9be112] (05/05) Accurately ripped as in pressing(s) #1
18 [8ebd1daa] (05/05) Accurately ripped as in pressing(s) #1
19 [10cf3aaa] (05/05) Accurately ripped as in pressing(s) #1
20 [ca6c71a2] (05/05) Accurately ripped as in pressing(s) #1
21 [48cf437f] (05/05) Accurately ripped as in pressing(s) #1
22 [a4a606a7] (05/05) Accurately ripped as in pressing(s) #1
23 [241e18b5] (05/05) Accurately ripped as in pressing(s) #1
24 [b2e20d6e] (05/05) Accurately ripped as in pressing(s) #1
25 [f958ae3f] (05/05) Accurately ripped as in pressing(s) #1
26 [30645b05] (05/05) Accurately ripped as in pressing(s) #1
27 [d4d68c61] (05/05) Accurately ripped as in pressing(s) #1
28 [33246128] (05/05) Accurately ripped as in pressing(s) #1

Track [ CRC32 ] [W/O NULL] [ LOG ]
– [2210BCD4] [BFF4F0E1] CRC32
01 [2C890779] [6662459E]
02 [4D620B7A] [A57D09EE]
03 [3CD079B5] [B10EC6A9]
04 [EAADE899] [62858798]
05 [F714FF5E] [ED9AFEAE]
06 [793BDC39] [4B8B0B61]
07 [1C241D7B] [D35CEB31]
08 [1EBF3510] [390F64F3]
09 [B86EB0A2] [A6DB6A8D]
10 [BD1130A0] [A41108DC]
11 [272610DA] [927A7BBD]
12 [9070392A] [EBCBAF6C]
13 [7F75C114] [CA5179BA]
14 [081EF3DA] [086424E1]
15 [D6D2E2A1] [4BD4500B]
16 [6F2F5D2B] [D105613A]
17 [641B53BD] [3855CB12]
18 [97D4A3F1] [1700595B]
19 [C6FC3AB5] [0077F9C6]
20 [440E5193] [309BCE4B]
21 [5DD6B3FA] [495AE166]
22 [711A4D1A] [7A7EE211]
23 [704A750F] [A6DF129C]
24 [102CF2CE] [B744C2FD]
25 [15EF3963] [91E4C4A7]
26 [017A6F76] [37D7DCDD]
27 [C4139667] [A0FD2F00]
28 [AA4CFE0D] [251C0D2A]

Roy Orbison - Orbison 1955-1965 [2001, 7CD Box, Bear Family BCD 16423 GL]

Tracklist Disc 6:

01 - Roy Orbison - 1963 - Falling
02 - Roy Orbison - 1963 - Shahdaroba
03 - Roy Orbison - 1963 - In Dreams
04 - Roy Orbison - 1963 - Dream
05 - Roy Orbison - 1963 - My Prayer
06 - Roy Orbison - 1963 - Lonely Wine
07 - Roy Orbison - 1963 - Beautiful Dreamer
08 - Roy Orbison - 1963 - All I Have To Do Is Dream
09 - Roy Orbison - 1963 - Mean Woman Blues
10 - Roy Orbison - 1964 - What'd I Say
11 - Roy Orbison - 1963 - San Fernando
12 - Roy Orbison - 1963 - Mama
13 - Roy Orbison - 1963 - Pretty Paper
14 - Roy Orbison - 1990 - Almost
15 - Roy Orbison - 1964 - It's Over
16 - Roy Orbison - 1964 - Indian Wedding
17 - Roy Orbison - 1964 - Oh Pretty Woman
18 - Roy Orbison - 1964 - Yo Te Amo Maria
19 - Roy Orbison - 1965 - Only With You
20 - Roy Orbison - 1965 - Goodnight
21 - Roy Orbison - 1965 - (Say) You're My Girl (fast)
22 - Roy Orbison - 1965 - (Say) You're My Girl (slow)
23 - Roy Orbison - 1965 - Sleepy Hollow
24 - Roy Orbison - 1965 - Ride Away

Exact Audio Copy V0.99 prebeta 4 from 23. January 2008

Отчёт EAC об извлечении, выполненном 26. февраля 2009, 1:01

Roy Orbison / Orbison - CD 6

Дисковод: Optiarc DVD RW AD-7203A Adapter: 3 ID: 0

Режим чтения : Достоверность
Использование точного потока : Да
Отключение кэша аудио : Да
Использование указателей C2 : Нет

Коррекция смещения при чтении : 48
Способность читать области Lead-in и Lead-out : Нет
Заполнение пропущенных сэмплов тишиной : Да
Удаление блоков с тишиной в начале и конце : Нет
При вычислениях CRC использовались нулевые сэмплы : Да
Интерфейс : Установленный внешний ASPI-интерфейс

Выходной формат : Внутренние WAV-операции
Формат сэмплов : 44.100 Гц; 16 бит; стерео


TOC извлечённого CD

Трек | Старт | Длительность | Начальный сектор | Конечный сектор
––––––––––––––––––––––––––––––––––-
1 | 0:00.00 | 2:25.44 | 0 | 10918
2 | 2:25.44 | 2:42.56 | 10919 | 23124
3 | 5:08.25 | 2:52.19 | 23125 | 36043
4 | 8:00.44 | 2:17.05 | 36044 | 46323
5 | 10:17.49 | 2:49.20 | 46324 | 59018
6 | 13:06.69 | 2:58.68 | 59019 | 72436
7 | 16:05.62 | 2:22.66 | 72437 | 83152
8 | 18:28.53 | 2:39.02 | 83153 | 95079
9 | 21:07.55 | 2:27.74 | 95080 | 106178
10 | 23:35.54 | 2:55.13 | 106179 | 119316
11 | 26:30.67 | 2:34.53 | 119317 | 130919
12 | 29:05.45 | 2:46.18 | 130920 | 143387
13 | 31:51.63 | 2:47.71 | 143388 | 155983
14 | 34:39.59 | 2:49.69 | 155984 | 168727
15 | 37:29.53 | 2:51.69 | 168728 | 181621
16 | 40:21.47 | 3:08.05 | 181622 | 195726
17 | 43:29.52 | 3:00.35 | 195727 | 209261
18 | 46:30.12 | 3:19.65 | 209262 | 224251
19 | 49:50.02 | 2:23.20 | 224252 | 234996
20 | 52:13.22 | 2:33.22 | 234997 | 246493
21 | 54:46.44 | 3:09.16 | 246494 | 260684
22 | 57:55.60 | 2:51.10 | 260685 | 273519
23 | 60:46.70 | 2:42.08 | 273520 | 285677
24 | 63:29.03 | 3:27.24 | 285678 | 301226


Характеристики диапазона извлечения и сообщения об ошибках

Выбранный диапазон

Имя файла D:\Раздачи\Orbison\CD 6\Roy Orbison - Orbison - CD 6.wav

Пиковый уровень 100.0 %
Качество диапазона 100.0 %
CRC копии D3003E7D
Копирование… OK

Ошибок не произошло


AccurateRip: сводка

Трек 1 нет в базе данных
Трек 2 нет в базе данных
Трек 3 нет в базе данных
Трек 4 нет в базе данных
Трек 5 нет в базе данных
Трек 6 нет в базе данных
Трек 7 нет в базе данных
Трек 8 нет в базе данных
Трек 9 нет в базе данных
Трек 10 нет в базе данных
Трек 11 нет в базе данных
Трек 12 нет в базе данных
Трек 13 нет в базе данных
Трек 14 нет в базе данных
Трек 15 нет в базе данных
Трек 16 нет в базе данных
Трек 17 нет в базе данных
Трек 18 нет в базе данных
Трек 19 нет в базе данных
Трек 20 нет в базе данных
Трек 21 нет в базе данных
Трек 22 нет в базе данных
Трек 23 нет в базе данных
Трек 24 нет в базе данных

Ни одного трека нет в базе AccurateRip

Конец отчёта

AUDIOCHECKER v2.0 beta (build 457) - by Dester - opdester@freemail.hu
~~~~~~~~~~~~~~~~~~~~~~~~~~~~~~~~~~
-=== DO NOT EDIT THIS FILE! ===-

Path: …\CD 6

1 -=- Roy Orbison - Orbison - CD 6.flac -=- CDDA (100%)

161749252


[Verification date: 12.10.2010 14:19:43]
[Disc ID: 0037e8d1-03cf645a-5e0fb018]
Track [ CRC ] Status
01 [ac50d102] (05/05) Accurately ripped as in pressing(s) #1
02 [1f50b9f5] (05/05) Accurately ripped as in pressing(s) #1
03 [0d984e43] (05/05) Accurately ripped as in pressing(s) #1
04 [9ab5d020] (05/05) Accurately ripped as in pressing(s) #1
05 [421896bb] (05/05) Accurately ripped as in pressing(s) #1
06 [6adcd252] (05/05) Accurately ripped as in pressing(s) #1
07 [4aaabc9e] (05/05) Accurately ripped as in pressing(s) #1
08 [1b279e87] (05/05) Accurately ripped as in pressing(s) #1
09 [a5862727] (05/05) Accurately ripped as in pressing(s) #1
10 [f2c4dc50] (05/05) Accurately ripped as in pressing(s) #1
11 [cdb346e3] (05/05) Accurately ripped as in pressing(s) #1
12 [7830faa1] (05/05) Accurately ripped as in pressing(s) #1
13 [c60e97eb] (05/05) Accurately ripped as in pressing(s) #1
14 [07943463] (05/05) Accurately ripped as in pressing(s) #1
15 [9158926c] (05/05) Accurately ripped as in pressing(s) #1
16 [dc730af9] (05/05) Accurately ripped as in pressing(s) #1
17 [d3a8458a] (05/05) Accurately ripped as in pressing(s) #1
18 [79d685d2] (05/05) Accurately ripped as in pressing(s) #1
19 [2deafa4c] (05/05) Accurately ripped as in pressing(s) #1
20 [11baf503] (05/05) Accurately ripped as in pressing(s) #1
21 [fff03e2e] (05/05) Accurately ripped as in pressing(s) #1
22 [8353ed64] (05/05) Accurately ripped as in pressing(s) #1
23 [1e9742f0] (05/05) Accurately ripped as in pressing(s) #1
24 [5d3a367a] (05/05) Accurately ripped as in pressing(s) #1

Track [ CRC32 ] [W/O NULL] [ LOG ]
– [D3003E7D] [78CFB53A] CRC32
01 [CA55D707] [174D43CA]
02 [CBCCC9B0] [D4690744]
03 [C9050894] [DF73CF47]
04 [B03330F4] [157E20E8]
05 [AB3E0A62] [E8A7E0C5]
06 [59B14312] [632FB338]
07 [B032FF18] [0C6D0787]
08 [6D2F49C0] [C75DB48D]
09 [AA1CB373] [5D97A57F]
10 [43C2EECF] [3E8D1972]
11 [F149CFFD] [6C13E02D]
12 [7BB3CE37] [AC63DC95]
13 [6A1630A1] [003A0D1B]
14 [CAEB0FD4] [5FD7664B]
15 [2337F270] [097D1B7A]
16 [C58DCBF4] [641D8023]
17 [B72ACCC8] [B36FDF91]
18 [B64C7C7F] [1A6676DC]
19 [37314F5B] [A154997B]
20 [055EAC0D] [809F4779]
21 [AC5F58F6] [1843B6FC]
22 [DBC471BD] [DA4D9517]
23 [04B3AF4C] [9E39B340]
24 [2BE44122] [190C9C85]

Roy Orbison - Orbison 1955-1965 [2001, 7CD Box, Bear Family BCD 16423 GL]

Tracklist Disc 7:

01 - Roy Orbison - Oh Pretty Woman / 1965
02 - Roy Orbison - Twentytwo Days / 1965
03 - Roy Orbison - Love Hurts / 1964
04 - Roy Orbison - Nightlife / 1965
05 - Roy Orbison - (They Call You) Gigolette / 2001
06 - Roy Orbison - Borne On The Wind / 1964
07 - Roy Orbison - Pretty Paper / 2001
08 - Roy Orbison - Indian Wedding / 2001
09 - Roy Orbison - Blue Avenue / 2001
10 - Roy Orbison - Here Comes That Song Again / 2001
11 - Roy Orbison - It's Over / 2001
12 - Roy Orbison - Today's Teardrops / 2001
13 - Roy Orbison - Blue Angel / 2001
14 - Roy Orbison - I'll Say It's My Fault / 2001
15 - Roy Orbison - With The Bug (Mo 546-2) / 2001
16 - Roy Orbison - Double Date (#1,2) / 2001
17 - Roy Orbison - Double Date (#5) / 2001
18 - Roy Orbison - Double Date (#6) / 2001
19 - Roy Orbison - Paper Boy (#14,16) / 2001
20 - Roy Orbison - Paper Boy (#17) / 2001
21 - Roy Orbison - Paper Boy (#18) / 2001
22 - Roy Orbison - Paper Boy (#19) / 2001
23 - Roy Orbison - With The Bug (#1) / 2001
24 - Roy Orbison - With The Bug (#2) / 2001
25 - Roy Orbison - With The Bug (#3) / 2001
26 - Roy Orbison - With The Bug (#4) / 2001
27 - Roy Orbison - With The Bug (#9) / 2001
28 - Roy Orbison - Let's Get Together For A Coke Again (1) / 2001
29 - Roy Orbison - Let's Get Together For A Coke Again (2) / 2001
30 - Roy Orbison - Let's Get Together For A Coke Again (3) / 2001
31 - Roy Orbison - Stayed Out Too Late (1) / 2001
32 - Roy Orbison - Stayed Out Too Late (2) / 2001
33 - Roy Orbison - Things Go Better With Coke / 2001
34 - Roy Orbison - Life Is Fun When You're Refreshed (1) / 2001
35 - Roy Orbison - Life Is Fun When You're Refreshed (2) / 2001
36 - Roy Orbison - Life Is Fun When You're Refreshed (3) / 2001
37 - Roy Orbison - C.O.C.A. C.O.L.A (1) / 2001
38 - Roy Orbison - C.O.C.A. C.O.L.A (2) / 2001

Exact Audio Copy V0.99 prebeta 4 from 23. January 2008

Отчёт EAC об извлечении, выполненном 26. февраля 2009, 1:24

Roy Orbison / Orbison - CD 7

Дисковод: Optiarc DVD RW AD-7203A Adapter: 3 ID: 0

Режим чтения : Достоверность
Использование точного потока : Да
Отключение кэша аудио : Да
Использование указателей C2 : Нет

Коррекция смещения при чтении : 48
Способность читать области Lead-in и Lead-out : Нет
Заполнение пропущенных сэмплов тишиной : Да
Удаление блоков с тишиной в начале и конце : Нет
При вычислениях CRC использовались нулевые сэмплы : Да
Интерфейс : Установленный внешний ASPI-интерфейс

Выходной формат : Внутренние WAV-операции
Формат сэмплов : 44.100 Гц; 16 бит; стерео


TOC извлечённого CD

Трек | Старт | Длительность | Начальный сектор | Конечный сектор
––––––––––––––––––––––––––––––––––-
1 | 0:00.00 | 3:33.13 | 0 | 15987
2 | 3:33.13 | 3:07.61 | 15988 | 30073
3 | 6:40.74 | 2:25.03 | 30074 | 40951
4 | 9:06.02 | 2:11.04 | 40952 | 50780
5 | 11:17.06 | 2:52.35 | 50781 | 63715
6 | 14:09.41 | 2:54.02 | 63716 | 76767
7 | 17:03.43 | 2:55.61 | 76768 | 89953
8 | 19:59.29 | 3:10.65 | 89954 | 104268
9 | 23:10.19 | 2:21.16 | 104269 | 114859
10 | 25:31.35 | 3:22.23 | 114860 | 130032
11 | 28:53.58 | 2:53.44 | 130033 | 143051
12 | 31:47.27 | 2:13.54 | 143052 | 153080
13 | 34:01.06 | 2:49.09 | 153081 | 165764
14 | 36:50.15 | 2:16.38 | 165765 | 176002
15 | 39:06.53 | 2:27.14 | 176003 | 187041
16 | 41:33.67 | 1:46.18 | 187042 | 195009
17 | 43:20.10 | 1:29.63 | 195010 | 201747
18 | 44:49.73 | 2:30.02 | 201748 | 212999
19 | 47:20.00 | 3:34.55 | 213000 | 229104
20 | 50:54.55 | 2:20.68 | 229105 | 239672
21 | 53:15.48 | 0:56.56 | 239673 | 243928
22 | 54:12.29 | 2:23.13 | 243929 | 254666
23 | 56:35.42 | 1:41.12 | 254667 | 262253
24 | 58:16.54 | 1:36.34 | 262254 | 269487
25 | 59:53.13 | 2:35.40 | 269488 | 281152
26 | 62:28.53 | 2:24.69 | 281153 | 292021
27 | 64:53.47 | 2:35.20 | 292022 | 303666
28 | 67:28.67 | 1:35.73 | 303667 | 310864
29 | 69:04.65 | 1:28.21 | 310865 | 317485
30 | 70:33.11 | 1:06.55 | 317486 | 322490
31 | 71:39.66 | 1:34.21 | 322491 | 329561
32 | 73:14.12 | 1:07.33 | 329562 | 334619
33 | 74:21.45 | 1:31.57 | 334620 | 341501
34 | 75:53.27 | 1:03.49 | 341502 | 346275
35 | 76:57.01 | 0:35.47 | 346276 | 348947
36 | 77:32.48 | 0:14.74 | 348948 | 350071
37 | 77:47.47 | 1:02.13 | 350072 | 354734
38 | 78:49.60 | 0:29.51 | 354735 | 356960


Характеристики диапазона извлечения и сообщения об ошибках

Выбранный диапазон

Имя файла D:\Раздачи\Orbison\CD 7\Roy Orbison - Orbison - CD 7.wav

Пиковый уровень 100.0 %
Качество диапазона 99.9 %
CRC копии 1309C593
Копирование… OK

Ошибок не произошло


AccurateRip: сводка

Трек 1 нет в базе данных
Трек 2 нет в базе данных
Трек 3 нет в базе данных
Трек 4 нет в базе данных
Трек 5 нет в базе данных
Трек 6 нет в базе данных
Трек 7 нет в базе данных
Трек 8 нет в базе данных
Трек 9 нет в базе данных
Трек 10 нет в базе данных
Трек 11 нет в базе данных
Трек 12 нет в базе данных
Трек 13 нет в базе данных
Трек 14 нет в базе данных
Трек 15 нет в базе данных
Трек 16 нет в базе данных
Трек 17 нет в базе данных
Трек 18 нет в базе данных
Трек 19 нет в базе данных
Трек 20 нет в базе данных
Трек 21 нет в базе данных
Трек 22 нет в базе данных
Трек 23 нет в базе данных
Трек 24 нет в базе данных
Трек 25 нет в базе данных
Трек 26 нет в базе данных
Трек 27 нет в базе данных
Трек 28 нет в базе данных
Трек 29 нет в базе данных
Трек 30 нет в базе данных
Трек 31 нет в базе данных
Трек 32 нет в базе данных
Трек 33 нет в базе данных
Трек 34 нет в базе данных
Трек 35 нет в базе данных
Трек 36 нет в базе данных
Трек 37 нет в базе данных
Трек 38 нет в базе данных

Ни одного трека нет в базе AccurateRip

Конец отчёта

AUDIOCHECKER v2.0 beta (build 457) - by Dester - opdester@freemail.hu
~~~~~~~~~~~~~~~~~~~~~~~~~~~~~~~~~~
-=== DO NOT EDIT THIS FILE! ===-

Path: …\CD 7

1 -=- Roy Orbison - Orbison - CD 7.flac -=- CDDA (100%)

161761540

[Verification date: 12.10.2010 14:20:30]
[Disc ID: 007dc1a4-0cad64e9-45129726]
Track [ CRC ] Status
01 [6e0331cc] (04/04) Accurately ripped as in pressing(s) #1
02 [9086aaae] (04/04) Accurately ripped as in pressing(s) #1
03 [0a609033] (04/04) Accurately ripped as in pressing(s) #1
04 [be28a3f5] (04/04) Accurately ripped as in pressing(s) #1
05 [fe27c9fa] (04/04) Accurately ripped as in pressing(s) #1
06 [bed2ae31] (04/04) Accurately ripped as in pressing(s) #1
07 [6db09bdb] (04/04) Accurately ripped as in pressing(s) #1
08 [99e51090] (04/04) Accurately ripped as in pressing(s) #1
09 [b2ec7a63] (04/04) Accurately ripped as in pressing(s) #1
10 [0f9a7c2c] (04/04) Accurately ripped as in pressing(s) #1
11 [4a3784d8] (04/04) Accurately ripped as in pressing(s) #1
12 [3f6bab7b] (04/04) Accurately ripped as in pressing(s) #1
13 [bc884baf] (04/04) Accurately ripped as in pressing(s) #1
14 [40c74de2] (04/04) Accurately ripped as in pressing(s) #1
15 [a8cf4728] (04/04) Accurately ripped as in pressing(s) #1
16 [248ff048] (03/03) Accurately ripped as in pressing(s) #1
17 [173cf321] (03/03) Accurately ripped as in pressing(s) #1
18 [271bb345] (03/03) Accurately ripped as in pressing(s) #1
19 [e9ab6838] (03/03) Accurately ripped as in pressing(s) #1
20 [a9a23228] (03/03) Accurately ripped as in pressing(s) #1
21 [1605ee46] (03/03) Accurately ripped as in pressing(s) #1
22 [861a3741] (03/03) Accurately ripped as in pressing(s) #1
23 [fcfea25f] (03/03) Accurately ripped as in pressing(s) #1
24 [41bf9e57] (03/03) Accurately ripped as in pressing(s) #1
25 [277ec5be] (03/03) Accurately ripped as in pressing(s) #1
26 [15abe0f3] (03/03) Accurately ripped as in pressing(s) #1
27 [50965851] (03/03) Accurately ripped as in pressing(s) #1
28 [4f94225d] (03/03) Accurately ripped as in pressing(s) #1
29 [17807fed] (03/03) Accurately ripped as in pressing(s) #1
30 [55021fd3] (03/03) Accurately ripped as in pressing(s) #1
31 [13410d1e] (03/03) Accurately ripped as in pressing(s) #1
32 [52a98f88] (03/03) Accurately ripped as in pressing(s) #1
33 [29caaefc] (03/03) Accurately ripped as in pressing(s) #1
34 [f0707279] (03/03) Accurately ripped as in pressing(s) #1
35 [c2189747] (03/03) Accurately ripped as in pressing(s) #1
36 [243bd72a] (03/03) Accurately ripped as in pressing(s) #1
37 [8e0e7eb5] (03/03) Accurately ripped as in pressing(s) #1
38 [885c3f5b] (03/03) Accurately ripped as in pressing(s) #1

Track [ CRC32 ] [W/O NULL] [ LOG ]
– [1309C593] [8F11C86E] CRC32
01 [CC9C1E80] [1295C6A4]
02 [8E0E987C] [A12D275D]
03 [99ED890E] [348E9288]
04 [6C023FE2] [82E2885C]
05 [5DB3C8B4] [4840BE6D]
06 [F2E313AC] [6E853D49]
07 [2E15A971] [3C98C9FA]
08 [C9B56545] [FE2E4AA6]
09 [519647A9] [832410BC]
10 [8A2D2749] [91CFE275]
11 [5D56EE46] [F0E09989]
12 [378E7BAF] [90B719DA]
13 [28B1A7F7] [BE7E774D]
14 [9F6E2E54] [28056C08]
15 [4072E64E] [72684D18]
16 [CE27966F] [E403D2A8]
17 [E9319172] [A55A6F53]
18 [8D1FC6F6] [87EA6C4D]
19 [997FDF28] [FAFEBF6D]
20 [39907FA8] [34666A9E]
21 [CD85D7E2] [8AD43F56]
22 [C9D2243C] [79EE764C]
23 [04ACAE38] [EB7B94FA]
24 [F1BDAF09] [11D66E6B]
25 [2E59DC96] [CE928ED2]
26 [C0323819] [0C06DC75]
27 [813CD69F] [FF417C29]
28 [4D87DFA2] [7C035429]
29 [238F3783] [8938A823]
30 [E09C95A8] [809144AB]
31 [3B8C15BB] [83245E6E]
32 [F1485362] [6D7F05FF]
33 [5FAE1C31] [42D68F8E]
34 [0458E5E0] [95AE33E7]
35 [154BC57C] [49EAF091]
36 [13F6A9F0] [F56A8830]
37 [0F9D27FA] [B8738DB9]
38 [AD5BE8F1] [33DAFAD7]

All thanks go to sinicinal

Download Roy Orbison - Orbison 1955-1965: