Subcategories

Rudolf Serkin, London Symphony Orchestra, Claudio Abbado - Mozart: Piano Concertos Nos. 15 & 22 (1987)

Posted By: tirexiss
Rudolf Serkin, London Symphony Orchestra, Claudio Abbado - Mozart: Piano Concertos Nos. 15 & 22 (1987)

Rudolf Serkin, London Symphony Orchestra, Claudio Abbado - Mozart: Piano Concertos Nos. 15 & 22 (1987)
EAC | FLAC (image+.cue, log) | Covers Included | 66:42 | 270 MB
Genre: Classical | Label: Deutsche Grammophon | Catalog: 415 488-2

Though Serkin isn`t concertizing a great deal these days, he remains a fascinating pianist on disc. Some listeners (this one included) find Serkin`s playing occasionally too pointed and harsh. Yet for those who tire of the delicate, jewel-box Mozart that is fashionable among pianists today, Serkin surely represents a compelling alternative. His performances of the Concertos Nos. 15 (K. 450 in B-flat Major) and 22 (K. 482 in E-flat Major) are expansive, thoughtful and pleasantly unhurried. In slow movements, he`s never less than thoughtful, creating some exquisite pianissimos in the process. Abbado is ever the sensitive accompanist.

Rudolf Serkin, London Symphony Orchestra, Claudio Abbado - Mozart: Piano Concertos Nos. 15 & 22 (1987)

Track List:

01. Piano Concerto No. 15 in B flat major, K. 450- 1. Allegro [0:12:01.12]
02. Piano Concerto No. 15 in B flat major, K. 450- 2. Andante [0:06:34.00]
03. Piano Concerto No. 15 in B flat major, K. 450- 3. Allegro [0:08:56.63]
04. Piano Concerto No. 22 in E flat major, K. 482- 1. Allegro [0:14:39.37]
05. Piano Concerto No. 22 in E flat major, K. 482- 2. Andante [0:11:45.25]
06. Piano Concerto No. 22 in E flat major, K. 482- 3. Allegro - Andantino cantabile - Primo tempo [0:12:44.45]

Performers:
Rudolf Serkin - piano
London Symphony Orchestra
Claudio Abbado - conductor

Exact Audio Copy V1.0 beta 3 from 29. August 2011

EAC extraction logfile from 6. February 2014, 20:24

Rudolf Serkin / Mozart - Piano Concertos Nos. 15 & 22 - Serkin, Abbado

Used drive : TSSTcorpCDDVDW SH-222BB Adapter: 2 ID: 1

Read mode : Secure
Utilize accurate stream : Yes
Defeat audio cache : Yes
Make use of C2 pointers : No

Read offset correction : 6
Overread into Lead-In and Lead-Out : No
Fill up missing offset samples with silence : Yes
Delete leading and trailing silent blocks : No
Null samples used in CRC calculations : Yes
Used interface : Native Win32 interface for Win NT & 2000

Used output format : User Defined Encoder
Selected bitrate : 1024 kBit/s
Quality : High
Add ID3 tag : No
Command line compressor : C:\Program Files\Exact Audio Copy\Flac\flac.exe
Additional command line options : -8 -V -T "TITLE=%title%" -T "ARTIST=%artist%" -T "ALBUMARTIST=%albumartist%" -T "ALBUM=%albumtitle%" -T "DATE=%year%" -T "TRACKNUMBER=%tracknr%" -T "TRACKTOTAL=%numtracks%" -T "GENRE=%genre%" -T "COMMENT=%comment%" -T "PERFORMER=%albuminterpret%" -T "COMPOSER=%composer%" %source% -o %dest%


TOC of the extracted CD

Track | Start | Length | Start sector | End sector
––––––––––––––––––––––––––––-
1 | 0:00.33 | 12:01.12 | 33 | 54119
2 | 12:01.45 | 6:34.00 | 54120 | 83669
3 | 18:35.45 | 8:56.63 | 83670 | 123932
4 | 27:32.33 | 14:39.37 | 123933 | 189894
5 | 42:11.70 | 11:45.25 | 189895 | 242794
6 | 53:57.20 | 12:44.45 | 242795 | 300139


Range status and errors

Selected range

Filename G:\Ripped general\[2939] Mozart – Piano Concertos Nos. 15 & 22 – Serkin, Abbado\Mozart - Piano Concertos Nos. 15 & 22 - Serkin, Abbado.wav

Peak level 96.8 %
Extraction speed 2.3 X
Range quality 100.0 %
Test CRC D6AA8F54
Copy CRC D6AA8F54
Copy OK

No errors occurred


AccurateRip summary

Track 1 accurately ripped (confidence 8) [5166E3ED] (AR v2)
Track 2 accurately ripped (confidence 8) [C8E2716A] (AR v2)
Track 3 accurately ripped (confidence 8) [4148725E] (AR v2)
Track 4 accurately ripped (confidence 8) [4583A3AB] (AR v2)
Track 5 accurately ripped (confidence 8) [6D68136E] (AR v2)
Track 6 accurately ripped (confidence 8) [1E8A79D5] (AR v2)

All tracks accurately ripped

End of status report

Thanks to the Original ripper (unknown)!

Welcome to my blog!

Download: