Tags
Language
Tags

Saltatio Mortis - Zirkus Zeitgeist: Live Aus Der Grossen Freiheit (2015) [2CD +2DVD + Blu-ray Box Set]

Posted By: v3122
Saltatio Mortis - Zirkus Zeitgeist: Live Aus Der Grossen Freiheit (2015) [2CD +2DVD + Blu-ray Box Set]

Saltatio Mortis - Zirkus Zeitgeist: Live Aus Der Grossen Freiheit (2015)
EAC | Flac(Image) + Cue + Log & MP3 CBR 320Kbps
2CD | Napalm Records, 0602547791238 | ~ 778 or 277 Mb | Artwork(jpg) -> 97 Mb
DVD9+DVD5: MPEG 2, 720x576 (16:9), 25.000 fps
DTS, 48.0 kHz, 6 ch, 1 510 kb/s / PCM, 48.0 kHz, 2 ch, 1 536 kb/s
Blu-ray: MPEG-4 AVC Video 1080i, 25 fps, 16:9, High Profile 4.1
LPCM 2.0, 48 kHz, 24-bit / DTS-HD Master Audio 5.1, 48 kHz, 24-bit
Medieval Folk Metal

~ Recorded the 20.11.2015 at the Grossen Freiheit 36 in Hamburg. ~

Saltatio Mortis is a German medieval metal group. The Latin name means "dance of death". It is an allusion to the Danse Macabre, and a motto of the band is: "He who dances does not die."…

~ wiki
Saltatio Mortis - Zirkus Zeitgeist: Live Aus Der Grossen Freiheit (2015):

Saltatio Mortis - Zirkus Zeitgeist: Live Aus Der Grossen Freiheit (2015) [2CD +2DVD + Blu-ray Box Set]

Tracklist CD1:

01. Wo Sind Die Clowns
02. Willkommen In Der Weihnachtszeit
03. Wachstum Ueber Alles
04. Des Baenkers Neue Kleider
05. Nachts Weinen Die Soldaten
06. Habgier Und Tod
07. Idol
08. Augen Zu
09. Maria
10. Wir Sind Papst
11. Geradeaus
12. Koma
13. Erinnerung
14. Satans Fall

Exact Audio Copy V1.3 from 2. September 2016

EAC extraction logfile from 22. December 2019, 10:03

Saltatio Mortis / Zirkus Zeitgeist - Live Aus Der Grossen Freiheit

Used drive : HL-DT-STDVDRAM GP50NB41 Adapter: 1 ID: 0

Read mode : Secure
Utilize accurate stream : Yes
Defeat audio cache : Yes
Make use of C2 pointers : No

Read offset correction : 6
Overread into Lead-In and Lead-Out : No
Fill up missing offset samples with silence : Yes
Delete leading and trailing silent blocks : No
Null samples used in CRC calculations : Yes
Used interface : Native Win32 interface for Win NT & 2000
Gap handling : Appended to previous track

Used output format : User Defined Encoder
Selected bitrate : 1024 kBit/s
Quality : High
Add ID3 tag : No
Command line compressor : C:\Program Files (x86)\Exact Audio Copy\Flac\flac.exe
Additional command line options : -8 -V -T "ARTIST=%artist%" -T "TITLE=%title%" -T "ALBUM=%albumtitle%" -T "DATE=%year%" -T "TRACKNUMBER=%tracknr%" -T "GENRE=%genre%" -T "COMMENT=%comment%" -T "BAND=%albuminterpret%" -T "ALBUMARTIST=%albuminterpret%" -T "COMPOSER=%composer%" %haslyrics%–tag-from-file=LYRICS="%lyricsfile%"%haslyrics% -T "DISCNUMBER=%cdnumber%" -T "TOTALDISCS=%totalcds%" -T "TOTALTRACKS=%numtracks%" %hascover%–picture="%coverfile%"%hascover% %source% -o %dest%


TOC of the extracted CD

Track | Start | Length | Start sector | End sector
––––––––––––––––––––––––––––-
1 | 0:00.00 | 4:14.00 | 0 | 19049
2 | 4:14.00 | 3:32.74 | 19050 | 35023
3 | 7:46.74 | 3:41.70 | 35024 | 51668
4 | 11:28.69 | 4:19.07 | 51669 | 71100
5 | 15:48.01 | 5:44.60 | 71101 | 96960
6 | 21:32.61 | 3:42.05 | 96961 | 113615
7 | 25:14.66 | 4:33.07 | 113616 | 134097
8 | 29:47.73 | 6:21.10 | 134098 | 162682
9 | 36:09.08 | 3:37.64 | 162683 | 179021
10 | 39:46.72 | 5:30.44 | 179022 | 203815
11 | 45:17.41 | 4:15.34 | 203816 | 222974
12 | 49:33.00 | 4:38.73 | 222975 | 243897
13 | 54:11.73 | 6:08.44 | 243898 | 271541
14 | 60:20.42 | 4:24.44 | 271542 | 291385


Track 1

Filename T:\audio\Zirkus Zeitgeist - Live Aus Der Grossen Freiheit\CD1\01 Wo Sind Die Clowns.wav

Pre-gap length 0:00:02.00

Peak level 97.8 %
Extraction speed 2.6 X
Track quality 100.0 %
Test CRC 58ABCFB6
Copy CRC 58ABCFB6
Accurately ripped (confidence 9) [C7FECF67] (AR v2)
Copy OK

Track 2

Filename T:\audio\Zirkus Zeitgeist - Live Aus Der Grossen Freiheit\CD1\02 Willkommen In Der Weihnachtszeit.wav

Peak level 97.7 %
Extraction speed 2.9 X
Track quality 100.0 %
Test CRC 6388854A
Copy CRC 6388854A
Accurately ripped (confidence 9) [58F1FCDE] (AR v2)
Copy OK

Track 3

Filename T:\audio\Zirkus Zeitgeist - Live Aus Der Grossen Freiheit\CD1\03 Wachstum Ueber Alles.wav

Peak level 97.8 %
Extraction speed 3.1 X
Track quality 100.0 %
Test CRC A83C5445
Copy CRC A83C5445
Accurately ripped (confidence 9) [7C88BE9A] (AR v2)
Copy OK

Track 4

Filename T:\audio\Zirkus Zeitgeist - Live Aus Der Grossen Freiheit\CD1\04 Des Baenkers Neue Kleider.wav

Peak level 97.8 %
Extraction speed 3.4 X
Track quality 100.0 %
Test CRC 4C0814E2
Copy CRC 4C0814E2
Accurately ripped (confidence 9) [6036C4BF] (AR v2)
Copy OK

Track 5

Filename T:\audio\Zirkus Zeitgeist - Live Aus Der Grossen Freiheit\CD1\05 Nachts Weinen Die Soldaten.wav

Peak level 97.7 %
Extraction speed 3.7 X
Track quality 100.0 %
Test CRC 5FE4AA75
Copy CRC 5FE4AA75
Accurately ripped (confidence 9) [0D4047DA] (AR v2)
Copy OK

Track 6

Filename T:\audio\Zirkus Zeitgeist - Live Aus Der Grossen Freiheit\CD1\06 Habgier Und Tod.wav

Peak level 97.8 %
Extraction speed 3.3 X
Track quality 99.9 %
Test CRC 0A4438EF
Copy CRC 0A4438EF
Accurately ripped (confidence 9) [608303BB] (AR v2)
Copy OK

Track 7

Filename T:\audio\Zirkus Zeitgeist - Live Aus Der Grossen Freiheit\CD1\07 Idol.wav

Peak level 97.9 %
Extraction speed 4.1 X
Track quality 100.0 %
Test CRC E16F8A65
Copy CRC E16F8A65
Accurately ripped (confidence 9) [41BFED57] (AR v2)
Copy OK

Track 8

Filename T:\audio\Zirkus Zeitgeist - Live Aus Der Grossen Freiheit\CD1\08 Augen Zu.wav

Peak level 97.6 %
Extraction speed 4.1 X
Track quality 99.9 %
Test CRC D94E1966
Copy CRC D94E1966
Accurately ripped (confidence 9) [223E595E] (AR v2)
Copy OK

Track 9

Filename T:\audio\Zirkus Zeitgeist - Live Aus Der Grossen Freiheit\CD1\09 Maria.wav

Peak level 97.6 %
Extraction speed 4.4 X
Track quality 100.0 %
Test CRC CD1E527E
Copy CRC CD1E527E
Accurately ripped (confidence 9) [1B5CDF5B] (AR v2)
Copy OK

Track 10

Filename T:\audio\Zirkus Zeitgeist - Live Aus Der Grossen Freiheit\CD1\10 Wir Sind Papst.wav

Peak level 98.2 %
Extraction speed 4.8 X
Track quality 100.0 %
Test CRC 8456E75A
Copy CRC 8456E75A
Accurately ripped (confidence 9) [346B8541] (AR v2)
Copy OK

Track 11

Filename T:\audio\Zirkus Zeitgeist - Live Aus Der Grossen Freiheit\CD1\11 Geradeaus.wav

Peak level 97.8 %
Extraction speed 4.8 X
Track quality 100.0 %
Test CRC 60F7DC05
Copy CRC 60F7DC05
Accurately ripped (confidence 9) [D2FD1F51] (AR v2)
Copy OK

Track 12

Filename T:\audio\Zirkus Zeitgeist - Live Aus Der Grossen Freiheit\CD1\12 Koma.wav

Peak level 97.7 %
Extraction speed 5.1 X
Track quality 100.0 %
Test CRC C22A9E64
Copy CRC C22A9E64
Accurately ripped (confidence 9) [E440A2ED] (AR v2)
Copy OK

Track 13

Filename T:\audio\Zirkus Zeitgeist - Live Aus Der Grossen Freiheit\CD1\13 Erinnerung.wav

Peak level 97.9 %
Extraction speed 5.4 X
Track quality 100.0 %
Test CRC 609BC375
Copy CRC 609BC375
Accurately ripped (confidence 9) [88979312] (AR v2)
Copy OK

Track 14

Filename T:\audio\Zirkus Zeitgeist - Live Aus Der Grossen Freiheit\CD1\14 Satans Fall.wav

Peak level 97.7 %
Extraction speed 4.8 X
Track quality 99.9 %
Test CRC 8ED4A88B
Copy CRC 8ED4A88B
Accurately ripped (confidence 9) [CF714712] (AR v2)
Copy OK


All tracks accurately ripped

No errors occurred

End of status report

–– CUETools DB Plugin V2.1.6

[CTDB TOCID: hoc8.1EfMhkGw9m2LeKISeUJv40-] found
Submit result: hoc8.1EfMhkGw9m2LeKISeUJv40- has been confirmed
Track | CTDB Status
1 | (30/30) Accurately ripped
2 | (30/30) Accurately ripped
3 | (30/30) Accurately ripped
4 | (30/30) Accurately ripped
5 | (30/30) Accurately ripped
6 | (30/30) Accurately ripped
7 | (30/30) Accurately ripped
8 | (30/30) Accurately ripped
9 | (30/30) Accurately ripped
10 | (30/30) Accurately ripped
11 | (30/30) Accurately ripped
12 | (30/30) Accurately ripped
13 | (30/30) Accurately ripped
14 | (30/30) Accurately ripped


==== Log checksum 370013A615AC89155AE16DC3B7E9AC58342D60DCB8E7A45E5E19CC4A12843EDD ====


[CUETools log; Date: 06.04.2020 13:12:19; Version: 2.1.4]
[AccurateRip ID: 001ffec9-0159ebe7-d80f2d0e] found.
Track [ CRC | V2 ] Status
01 [52d7aba1|c7fecf67] (00+10/10) Accurately ripped
02 [9d1090b2|58f1fcde] (00+10/10) Accurately ripped
03 [a3c9a63a|7c88be9a] (00+10/10) Accurately ripped
04 [5e7f277c|6036c4bf] (00+10/10) Accurately ripped
05 [e35bf73e|0d4047da] (00+10/10) Accurately ripped
06 [c4b25f59|608303bb] (00+10/10) Accurately ripped
07 [5f1aaedd|41bfed57] (00+10/10) Accurately ripped
08 [27c13f97|223e595e] (00+10/10) Accurately ripped
09 [c1edec25|1b5cdf5b] (00+10/10) Accurately ripped
10 [0db45af1|346b8541] (00+10/10) Accurately ripped
11 [4236a604|d2fd1f51] (00+10/10) Accurately ripped
12 [ff5b0916|e440a2ed] (00+10/10) Accurately ripped
13 [77aa4781|88979312] (00+10/10) Accurately ripped
14 [29e2b367|cf714712] (00+10/10) Accurately ripped

Track Peak [ CRC32 ] [W/O NULL] [ LOG ]
– 98,2 [2FB2F229] [95AB3CE3]
01 97,8 [58ABCFB6] [E9315C16] CRC32
02 97,7 [6388854A] [9BB46A36] CRC32
03 97,8 [A83C5445] [07795070] CRC32
04 97,8 [4C0814E2] [409E8AF7] CRC32
05 97,7 [5FE4AA75] [AA5578CF] CRC32
06 97,8 [0A4438EF] [6011B60E] CRC32
07 97,9 [E16F8A65] [16BF7326] CRC32
08 97,6 [D94E1966] [37D1E474] CRC32
09 97,6 [CD1E527E] [507D4D10] CRC32
10 98,2 [8456E75A] [862D9802] CRC32
11 97,8 [60F7DC05] [3428A5BC] CRC32
12 97,7 [C22A9E64] [99696F48] CRC32
13 97,9 [609BC375] [CD7BF7CC] CRC32
14 97,7 [8ED4A88B] [2AB732CA] CRC32


Saltatio Mortis - Zirkus Zeitgeist: Live Aus Der Grossen Freiheit (2015) [2CD +2DVD + Blu-ray Box Set]

Tracklist CD2:

01. Todesengel
02. Eulenspiegel
03. Prometheus
04. Frueher War Alles Besser
05. Tritt Ein
06. Trinklied
07. Worte
08. Rattenfaenger
09. Spielmannsschwur

Exact Audio Copy V1.3 from 2. September 2016

EAC extraction logfile from 22. December 2019, 11:08

Saltatio Mortis / Zirkus Zeitgeist - Live Aus Der Grossen Freiheit

Used drive : HL-DT-STDVDRAM GP50NB41 Adapter: 1 ID: 0

Read mode : Secure
Utilize accurate stream : Yes
Defeat audio cache : Yes
Make use of C2 pointers : No

Read offset correction : 6
Overread into Lead-In and Lead-Out : No
Fill up missing offset samples with silence : Yes
Delete leading and trailing silent blocks : No
Null samples used in CRC calculations : Yes
Used interface : Native Win32 interface for Win NT & 2000
Gap handling : Appended to previous track

Used output format : User Defined Encoder
Selected bitrate : 1024 kBit/s
Quality : High
Add ID3 tag : No
Command line compressor : C:\Program Files (x86)\Exact Audio Copy\Flac\flac.exe
Additional command line options : -8 -V -T "ARTIST=%artist%" -T "TITLE=%title%" -T "ALBUM=%albumtitle%" -T "DATE=%year%" -T "TRACKNUMBER=%tracknr%" -T "GENRE=%genre%" -T "COMMENT=%comment%" -T "BAND=%albuminterpret%" -T "ALBUMARTIST=%albuminterpret%" -T "COMPOSER=%composer%" %haslyrics%–tag-from-file=LYRICS="%lyricsfile%"%haslyrics% -T "DISCNUMBER=%cdnumber%" -T "TOTALDISCS=%totalcds%" -T "TOTALTRACKS=%numtracks%" %hascover%–picture="%coverfile%"%hascover% %source% -o %dest%


TOC of the extracted CD

Track | Start | Length | Start sector | End sector
––––––––––––––––––––––––––––-
1 | 0:00.00 | 5:36.63 | 0 | 25262
2 | 5:36.63 | 7:20.24 | 25263 | 58286
3 | 12:57.12 | 4:48.02 | 58287 | 79888
4 | 17:45.14 | 6:38.16 | 79889 | 109754
5 | 24:23.30 | 4:15.36 | 109755 | 128915
6 | 28:38.66 | 5:38.49 | 128916 | 154314
7 | 34:17.40 | 5:53.37 | 154315 | 180826
8 | 40:11.02 | 5:02.34 | 180827 | 203510
9 | 45:13.36 | 7:04.69 | 203511 | 235379


Track 1

Filename T:\audio\Zirkus Zeitgeist - Live Aus Der Grossen Freiheit\CD2\01 Todesengel.wav

Pre-gap length 0:00:02.00

Peak level 97.8 %
Extraction speed 1.2 X
Track quality 100.0 %
Test CRC B5FEBBA4
Copy CRC B5FEBBA4
Accurately ripped (confidence 9) [0AD97C9B] (AR v2)
Copy OK

Track 2

Filename T:\audio\Zirkus Zeitgeist - Live Aus Der Grossen Freiheit\CD2\02 Eulenspiegel.wav

Peak level 97.9 %
Extraction speed 1.4 X
Track quality 100.0 %
Test CRC 9F6D033A
Copy CRC 9F6D033A
Accurately ripped (confidence 9) [BC75DB2C] (AR v2)
Copy OK

Track 3

Filename T:\audio\Zirkus Zeitgeist - Live Aus Der Grossen Freiheit\CD2\03 Prometheus.wav

Peak level 98.0 %
Extraction speed 1.5 X
Track quality 100.0 %
Test CRC CAF0375C
Copy CRC CAF0375C
Accurately ripped (confidence 9) [979F373F] (AR v2)
Copy OK

Track 4

Filename T:\audio\Zirkus Zeitgeist - Live Aus Der Grossen Freiheit\CD2\04 Frueher War Alles Besser.wav

Peak level 97.6 %
Extraction speed 1.7 X
Track quality 100.0 %
Test CRC 1D25C355
Copy CRC 1D25C355
Accurately ripped (confidence 9) [550FEAA7] (AR v2)
Copy OK

Track 5

Filename T:\audio\Zirkus Zeitgeist - Live Aus Der Grossen Freiheit\CD2\05 Tritt Ein.wav

Peak level 97.9 %
Extraction speed 1.8 X
Track quality 100.0 %
Test CRC 4AE11867
Copy CRC 4AE11867
Accurately ripped (confidence 9) [46794EBD] (AR v2)
Copy OK

Track 6

Filename T:\audio\Zirkus Zeitgeist - Live Aus Der Grossen Freiheit\CD2\06 Trinklied.wav

Peak level 97.9 %
Extraction speed 1.8 X
Track quality 99.9 %
Test CRC 6EE64D2F
Copy CRC 6EE64D2F
Accurately ripped (confidence 9) [FB7BD517] (AR v2)
Copy OK

Track 7

Filename T:\audio\Zirkus Zeitgeist - Live Aus Der Grossen Freiheit\CD2\07 Worte.wav

Peak level 97.7 %
Extraction speed 2.1 X
Track quality 100.0 %
Test CRC 40E47DF9
Copy CRC 40E47DF9
Accurately ripped (confidence 9) [45DC9D82] (AR v2)
Copy OK

Track 8

Filename T:\audio\Zirkus Zeitgeist - Live Aus Der Grossen Freiheit\CD2\08 Rattenfaenger.wav

Peak level 97.9 %
Extraction speed 1.9 X
Track quality 99.9 %
Test CRC 06628834
Copy CRC 06628834
Accurately ripped (confidence 9) [1A242AEC] (AR v2)
Copy OK

Track 9

Filename T:\audio\Zirkus Zeitgeist - Live Aus Der Grossen Freiheit\CD2\09 Spielmannsschwur.wav

Peak level 97.9 %
Extraction speed 2.3 X
Track quality 100.0 %
Test CRC 4B4797FF
Copy CRC 4B4797FF
Accurately ripped (confidence 9) [E195D325] (AR v2)
Copy OK


All tracks accurately ripped

No errors occurred

End of status report

–– CUETools DB Plugin V2.1.6

[CTDB TOCID: .1rp2vWX701npAAZngc7CNkGE_A-] found
Submit result: .1rp2vWX701npAAZngc7CNkGE_A- has been confirmed
Track | CTDB Status
1 | (30/30) Accurately ripped
2 | (30/30) Accurately ripped
3 | (30/30) Accurately ripped
4 | (30/30) Accurately ripped
5 | (30/30) Accurately ripped
6 | (30/30) Accurately ripped
7 | (30/30) Accurately ripped
8 | (30/30) Accurately ripped
9 | (30/30) Accurately ripped


==== Log checksum E7FD3D5A7C8DF77B39EB9CF985C6670AAD53880481F8522DCBBC9E48646A73C3 ====


[CUETools log; Date: 06.04.2020 13:15:44; Version: 2.1.4]
[AccurateRip ID: 0011f24f-0082e96b-780c4209] found.
Track [ CRC | V2 ] Status
01 [1436ae18|0ad97c9b] (00+10/10) Accurately ripped
02 [48c5a313|bc75db2c] (00+10/10) Accurately ripped
03 [9556f664|979f373f] (00+10/10) Accurately ripped
04 [17f8298b|550feaa7] (00+10/10) Accurately ripped
05 [e3b4b90f|46794ebd] (00+10/10) Accurately ripped
06 [3e586be9|fb7bd517] (00+10/10) Accurately ripped
07 [e52f90f8|45dc9d82] (00+10/10) Accurately ripped
08 [b1a1d6e2|1a242aec] (00+10/10) Accurately ripped
09 [d093025d|e195d325] (00+10/10) Accurately ripped

Track Peak [ CRC32 ] [W/O NULL] [ LOG ]
– 98,0 [42644F80] [6CFFC39C]
01 97,8 [B5FEBBA4] [6489CD76] CRC32
02 97,9 [9F6D033A] [5F751D23] CRC32
03 98,0 [CAF0375C] [CA1C03DF] CRC32
04 97,6 [1D25C355] [B3059915] CRC32
05 97,9 [4AE11867] [E19DA534] CRC32
06 97,9 [6EE64D2F] [7DF7055B] CRC32
07 97,7 [40E47DF9] [D1C6B03C] CRC32
08 97,9 [06628834] [C842FEEE] CRC32
09 97,9 [4B4797FF] [46AE5560] CRC32


Saltatio Mortis - Zirkus Zeitgeist: Live Aus Der Grossen Freiheit (2015) [2CD +2DVD + Blu-ray Box Set]

Tracklist DVD1:

1. Wo sind die Clowns?
2. Willkommen in der Weihnachtszeit
3. Wachstum über alles
4. Des Bänkers neue Kleider
5. Nachts weinen die Soldaten
6. Habgier und Tod
7. Idol
8. Augen zu
9. Maria
10. Wir sind Papst
11. Geradeaus
12. Koma
13. Erinnerung
14. Satans Fall
15. Todesengel
16. Eulenspiegel
17. Prometheus
18. Früher war alles besser
19. Tritt ein
20. Trinklied
21. Worte
22. Rattenfänger
23. Spielmannsschwur
Making Of Zirkus Zeitgeist

Title: Saltatio Mortis 2015 - Zirkus Zeitgeist DVD1
Size: 7.70 Gb ( 8 074 132,00 KBytes ) - DVD-9
Enabled regions: 1, 2, 3, 4, 5, 6, 7, 8

VTS_01 :
Play Length: 01:58:58
Video: PAL 16:9 (720x576) VBR, Auto Letterboxed
Audio:
Deutsch (LinearPCM, 2 ch)
Deutsch (DTS, 6 ch)

VTS_02 :
Play Length: 00:00:00
Video: PAL 16:9 (720x576) VBR, Auto Letterboxed


Saltatio Mortis - Zirkus Zeitgeist: Live Aus Der Grossen Freiheit (2015) [2CD +2DVD + Blu-ray Box Set]

Tracklist DVD2:

Making Of Zirkus Zeitgeist - Documentary

Title: Saltatio Mortis 2015 - Zirkus Zeitgeist DVD2
Size: 1.73 Gb ( 1 813 288,00 KBytes ) - DVD-5
Enabled regions: 1, 2, 3, 4, 5, 6, 7, 8

VTS_01 :
Play Length: 00:24:41
Video: PAL 16:9 (720x576) VBR, Auto Letterboxed
Audio:
Deutsch (LinearPCM, 2 ch)


Saltatio Mortis - Zirkus Zeitgeist: Live Aus Der Grossen Freiheit (2015) [2CD +2DVD + Blu-ray Box Set]

Tracklist Blu-ray:

1. Wo sind die Clowns?
2. Willkommen in der Weihnachtszeit
3. Wachstum über alles
4. Des Bänkers neue Kleider
5. Nachts weinen die Soldaten
6. Habgier und Tod
7. Idol
8. Augen zu
9. Maria
10. Wir sind Papst
11. Geradeaus
12. Koma
13. Erinnerung
14. Satans Fall
15. Todesengel
16. Eulenspiegel
17. Prometheus
18. Früher war alles besser
19. Tritt ein
20. Trinklied
21. Worte
22. Rattenfänger
23. Spielmannsschwur
+
Making Of Zirkus Zeitgeist Live [00:24:41]

Disc Title: Saltatio Mortis 2015 - Zirkus Zeitgeist BD
Disc Size: 42 757 985 944 bytes
Protection: AACS
BD-Java: No
Extras: 50Hz Content
BDInfo: 0.7.3.3

Notes:

BDINFO HOME:
Cinema Squid
http://www.cinemasquid.com/blu-ray/tools/bdinfo

INCLUDES FORUMS REPORT FOR:
AVS Forum Blu-ray Audio and Video Specifications Thread
http://www.avsforum.com/avs-vb/showthread.php?t=1155731

WARNING: Report is incomplete because: Scan has not been run.

********************
PLAYLIST: 00003.MPLS
********************

<–- BEGIN FORUMS PASTE –->
                                                                                                                Total   Video                                             
Title                                                           Codec   Length  Movie Size      Disc Size       Bitrate Bitrate Main Audio Track                          Secondary Audio Track
-----                                                           ------  ------- --------------  --------------  ------- ------- ------------------                        ---------------------
00003.MPLS                                                      AVC     1:58:58 0               42 757 985 944  0,00    0,00    LPCM 2.0 2304Kbps (48kHz/24-bit)          DTS-HD Master 5.1 (48kHz/24-bit)


DISC INFO:

Disc Title:     Saltatio Mortis 2015 - Zirkus Zeitgeist BD
Disc Size:      42 757 985 944 bytes
Protection:     AACS
BD-Java:        No
Extras:         50Hz Content
BDInfo:         0.7.3.3

PLAYLIST REPORT:

Name:                   00003.MPLS
Length:                 1:58:58.320 (h:m:s.ms)
Size:                   0 bytes
Total Bitrate:          0,00 Mbps

VIDEO:

Codec                   Bitrate             Description     
-----                   -------             -----------     
MPEG-4 AVC Video        0 kbps              1080i / 25 fps / 16:9 / High Profile 4.1

AUDIO:

Codec                           Language        Bitrate         Description     
-----                           --------        -------         -----------     
LPCM Audio                      German          2304 kbps       2.0 / 48 kHz / 2304 kbps / 24-bit
DTS-HD Master Audio             German          0 kbps          5.1 / 48 kHz / 24-bit (DTS Core: 5.1 / 48 kHz / 1509 kbps / 24-bit)

FILES:

Name            Time In         Length          Size            Total Bitrate   
----            -------         ------          ----            -------------   
00005.M2TS      0:00:00.000     1:58:58.320     0               0               

CHAPTERS:

Number          Time In         Length          Avg Video Rate  Max 1-Sec Rate  Max 1-Sec Time  Max 5-Sec Rate  Max 5-Sec Time  Max 10Sec Rate  Max 10Sec Time  Avg Frame Size  Max Frame Size  Max Frame Time  
------          -------         ------          --------------  --------------  --------------  --------------  --------------  --------------  --------------  --------------  --------------  --------------  
1               0:00:00.000     0:04:15.000     0 kbps          0 kbps          00:00:00.000    0 kbps          00:00:00.000    0 kbps          00:00:00.000    0 bytes         0 bytes         00:00:00.000    
2               0:04:15.000     0:03:33.760     0 kbps          0 kbps          00:00:00.000    0 kbps          00:00:00.000    0 kbps          00:00:00.000    0 bytes         0 bytes         00:00:00.000    
3               0:07:48.760     0:03:40.799     0 kbps          0 kbps          00:00:00.000    0 kbps          00:00:00.000    0 kbps          00:00:00.000    0 bytes         0 bytes         00:00:00.000    
4               0:11:29.559     0:05:22.959     0 kbps          0 kbps          00:00:00.000    0 kbps          00:00:00.000    0 kbps          00:00:00.000    0 bytes         0 bytes         00:00:00.000    
5               0:16:52.519     0:04:41.880     0 kbps          0 kbps          00:00:00.000    0 kbps          00:00:00.000    0 kbps          00:00:00.000    0 bytes         0 bytes         00:00:00.000    
6               0:21:34.400     0:03:41.040     0 kbps          0 kbps          00:00:00.000    0 kbps          00:00:00.000    0 kbps          00:00:00.000    0 bytes         0 bytes         00:00:00.000    
7               0:25:15.440     0:06:06.319     0 kbps          0 kbps          00:00:00.000    0 kbps          00:00:00.000    0 kbps          00:00:00.000    0 bytes         0 bytes         00:00:00.000    
8               0:31:21.760     0:04:48.959     0 kbps          0 kbps          00:00:00.000    0 kbps          00:00:00.000    0 kbps          00:00:00.000    0 bytes         0 bytes         00:00:00.000    
9               0:36:10.720     0:05:14.080     0 kbps          0 kbps          00:00:00.000    0 kbps          00:00:00.000    0 kbps          00:00:00.000    0 bytes         0 bytes         00:00:00.000    
10              0:41:24.800     0:03:53.199     0 kbps          0 kbps          00:00:00.000    0 kbps          00:00:00.000    0 kbps          00:00:00.000    0 bytes         0 bytes         00:00:00.000    
11              0:45:18.000     0:05:01.879     0 kbps          0 kbps          00:00:00.000    0 kbps          00:00:00.000    0 kbps          00:00:00.000    0 bytes         0 bytes         00:00:00.000    
12              0:50:19.879     0:05:40.720     0 kbps          0 kbps          00:00:00.000    0 kbps          00:00:00.000    0 kbps          00:00:00.000    0 bytes         0 bytes         00:00:00.000    
13              0:56:00.599     0:04:21.880     0 kbps          0 kbps          00:00:00.000    0 kbps          00:00:00.000    0 kbps          00:00:00.000    0 bytes         0 bytes         00:00:00.000    
14              1:00:22.480     0:05:56.839     0 kbps          0 kbps          00:00:00.000    0 kbps          00:00:00.000    0 kbps          00:00:00.000    0 bytes         0 bytes         00:00:00.000    
15              1:06:19.320     0:03:54.599     0 kbps          0 kbps          00:00:00.000    0 kbps          00:00:00.000    0 kbps          00:00:00.000    0 bytes         0 bytes         00:00:00.000    
16              1:10:13.919     0:07:20.279     0 kbps          0 kbps          00:00:00.000    0 kbps          00:00:00.000    0 kbps          00:00:00.000    0 bytes         0 bytes         00:00:00.000    
17              1:17:34.199     0:05:47.440     0 kbps          0 kbps          00:00:00.000    0 kbps          00:00:00.000    0 kbps          00:00:00.000    0 bytes         0 bytes         00:00:00.000    
18              1:23:21.639     0:05:41.160     0 kbps          0 kbps          00:00:00.000    0 kbps          00:00:00.000    0 kbps          00:00:00.000    0 bytes         0 bytes         00:00:00.000    
19              1:29:02.800     0:04:14.199     0 kbps          0 kbps          00:00:00.000    0 kbps          00:00:00.000    0 kbps          00:00:00.000    0 bytes         0 bytes         00:00:00.000    
20              1:33:17.000     0:07:00.639     0 kbps          0 kbps          00:00:00.000    0 kbps          00:00:00.000    0 kbps          00:00:00.000    0 bytes         0 bytes         00:00:00.000    
21              1:40:17.639     0:06:07.760     0 kbps          0 kbps          00:00:00.000    0 kbps          00:00:00.000    0 kbps          00:00:00.000    0 bytes         0 bytes         00:00:00.000    
22              1:46:25.400     0:03:27.519     0 kbps          0 kbps          00:00:00.000    0 kbps          00:00:00.000    0 kbps          00:00:00.000    0 bytes         0 bytes         00:00:00.000    
23              1:49:52.919     0:06:50.680     0 kbps          0 kbps          00:00:00.000    0 kbps          00:00:00.000    0 kbps          00:00:00.000    0 bytes         0 bytes         00:00:00.000    
24              1:56:43.599     0:02:14.720     0 kbps          0 kbps          00:00:00.000    0 kbps          00:00:00.000    0 kbps          00:00:00.000    0 bytes         0 bytes         00:00:00.000    

STREAM DIAGNOSTICS:

File            PID             Type            Codec           Language                Seconds                 Bitrate                 Bytes           Packets         
----            ---             ----            -----           --------                --------------          --------------          -------------   -----           
00005.M2TS      4113 (0x1011)   0x1B            AVC                                     0                       0                       0               0               
00005.M2TS      4352 (0x1100)   0x80            LPCM            deu (German)            0                       0                       0               0               
00005.M2TS      4353 (0x1101)   0x86            DTS-HD MA       deu (German)            0                       0                       0               0               

<–– END FORUMS PASTE ––>

QUICK SUMMARY:

Disc Title: Saltatio Mortis 2015 - Zirkus Zeitgeist BD
Disc Size: 42 757 985 944 bytes
Protection: AACS
BD-Java: No
Playlist: 00003.MPLS
Size: 0 bytes
Length: 1:58:58.320
Total Bitrate: 0,00 Mbps
Video: MPEG-4 AVC Video / 0 kbps / 1080i / 25 fps / 16:9 / High Profile 4.1
Audio: German / LPCM Audio / 2.0 / 48 kHz / 2304 kbps / 24-bit
Audio: German / DTS-HD Master Audio / 5.1 / 48 kHz / 24-bit (DTS Core: 5.1 / 48 kHz / 1509 kbps / 24-bit)


********************
PLAYLIST: 00002.MPLS
********************

<–- BEGIN FORUMS PASTE –->
                                                                                                                Total   Video                                             
Title                                                           Codec   Length  Movie Size      Disc Size       Bitrate Bitrate Main Audio Track                          Secondary Audio Track
-----                                                           ------  ------- --------------  --------------  ------- ------- ------------------                        ---------------------
00002.MPLS                                                      AVC     0:24:41 0               42 757 985 944  0,00    0,00    LPCM 2.0 1536Kbps (48kHz/16-bit)          LPCM 2.0 1536Kbps (48kHz/16-bit)


DISC INFO:

Disc Title:     Saltatio Mortis 2015 - Zirkus Zeitgeist BD
Disc Size:      42 757 985 944 bytes
Protection:     AACS
BD-Java:        No
Extras:         50Hz Content
BDInfo:         0.7.3.3

PLAYLIST REPORT:

Name:                   00002.MPLS
Length:                 0:24:41.879 (h:m:s.ms)
Size:                   0 bytes
Total Bitrate:          0,00 Mbps

VIDEO:

Codec                   Bitrate             Description     
-----                   -------             -----------     
MPEG-4 AVC Video        0 kbps              1080i / 25 fps / 16:9 / High Profile 4.1

AUDIO:

Codec                           Language        Bitrate         Description     
-----                           --------        -------         -----------     
LPCM Audio                      German          1536 kbps       2.0 			  		 	 	  		  	   	 			   		  	   		      		  		  	 			   		   	  			     	 			   		 		   		 	 				 / 48 kHz / 1536 kbps / 16-bit
LPCM Audio                      German          1536 kbps       2.0 / 48 kHz / 1536 kbps / 16-bit

FILES:

Name            Time In         Length          Size            Total Bitrate   
----            -------         ------          ----            -------------   
00007.M2TS      0:00:00.000     0:24:41.879     0               0               

CHAPTERS:

Number          Time In         Length          Avg Video Rate  Max 1-Sec Rate  Max 1-Sec Time  Max 5-Sec Rate  Max 5-Sec Time  Max 10Sec Rate  Max 10Sec Time  Avg Frame Size  Max Frame Size  Max Frame Time  
------          -------         ------          --------------  --------------  --------------  --------------  --------------  --------------  --------------  --------------  --------------  --------------  
1               0:00:00.000     0:06:58.559     0 kbps          0 kbps          00:00:00.000    0 kbps          00:00:00.000    0 kbps          00:00:00.000    0 bytes         0 bytes         00:00:00.000    
2               0:06:58.559     0:06:04.040     0 kbps          0 kbps          00:00:00.000    0 kbps          00:00:00.000    0 kbps          00:00:00.000    0 bytes         0 bytes         00:00:00.000    
3               0:13:02.599     0:06:46.279     0 kbps          0 kbps          00:00:00.000    0 kbps          00:00:00.000    0 kbps          00:00:00.000    0 bytes         0 bytes         00:00:00.000    
4               0:19:48.879     0:04:53.000     0 kbps          0 kbps          00:00:00.000    0 kbps          00:00:00.000    0 kbps          00:00:00.000    0 bytes         0 bytes         00:00:00.000    

STREAM DIAGNOSTICS:

File            PID             Type            Codec           Language                Seconds                 Bitrate                 Bytes           Packets         
----            ---             ----            -----           --------                --------------          --------------          -------------   -----           
00007.M2TS      4113 (0x1011)   0x1B            AVC                                     0                       0                       0               0               
00007.M2TS      4352 (0x1100)   0x80            LPCM            deu (German)            0                       0                       0               0               
00007.M2TS      4353 (0x1101)   0x80            LPCM            deu (German)            0                       0                       0               0               

<–– END FORUMS PASTE ––>

QUICK SUMMARY:

Disc Title: Saltatio Mortis 2015 - Zirkus Zeitgeist BD
Disc Size: 42 757 985 944 bytes
Protection: AACS
BD-Java: No
Playlist: 00002.MPLS
Size: 0 bytes
Length: 0:24:41.879
Total Bitrate: 0,00 Mbps
Video: MPEG-4 AVC Video / 0 kbps / 1080i / 25 fps / 16:9 / High Profile 4.1
Audio: German / LPCM Audio / 2.0 / 48 kHz / 1536 kbps / 16-bit
Audio: German / LPCM Audio / 2.0 / 48 kHz / 1536 kbps / 16-bit


********************
PLAYLIST: 00000.MPLS
********************

<–- BEGIN FORUMS PASTE –->
                                                                                                                Total   Video                                             
Title                                                           Codec   Length  Movie Size      Disc Size       Bitrate Bitrate Main Audio Track                          Secondary Audio Track
-----                                                           ------  ------- --------------  --------------  ------- ------- ------------------                        ---------------------
00000.MPLS                                                      AVC     0:00:30 0               42 757 985 944  0,00    0,00    DTS-HD Master 5.1 (48kHz/24-bit)          


DISC INFO:

Disc Title:     Saltatio Mortis 2015 - Zirkus Zeitgeist BD
Disc Size:      42 757 985 944 bytes
Protection:     AACS
BD-Java:        No
Extras:         50Hz Content
BDInfo:         0.7.3.3

PLAYLIST REPORT:

Name:                   00000.MPLS
Length:                 0:00:30.119 (h:m:s.ms)
Size:                   0 bytes
Total Bitrate:          0,00 Mbps

VIDEO:

Codec                   Bitrate             Description     
-----                   -------             -----------     
MPEG-4 AVC Video        0 kbps              1080i / 25 fps / 16:9 / High Profile 4.1

AUDIO:

Codec                           Language        Bitrate         Description     
-----                           --------        -------         -----------     
DTS-HD Master Audio             Undetermined    0 kbps          5.1 / 48 kHz / 24-bit (DTS Core: 5.1 / 48 kHz / 1509 kbps / 24-bit)

FILES:

Name            Time In         Length          Size            Total Bitrate   
----            -------         ------          ----            -------------   
00000.M2TS      0:00:00.000     0:00:12.039     0               0               
00001.M2TS      0:00:12.039     0:00:09.039     0               0               
00002.M2TS      0:00:21.079     0:00:09.039     0               0               

CHAPTERS:

Number          Time In         Length          Avg Video Rate  Max 1-Sec Rate  Max 1-Sec Time  Max 5-Sec Rate  Max 5-Sec Time  Max 10Sec Rate  Max 10Sec Time  Avg Frame Size  Max Frame Size  Max Frame Time  
------          -------         ------          --------------  --------------  --------------  --------------  --------------  --------------  --------------  --------------  --------------  --------------  
1               0:00:00.000     0:00:30.119     0 kbps          0 kbps          00:00:00.000    0 kbps          00:00:00.000    0 kbps          00:00:00.000    0 bytes         0 bytes         00:00:00.000    

STREAM DIAGNOSTICS:

File            PID             Type            Codec           Language                Seconds                 Bitrate                 Bytes           Packets         
----            ---             ----            -----           --------                --------------          --------------          -------------   -----           
00000.M2TS      4113 (0x1011)   0x1B            AVC                                     0                       0                       0               0               
00000.M2TS      4352 (0x1100)   0x86            DTS-HD MA       und (Undetermined)      0                       0                       0               0               
00001.M2TS      4113 (0x1011)   0x1B            AVC                                     0                       0                       0               0               
00002.M2TS      4113 (0x1011)   0x1B            AVC                                     0                       0                       0               0               

<–– END FORUMS PASTE ––>

QUICK SUMMARY:

Disc Title: Saltatio Mortis 2015 - Zirkus Zeitgeist BD
Disc Size: 42 757 985 944 bytes
Protection: AACS
BD-Java: No
Playlist: 00000.MPLS
Size: 0 bytes
Length: 0:00:30.119
Total Bitrate: 0,00 Mbps
Video: MPEG-4 AVC Video / 0 kbps / 1080i / 25 fps / 16:9 / High Profile 4.1
Audio: Undetermined / DTS-HD Master Audio / 5.1 / 48 kHz / 24-bit (DTS Core: 5.1 / 48 kHz / 1509 kbps / 24-bit)



Saltatio Mortis - Zirkus Zeitgeist: Live Aus Der Grossen Freiheit (2015) [2CD +2DVD + Blu-ray Box Set]

Saltatio Mortis - Zirkus Zeitgeist: Live Aus Der Grossen Freiheit (2015) [2CD +2DVD + Blu-ray Box Set]

Saltatio Mortis - Zirkus Zeitgeist: Live Aus Der Grossen Freiheit (2015) [2CD +2DVD + Blu-ray Box Set]

Saltatio Mortis - Zirkus Zeitgeist: Live Aus Der Grossen Freiheit (2015) [2CD +2DVD + Blu-ray Box Set]

Saltatio Mortis - Zirkus Zeitgeist: Live Aus Der Grossen Freiheit (2015) [2CD +2DVD + Blu-ray Box Set]

All thanks go to anbelk27

Folk Metal in my Blog

Download Saltatio Mortis - Zirkus Zeitgeist: Live Aus Der Grossen Freiheit (2015):