Tags
Language
Tags
June 2024
Su Mo Tu We Th Fr Sa
26 27 28 29 30 31 1
2 3 4 5 6 7 8
9 10 11 12 13 14 15
16 17 18 19 20 21 22
23 24 25 26 27 28 29
30 1 2 3 4 5 6

Sanctuary - Refuge Denied (1987) [Japan 1st Press, 1988]

Posted By: Andi_Deris
Sanctuary - Refuge Denied (1987) [Japan 1st Press, 1988]

Sanctuary - Refuge Denied (1987) [Japan 1st Press, 1988]
EAC Rip | FLAC: Image+Cue+Log | 271 Mb | MP3 CBR 320 kbps | 95 Mb | Scans | Time: 39:44
EPIC/SONY | 25·8P-5019
Heavy/Power Metal, Thrash Metal

Classic power thrash with the amazing vocals talents of Warrel Dane. On 'Refuge Denied', Dane uses his full range. The album's opener, "Battle Angels," is one hell of a song, and has one of the coolest choruses in metal. You'll be listening to it a lot. The only real minus about the album is the slightly muffled production, courtesy of Dave Mustaine. However, after you get used to it, even the production adds to Refuge Denied's unique ambiance. It's really a gem of dark heavy metal.

Sanctuary - Refuge Denied (1987) [Japan 1st Press, 1988]




Track Listing

01. Battle Angels (4:51)
02. Termination Force (3:40)
03. Die For My Sins (3:43)
04. Soldiers Of Steel (5:31)
05. Sanctuary (3:59)
06. White Rabbit* (Jefferson Airplane cover) (3:12)
07. Ascension To Destiny (4:58)
08. The Third War (3:54)
09. Veil Of Disguise (5:56)

Produced by Dave Mustaine
Executive Producer: Don Grierson
*Produced by Paul Lani and Dave Mustaine

The Band

• Warrel Dane - Vocals
• Lenny Rutledge - Guitar, Backing Vocals
• Sean Blosl - Guitar, Backing Vocals
• Jim Sheppard - Bass
• Dave Budbill - Drums, Backing Vocals

*****
• Dave Mustaine - Guitar solo on "White Rabbit", Backing Vocals
• James Overa, Rich Furtner - Backing vocals

Exact Audio Copy V1.0 beta 3 from 29. August 2011

Отчёт EAC об извлечении, выполненном 24. января 2012, 10:09

Sanctuary / Refuge Denied [25 8P-5019]

Дисковод: Optiarc DVD RW AD-7200A Adapter: 0 ID: 0

Режим чтения : Достоверность
Использование точного потока : Да
Отключение кэша аудио : Да
Использование указателей C2 : Нет

Коррекция смещения при чтении : 48
Способность читать области Lead-in и Lead-out : Нет
Заполнение пропущенных сэмплов тишиной : Да
Удаление блоков с тишиной в начале и конце : Нет
При вычислениях CRC использовались нулевые сэмплы : Да
Интерфейс : Встроенный Win32-интерфейс для Win NT/2000

Выходной формат : Пользовательский кодировщик
Выбранный битрейт : 32 kBit/s
Качество : Высокий
Добавление ID3-тега : Нет
Утилита сжатия : C:\Program Files\Exact Audio Copy\Flac\flac.exe
Дополнительные параметры : -V -8 -T "Date=%year%" -T "Genre=%genre%" %source%


TOC извлечённого CD

Трек | Старт | Длительность | Начальный сектор | Конечный сектор
––––––––––––––––––––––––––––––––––-
1 | 0:00.00 | 4:51.57 | 0 | 21881
2 | 4:51.57 | 3:40.23 | 21882 | 38404
3 | 8:32.05 | 3:43.25 | 38405 | 55154
4 | 12:15.30 | 5:31.42 | 55155 | 80021
5 | 17:46.72 | 3:59.18 | 80022 | 97964
6 | 21:46.15 | 3:12.62 | 97965 | 112426
7 | 24:59.02 | 4:58.60 | 112427 | 134836
8 | 29:57.62 | 3:54.15 | 134837 | 152401
9 | 33:52.02 | 5:56.30 | 152402 | 179131


Характеристики диапазона извлечения и сообщения об ошибках

Выбранный диапазон

Имя файла Y:\Музыка\Sanctuary\1988 Refuge Denied\Sanctuary - Refuge Denied [25 8P-5019].wav

Пиковый уровень 100.0 %
Скорость извлечения 3.5 X
Качество диапазона 99.9 %
CRC теста 7BA68173
CRC копии 7BA68173
Копирование… OK

Ошибок не произошло


AccurateRip: сводка

Трек 1 отсутствует в базе данных
Трек 2 отсутствует в базе данных
Трек 3 отсутствует в базе данных
Трек 4 отсутствует в базе данных
Трек 5 отсутствует в базе данных
Трек 6 отсутствует в базе данных
Трек 7 отсутствует в базе данных
Трек 8 отсутствует в базе данных
Трек 9 отсутствует в базе данных

Ни одного трека нет в базе AccurateRip

Конец отчёта

==== Контрольная сумма отчёта 0C5C58AC492B92448762FEBFA9D5D2F00CDEB5E09766706DA9D737387526B747 ====


Many thanks to the original uploader

SEE also:
Sanctuary 1990 Into The Mirror Black [Japan 1st Press]
Sanctuary 2010 Refuge Denied (... Mirror Black (1990) [Reissue]