Tags
Language
Tags
February 2023
Su Mo Tu We Th Fr Sa
29 30 31 1 2 3 4
5 6 7 8 9 10 11
12 13 14 15 16 17 18
19 20 21 22 23 24 25
26 27 28 1 2 3 4

Sandra - so8os Presents Sandra (2012)

Posted By: v3122
Sandra - so8os Presents Sandra (2012)

Sandra - so8os Presents Sandra (2012)
EAC | Flac(Image) + Cue + Log & MP3 CBR 320Kbps
2CD | EMI, 440 850 2 | ~ 1147 or 379 Mb | Scans(png) -> 301 Mb
Electronica, Pop, Synth-pop

Curated by DJ/production duo Blank & Jones, the So80s ("So Eighties") series compiles 12" versions and rare B-sides of artists who had their heyday in the '80s. After compilations of material by OMD, Ultravox, Heaven 17, Kajagoogoo, Hubert Kah, Billy Idol, and Culture Club, the duo presents a two-CD collection of German singer Sandra, who is best known for her number one hit "Maria Magdalena" and for being the ex-wife of Enigma mastermind Michael Cretu. The first disc contains extended versions of Sandra's biggest hits – "Maria Magdalena," "Everlasting Love," "In the Heat of the Night" – while the second disc features remixes (including dub mixes of "Heaven Can Wait," "Secret Land," and "Hiroshima") and instrumental B-sides ("Heatwave," "Party Games," "It Means Forever"), some of which have never been released on CD before.

by Christian Genzel, allmusic
Sandra - so8os Presents Sandra (2012):

Sandra - so8os Presents Sandra (2012)

Tracklist CD1:

01. (I'll Never Be) Maria Magdalena (Extended Version) [0:07:11.56]
02. In The Heat Of The Night (Extended Version) [0:07:24.65]
03. Little Girl (Extended Version) [0:05:21.09]
04. Innocent Love (Extended Version) [0:06:46.62]
05. Hi! Hi! Hi! (Extended Version) [0:06:13.01]
06. Midnight Man (Extended Version) [0:05:27.55]
07. Everlasting Love (Extended Version) [0:07:20.74]
08. Stop For A Minute (Extended Version) [0:06:18.02]
09. Heaven Can Wait (Extended Version) [0:07:40.30]
10. Secret Land (Reverse Mix) [0:06:34.25]
11. We'll Be Together (Extended Version) [0:06:38.39]
12. Around My Heart (Extended Version) [0:05:59.56]

Exact Audio Copy V1.0 beta 3 from 29. August 2011

EAC extraction logfile from 17. August 2013, 19:52

Sandra / so8os Present Sandra (Disc 1)

Used drive : PIONEER DVD-RW DVR-112D Adapter: 2 ID: 1

Read mode : Secure
Utilize accurate stream : Yes
Defeat audio cache : Yes
Make use of C2 pointers : No

Read offset correction : 48
Overread into Lead-In and Lead-Out : No
Fill up missing offset samples with silence : Yes
Delete leading and trailing silent blocks : No
Null samples used in CRC calculations : Yes
Used interface : Installed external ASPI interface

Used output format : User Defined Encoder
Selected bitrate : 1024 kBit/s
Quality : High
Add ID3 tag : No
Command line compressor : C:\Program Files (x86)\Exact Audio Copy\Flac\flac.exe
Additional command line options : -8 -V -T "Date=%year%" -T "Genre=%genre%" -T "COMMENT=ripped by bvstudio™" %source%


TOC of the extracted CD

Track | Start | Length | Start sector | End sector
––––––––––––––––––––––––––––-
1 | 0:00.00 | 7:11.56 | 0 | 32380
2 | 7:11.56 | 7:24.65 | 32381 | 65745
3 | 14:36.46 | 5:21.09 | 65746 | 89829
4 | 19:57.55 | 6:46.62 | 89830 | 120341
5 | 26:44.42 | 6:13.01 | 120342 | 148317
6 | 32:57.43 | 5:27.55 | 148318 | 172897
7 | 38:25.23 | 7:20.74 | 172898 | 205971
8 | 45:46.22 | 6:18.02 | 205972 | 234323
9 | 52:04.24 | 7:40.30 | 234324 | 268853
10 | 59:44.54 | 6:34.25 | 268854 | 298428
11 | 66:19.04 | 6:38.39 | 298429 | 328317
12 | 72:57.43 | 5:59.56 | 328318 | 355298


Range status and errors

Selected range

Filename F:\Sandra\2012 - so8os Presents Sandra (2012 - Germany - 440 850 2)\CD1\Sandra - so8os Present Sandra (Disc 1).wav

Peak level 96.6 %
Extraction speed 8.2 X
Range quality 99.9 %
Test CRC 8B1E38C4
Copy CRC 8B1E38C4
Copy OK

No errors occurred


AccurateRip summary

Track 1 accurately ripped (confidence 14) [168278A6] (AR v2)
Track 2 accurately ripped (confidence 14) [F414A570] (AR v2)
Track 3 accurately ripped (confidence 14) [FABF1D6F] (AR v2)
Track 4 accurately ripped (confidence 14) [526C4274] (AR v2)
Track 5 accurately ripped (confidence 14) [EED570F0] (AR v2)
Track 6 accurately ripped (confidence 14) [E65C49D0] (AR v2)
Track 7 accurately ripped (confidence 14) [6FA2ABF6] (AR v2)
Track 8 accurately ripped (confidence 14) [23508490] (AR v2)
Track 9 accurately ripped (confidence 14) [F2F8F71C] (AR v2)
Track 10 accurately ripped (confidence 14) [A75B873F] (AR v2)
Track 11 accurately ripped (confidence 14) [91DC2DFB] (AR v2)
Track 12 accurately ripped (confidence 13) [34989CB7] (AR v2)

All tracks accurately ripped

End of status report

–– CUETools DB Plugin V2.1.5

[CTDB TOCID: 0E5O9DPnRH.QXpFR0jnpCzA_TO8-] found
Submit result: 0E5O9DPnRH.QXpFR0jnpCzA_TO8- has been confirmed
Track | CTDB Status
1 | (14/14) Accurately ripped
2 | (14/14) Accurately ripped
3 | (14/14) Accurately ripped
4 | (14/14) Accurately ripped
5 | (14/14) Accurately ripped
6 | (14/14) Accurately ripped
7 | (14/14) Accurately ripped
8 | (14/14) Accurately ripped
9 | (14/14) Accurately ripped
10 | (14/14) Accurately ripped
11 | (14/14) Accurately ripped
12 | (14/14) Accurately ripped


==== Log checksum 7B2E8BE8FE5D540FE15DD470644D28CD7ED7BD1452A434B961A001F5951282E4 ====


Sandra - so8os Presents Sandra (2012)

Tracklist CD2:

01. Everlasting Love (PWL 12" Mix) [0:07:42.18]
02. In The Heat Of The Night (Extended UK Mix) [0:06:57.18]
03. Heaven Can Wait (US Remix) [0:07:11.44]
04. Secret Land (M.I.D. DJ Mix) [0:06:49.74]
05. Everlasting Love (PWL Dub Mix) [0:06:57.22]
06. Party Games [0:03:24.18]
07. Heatwave [0:03:24.74]
08. Innocent Theme [0:03:17.25]
09. Heaven's Theme [0:04:00.74]
10. Into Nobody's Land [0:04:02.52]
11. It Means Forever [0:03:40.69]
12. Around My Drums [0:03:16.28]
13. Heaven Can Wait (Dub Mix) [0:04:03.53]
14. Secret Land (Dub Mix) [0:03:01.38]
15. We'll Be Together (Dub Version) [0:03:44.32]
16. Hiroshima (Dub Mix) [0:03:09.62]
17. Everlasting Love (PWL 7" Mix) [0:03:57.72]

Exact Audio Copy V1.0 beta 3 from 29. August 2011

EAC extraction logfile from 17. August 2013, 20:21

Sandra / so8os Present Sandra (Disc 2)

Used drive : PIONEER DVD-RW DVR-112D Adapter: 2 ID: 1

Read mode : Secure
Utilize accurate stream : Yes
Defeat audio cache : Yes
Make use of C2 pointers : No

Read offset correction : 48
Overread into Lead-In and Lead-Out : No
Fill up missing offset samples with silence : Yes
Delete leading and trailing silent blocks : No
Null samples used in CRC calculations : Yes
Used interface : Installed external ASPI interface

Used output format : User Defined Encoder
Selected bitrate : 1024 kBit/s
Quality : High
Add ID3 tag : No
Command line compressor : C:\Program Files (x86)\Exact Audio Copy\Flac\flac.exe
Additional command line options : -8 -V -T "Date=%year%" -T "Genre=%genre%" -T "COMMENT=ripped by bvstudio™" %source%


TOC of the extracted CD

Track | Start | Length | Start sector | End sector
––––––––––––––––––––––––––––-
1 | 0:00.00 | 7:42.18 | 0 | 34667
2 | 7:42.18 | 6:57.18 | 34668 | 65960
3 | 14:39.36 | 7:11.44 | 65961 | 98329
4 | 21:51.05 | 6:49.74 | 98330 | 129078
5 | 28:41.04 | 6:57.22 | 129079 | 160375
6 | 35:38.26 | 3:24.18 | 160376 | 175693
7 | 39:02.44 | 3:24.74 | 175694 | 191067
8 | 42:27.43 | 3:17.25 | 191068 | 205867
9 | 45:44.68 | 4:00.74 | 205868 | 223941
10 | 49:45.67 | 4:02.52 | 223942 | 242143
11 | 53:48.44 | 3:40.69 | 242144 | 258712
12 | 57:29.38 | 3:16.28 | 258713 | 273440
13 | 60:45.66 | 4:03.53 | 273441 | 291718
14 | 64:49.44 | 3:01.38 | 291719 | 305331
15 | 67:51.07 | 3:44.32 | 305332 | 322163
16 | 71:35.39 | 3:09.62 | 322164 | 336400
17 | 74:45.26 | 3:57.72 | 336401 | 354247


Range status and errors

Selected range

Filename F:\Sandra\2012 - so8os Presents Sandra (2012 - Germany - 440 850 2)\CD2\Sandra - so8os Present Sandra (Disc 2).wav

Peak level 96.6 %
Extraction speed 8.2 X
Range quality 100.0 %
Test CRC 7B765E69
Copy CRC 7B765E69
Copy OK

No errors occurred


AccurateRip summary

Track 1 accurately ripped (confidence 14) [6DD9AC8F] (AR v2)
Track 2 accurately ripped (confidence 14) [5B6BA609] (AR v2)
Track 3 accurately ripped (confidence 14) [78B70368] (AR v2)
Track 4 accurately ripped (confidence 14) [C846B3B8] (AR v2)
Track 5 accurately ripped (confidence 14) [6B7F3817] (AR v2)
Track 6 accurately ripped (confidence 14) [75837DF4] (AR v2)
Track 7 accurately ripped (confidence 14) [65D4C761] (AR v2)
Track 8 accurately ripped (confidence 13) [5C07F231] (AR v2)
Track 9 accurately ripped (confidence 13) [784BC884] (AR v2)
Track 10 accurately ripped (confidence 14) [6CDEBA94] (AR v2)
Track 11 accurately ripped (confidence 13) [8C844750] (AR v2)
Track 12 accurately ripped (confidence 14) [76C89D30] (AR v2)
Track 13 accurately ripped (confidence 14) [400A2E87] (AR v2)
Track 14 accurately ripped (confidence 13) [9361BFBE] (AR v2)
Track 15 accurately ripped (confidence 14) [B5111631] (AR v2)
Track 16 accurately ripped (confidence 14) [8B57950E] (AR v2)
Track 17 accurately ripped (confidence 13) [E6D2FA3E] (AR v2)

All tracks accurately ripped

End of status report

–– CUETools DB Plugin V2.1.5

[CTDB TOCID: uzpq_isPGQeZa20QhDPzI7BO8nE-] found
Submit result: uzpq_isPGQeZa20QhDPzI7BO8nE- has been confirmed
Track | CTDB Status
1 | (14/14) Accurately ripped
2 | (14/14) Accurately ripped
3 | (14/14) Accurately ripped
4 | (14/14) Accurately ripped
5 | (14/14) Accurately ripped
6 | (14/14) Accurately ripped
7 | (14/14) Accurately ripped
8 | (13/14) Accurately ripped
9 | (13/14) Accurately ripped
10 | (14/14) Accurately ripped
11 | (13/14) Accurately ripped
12 | (14/14) Accurately ripped
13 | (14/14) Accurately ripped
14 | (13/14) Accurately ripped
15 | (14/14) Accurately ripped
16 | (14/14) Accurately ripped
17 | (13/14) Accurately ripped


==== Log checksum 6A7BDB2DFF4A84149063DA2790CDE915F0DF37CBBA242F7094714EFDA4828AB6 ====


Sandra - so8os Presents Sandra (2012)

All thanks go to bvstudio

Sandra or Sandra in my Blog

Download Sandra - so8os Presents Sandra (2012):