Subcategories
Tags
Language
Tags

Santana - Lotus (1974) 2CDs, Audio Fidelity, Remastered 2016 [Re-Up]

Posted By: Designol
Santana - Lotus (1974) 2CDs, Audio Fidelity, Remastered 2016 [Re-Up]

Santana - Lotus (1974) 2CDs [Remastered 2016]
EAC | FLAC | Tracks (Cue&Log) ~ 766 Mb | Mp3 (CBR320) ~ 271 Mb | Scans ~ 36 Mb | 01:58:49
Jazz-Rock, Psychedelic Rock, Latin Jazz, Fusion | Label: Audio Fidelity | # AFZ2 247
Mastered By Stephen Marsh & Steve Hoffman

Recorded in Japan in July 1973, this massive, three-LP live album was available outside the United States in 1974 but held back from domestic release in the U.S. It features the same "New Santana Band" that recorded Welcome, and combines that group's jazz and spiritual influences with performances of earlier Latin rock favorites like "Oye Como Va."

Review by William Ruhlmann, Allmusic.com

Santana - Lotus (1974) 2CDs, Audio Fidelity, Remastered 2016 [Re-Up]



Tracklist:

CD1:

01. Going Home (3:34)
02. A-1 Funk (3:13)
03. Every Step of the Way (11:30)
04. Black Magic Woman (3:38)
05. Gypsy Queen (3:58)
06. Oye Como Va (5:47)
07. Yours Is the Light (5:30)
08. Batuka (0:55)
09. Xibaba (She-Ba-Ba) (4:13)
10. Stone Flower (Introduction) (1:13)
11. Waiting (4:14)
12. Castillos de Arena Part 1 (Sand Castle) (2:51)
13. Free Angela (4:26)
14. Samba de Sausalito (4:04)

CD2:

01. Mantra (7:18)
02. Kyoto (Drum Solo) (9:58)
03. Castillos de Arena Part 2 (Sand Castle) (1:13)
04. Incident at Neshabur (15:57)
05. Se a Cabo (5:37)
06. Samba Pa Ti (8:56)
07. Mr. Udo (3:06)
08. Toussaint l'Overture (7:40)


Exact Audio Copy V1.3 from 2. September 2016

EAC extraction logfile from 2. April 2017, 0:04

Santana / Lotus (2016 AF - Disc 1 of 2)

Used drive : ATAPI iHAS124 E Adapter: 1 ID: 0

Read mode : Secure
Utilize accurate stream : Yes
Defeat audio cache : Yes
Make use of C2 pointers : No

Read offset correction : 6
Overread into Lead-In and Lead-Out : No
Fill up missing offset samples with silence : Yes
Delete leading and trailing silent blocks : No
Null samples used in CRC calculations : Yes
Used interface : Native Win32 interface for Win NT & 2000
Gap handling : Appended to previous track

Used output format : User Defined Encoder
Selected bitrate : 768 kBit/s
Quality : High
Add ID3 tag : No
Command line compressor : C:\Program Files (x86)\Exact Audio Copy\FLAC\FLAC.EXE
Additional command line options : -6 -e -p -V -T "ARTIST=%artist%" -T "TITLE=%title%" -T "ALBUM=%albumtitle%" -T "DATE=%year%" -T "TRACKNUMBER=%tracknr%" -T "GENRE=%genre%" -T "PERFORMER=%albuminterpret%" -T "COMPOSER=%composer%" %haslyrics%–tag-from-file=LYRICS="%lyricsfile%"%haslyrics% -T "ALBUMARTIST=%albumartist%" -T "DISCNUMBER=%cdnumber%" -T "TOTALDISCS=%totalcds%" -T "TOTALTRACKS=%numtracks%" -T "COMMENT=%comment%" %source% -o %dest%


TOC of the extracted CD

Track | Start | Length | Start sector | End sector
––––––––––––––––––––––––––––-
1 | 0:00.00 | 3:33.38 | 0 | 16012
2 | 3:33.38 | 3:12.66 | 16013 | 30478
3 | 6:46.29 | 11:29.57 | 30479 | 82210
4 | 18:16.11 | 3:38.12 | 82211 | 98572
5 | 21:54.23 | 3:57.43 | 98573 | 116390
6 | 25:51.66 | 5:46.67 | 116391 | 142407
7 | 31:38.58 | 5:29.74 | 142408 | 167156
8 | 37:08.57 | 0:54.39 | 167157 | 171245
9 | 38:03.21 | 4:12.54 | 171246 | 190199
10 | 42:16.00 | 1:13.25 | 190200 | 195699
11 | 43:29.25 | 4:13.44 | 195700 | 214718
12 | 47:42.69 | 2:51.05 | 214719 | 227548
13 | 50:33.74 | 4:26.14 | 227549 | 247512
14 | 55:00.13 | 4:04.23 | 247513 | 265835


Track 1

Filename C:\tmp\00_RIPS\01 - Going Home.wav

Pre-gap length 0:00:02.00

Peak level 51.8 %
Extraction speed 5.6 X
Track quality 100.0 %
Test CRC 19BC095B
Copy CRC 19BC095B
Accurately ripped (confidence 7) [8E3B9B4E] (AR v2)
Copy OK

Track 2

Filename C:\tmp\00_RIPS\02 - A-1 Funk.wav

Peak level 61.9 %
Extraction speed 4.9 X
Track quality 99.9 %
Test CRC B56B978E
Copy CRC B56B978E
Accurately ripped (confidence 7) [555A07B4] (AR v2)
Copy OK

Track 3

Filename C:\tmp\00_RIPS\03 - Every Step of the Way.wav

Peak level 78.6 %
Extraction speed 7.7 X
Track quality 100.0 %
Test CRC AD2C9140
Copy CRC AD2C9140
Accurately ripped (confidence 7) [AE99439B] (AR v2)
Copy OK

Track 4

Filename C:\tmp\00_RIPS\04 - Black Magic Woman.wav

Peak level 83.1 %
Extraction speed 7.8 X
Track quality 100.0 %
Test CRC 55B39757
Copy CRC 55B39757
Accurately ripped (confidence 7) [0573892F] (AR v2)
Copy OK

Track 5

Filename C:\tmp\00_RIPS\05 - Gypsy Queen.wav

Peak level 91.3 %
Extraction speed 8.2 X
Track quality 100.0 %
Test CRC 1A890CA8
Copy CRC 1A890CA8
Accurately ripped (confidence 7) [3C2BB694] (AR v2)
Copy OK

Track 6

Filename C:\tmp\00_RIPS\06 - Oye Como Va.wav

Peak level 94.6 %
Extraction speed 7.9 X
Track quality 99.9 %
Test CRC 165F87C0
Copy CRC 165F87C0
Accurately ripped (confidence 7) [E1ECC925] (AR v2)
Copy OK

Track 7

Filename C:\tmp\00_RIPS\07 - Yours Is the Light.wav

Peak level 70.0 %
Extraction speed 8.2 X
Track quality 99.9 %
Test CRC 1E4A542F
Copy CRC 1E4A542F
Accurately ripped (confidence 7) [09BB190C] (AR v2)
Copy OK

Track 8

Filename C:\tmp\00_RIPS\08 - Batuka.wav

Peak level 77.4 %
Extraction speed 6.4 X
Track quality 100.0 %
Test CRC 9A84A987
Copy CRC 9A84A987
Accurately ripped (confidence 7) [99461FB2] (AR v2)
Copy OK

Track 9

Filename C:\tmp\00_RIPS\09 - Xibaba.wav

Peak level 77.7 %
Extraction speed 9.6 X
Track quality 100.0 %
Test CRC D509942E
Copy CRC D509942E
Accurately ripped (confidence 7) [8D15641C] (AR v2)
Copy OK

Track 10

Filename C:\tmp\00_RIPS\10 - Stone Flower (introduction).wav

Peak level 70.8 %
Extraction speed 7.6 X
Track quality 100.0 %
Test CRC 45F09159
Copy CRC 45F09159
Accurately ripped (confidence 7) [F8D40D1C] (AR v2)
Copy OK

Track 11

Filename C:\tmp\00_RIPS\11 - Waiting.wav

Peak level 84.7 %
Extraction speed 9.9 X
Track quality 100.0 %
Test CRC 535DB0B0
Copy CRC 535DB0B0
Accurately ripped (confidence 7) [A12E92CD] (AR v2)
Copy OK

Track 12

Filename C:\tmp\00_RIPS\12 - Castillos De Arena Part 1 (Sand Castle).wav

Peak level 88.6 %
Extraction speed 9.8 X
Track quality 100.0 %
Test CRC 89D3D593
Copy CRC 89D3D593
Accurately ripped (confidence 7) [E7920BF6] (AR v2)
Copy OK

Track 13

Filename C:\tmp\00_RIPS\13 - Free Angela.wav

Peak level 85.8 %
Extraction speed 10.6 X
Track quality 100.0 %
Test CRC CD89723D
Copy CRC CD89723D
Accurately ripped (confidence 7) [A718B8F0] (AR v2)
Copy OK

Track 14

Filename C:\tmp\00_RIPS\14 - Samba de Sausalito.wav

Peak level 93.6 %
Extraction speed 10.7 X
Track quality 100.0 %
Test CRC 3E1EA17F
Copy CRC 3E1EA17F
Accurately ripped (confidence 7) [C6A48FD5] (AR v2)
Copy OK


All tracks accurately ripped

No errors occurred

End of status report

–– CUETools DB Plugin V2.1.6

[CTDB TOCID: D56D0l7RK_.rTs2CLewtkkxZcxQ-] found
Submit result: D56D0l7RK_.rTs2CLewtkkxZcxQ- has been confirmed
Track | CTDB Status
1 | (14/14) Accurately ripped
2 | (14/14) Accurately ripped
3 | (14/14) Accurately ripped
4 | (14/14) Accurately ripped
5 | (14/14) Accurately ripped
6 | (14/14) Accurately ripped
7 | (14/14) Accurately ripped
8 | (14/14) Accurately ripped
9 | (14/14) Accurately ripped
10 | (14/14) Accurately ripped
11 | (14/14) Accurately ripped
12 | (14/14) Accurately ripped
13 | (14/14) Accurately ripped
14 | (14/14) Accurately ripped


==== Log checksum DA3302567865C1C65A14F8E5EDB1EF4A016C475B94AA9FF1D3E1AA9B4B67B5F4 ====

foobar2000 1.2 / Dynamic Range Meter 1.1.1
log date: 2017-07-20 16:17:03

––––––––––––––––––––––––––––––––––––––––
Analyzed: Santana / Lotus CD1
––––––––––––––––––––––––––––––––––––––––

DR Peak RMS Duration Track
––––––––––––––––––––––––––––––––––––––––
DR12 -5.70 dB -22.24 dB 3:34 01-Going Home
DR11 -4.17 dB -18.23 dB 3:13 02-A-1 Funk
DR10 -2.09 dB -15.23 dB 11:30 03-Every Step of the Way
DR12 -1.60 dB -16.95 dB 3:38 04-Black Magic Woman
DR12 -0.78 dB -14.50 dB 3:58 05-Gypsy Queen
DR12 -0.48 dB -16.09 dB 5:47 06-Oye Como Va
DR10 -3.10 dB -17.01 dB 5:30 07-Yours Is the Light
DR14 -2.22 dB -19.58 dB 0:55 08-Batuka
DR11 -2.19 dB -15.15 dB 4:13 09-Xibaba (She-Ba-Ba)
DR10 -2.99 dB -16.13 dB 1:13 10-Stone Flower (Introduction)
DR12 -1.44 dB -16.23 dB 4:14 11-Waiting
DR10 -1.05 dB -13.60 dB 2:51 12-Castillos de Arena Part 1 (Sand Castle)
DR11 -1.33 dB -16.59 dB 4:26 13-Free Angela
DR11 -0.57 dB -14.90 dB 4:04 14-Samba de Sausalito
––––––––––––––––––––––––––––––––––––––––

Number of tracks: 14
Official DR value: DR11

Samplerate: 44100 Hz
Channels: 2
Bits per sample: 16
Bitrate: 922 kbps
Codec: FLAC
================================================================================


Exact Audio Copy V1.3 from 2. September 2016

EAC extraction logfile from 2. April 2017, 0:21

Santana / Lotus (2016 AF - Disc 2 of 2)

Used drive : ATAPI iHAS124 E Adapter: 1 ID: 0

Read mode : Secure
Utilize accurate stream : Yes
Defeat audio cache : Yes
Make use of C2 pointers : No

Read offset correction : 6
Overread into Lead-In and Lead-Out : No
Fill up missing offset samples with silence : Yes
Delete leading and trailing silent blocks : No
Null samples used in CRC calculations : Yes
Used interface : Native Win32 interface for Win NT & 2000
Gap handling : Appended to previous track

Used output format : User Defined Encoder
Selected bitrate : 768 kBit/s
Quality : High
Add ID3 tag : No
Command line compressor : C:\Program Files (x86)\Exact Audio Copy\FLAC\FLAC.EXE
Additional command line options : -6 -e -p -V -T "ARTIST=%artist%" -T "TITLE=%title%" -T "ALBUM=%albumtitle%" -T "DATE=%year%" -T "TRACKNUMBER=%tracknr%" -T "GENRE=%genre%" -T "PERFORMER=%albuminterpret%" -T "COMPOSER=%composer%" %haslyrics%–tag-from-file=LYRICS="%lyricsfile%"%haslyrics% -T "ALBUMARTIST=%albumartist%" -T "DISCNUMBER=%cdnumber%" -T "TOTALDISCS=%totalcds%" -T "TOTALTRACKS=%numtracks%" -T "COMMENT=%comment%" %source% -o %dest%


TOC of the extracted CD

Track | Start | Length | Start sector | End sector
––––––––––––––––––––––––––––-
1 | 0:00.00 | 7:17.63 | 0 | 32837
2 | 7:17.63 | 9:57.42 | 32838 | 77654
3 | 17:15.30 | 1:12.46 | 77655 | 83100
4 | 18:28.01 | 15:57.37 | 83101 | 154912
5 | 34:25.38 | 5:37.00 | 154913 | 180187
6 | 40:02.38 | 8:55.43 | 180188 | 220355
7 | 48:58.06 | 3:06.37 | 220356 | 234342
8 | 52:04.43 | 7:40.11 | 234343 | 268853


Track 1

Filename C:\tmp\00_RIPS\01 - Mantra.wav

Pre-gap length 0:00:02.00

Peak level 75.5 %
Extraction speed 6.3 X
Track quality 100.0 %
Test CRC E4E3810B
Copy CRC E4E3810B
Accurately ripped (confidence 7) [EE3F547F] (AR v2)
Copy OK

Track 2

Filename C:\tmp\00_RIPS\02 - Kyoto (Drum Solo).wav

Peak level 90.3 %
Extraction speed 7.6 X
Track quality 100.0 %
Test CRC F0CA5CF1
Copy CRC F0CA5CF1
Accurately ripped (confidence 7) [67A38BFA] (AR v2)
Copy OK

Track 3

Filename C:\tmp\00_RIPS\03 - Castillos de Arena Part 2 (Sand Castle).wav

Peak level 81.5 %
Extraction speed 6.0 X
Track quality 100.0 %
Test CRC BE190E4A
Copy CRC BE190E4A
Accurately ripped (confidence 7) [8823581D] (AR v2)
Copy OK

Track 4

Filename C:\tmp\00_RIPS\04 - Incident at Neshabur.wav

Peak level 92.5 %
Extraction speed 8.8 X
Track quality 99.9 %
Test CRC 75A885AF
Copy CRC 75A885AF
Accurately ripped (confidence 7) [D342D520] (AR v2)
Copy OK

Track 5

Filename C:\tmp\00_RIPS\05 - Se a Cabó.wav

Peak level 92.1 %
Extraction speed 8.6 X
Track quality 99.9 %
Test CRC 8B67543F
Copy CRC 8B67543F
Accurately ripped (confidence 7) [FEAD27A4] (AR v2)
Copy OK

Track 6

Filename C:\tmp\00_RIPS\06 - Samba Pa Ti.wav

Peak level 72.9 %
Extraction speed 10.6 X
Track quality 100.0 %
Test CRC AF9B5A2D
Copy CRC AF9B5A2D
Accurately ripped (confidence 7) [020517D6] (AR v2)
Copy OK

Track 7

Filename C:\tmp\00_RIPS\07 - Mr. Udo.wav

Peak level 82.9 %
Extraction speed 10.1 X
Track quality 100.0 %
Test CRC 26F351DB
Copy CRC 26F351DB
Accurately ripped (confidence 7) [C37CA24E] (AR v2)
Copy OK

Track 8

Filename C:\tmp\00_RIPS\08 - Toussaint L'Overture.wav

Peak level 95.2 %
Extraction speed 10.1 X
Track quality 99.9 %
Test CRC D4A5006D
Copy CRC D4A5006D
Accurately ripped (confidence 7) [597BCE9F] (AR v2)
Copy OK


All tracks accurately ripped

No errors occurred

End of status report

–– CUETools DB Plugin V2.1.6

[CTDB TOCID: .MU4hqNcLnN0o1bwpnvHrUpL2DY-] found
Submit result: .MU4hqNcLnN0o1bwpnvHrUpL2DY- has been confirmed
Track | CTDB Status
1 | (14/14) Accurately ripped
2 | (14/14) Accurately ripped
3 | (14/14) Accurately ripped
4 | (14/14) Accurately ripped
5 | (14/14) Accurately ripped
6 | (14/14) Accurately ripped
7 | (14/14) Accurately ripped
8 | (14/14) Accurately ripped


==== Log checksum CD40187F3FB76561FDA2E0C2860111D7DB6420ECC6411FAAE1B8563BDD345B93 ====

foobar2000 1.2 / Dynamic Range Meter 1.1.1
log date: 2017-07-20 16:17:28

––––––––––––––––––––––––––––––––––––––––
Analyzed: Santana / Lotus CD2
––––––––––––––––––––––––––––––––––––––––

DR Peak RMS Duration Track
––––––––––––––––––––––––––––––––––––––––
DR11 -2.43 dB -17.58 dB 7:18 01-Mantra
DR14 -0.88 dB -19.66 dB 9:58 02-Kyoto (Drum Solo)
DR9 -1.77 dB -14.16 dB 1:13 03-Castillos de Arena Part 2 (Sand Castle)
DR11 -0.67 dB -15.59 dB 15:57 04-Incident at Neshabur
DR11 -0.71 dB -15.32 dB 5:37 05-Se a Cabo
DR10 -2.74 dB -15.86 dB 8:56 06-Samba Pa Ti
DR13 -1.62 dB -17.97 dB 3:06 07-Mr. Udo
DR11 -0.42 dB -14.14 dB 7:40 08-Toussaint l'Overture
––––––––––––––––––––––––––––––––––––––––

Number of tracks: 8
Official DR value: DR11

Samplerate: 44100 Hz
Channels: 2
Bits per sample: 16
Bitrate: 960 kbps
Codec: FLAC
================================================================================

Santana - Lotus (1974) 2CDs, Audio Fidelity, Remastered 2016 [Re-Up]

Santana - Lotus (1974) 2CDs, Audio Fidelity, Remastered 2016 [Re-Up]