Subcategories
Tags
Language
Tags

Sasha - Scene Delete (2016)

Posted By: gribovar
Sasha - Scene Delete (2016)

Sasha - Scene Delete (2016)
EAC Rip | FLAC (tracks+.cue+log) - 398 MB | MP3 CBR 320 kbps (LAME 3.93) - 176 MB | Covers - 74 MB
Genre: Downtempo, Ambient | RAR 3% Rec. | Label: Late Night Tales (ALNCD43)

The first Late Night Tales release of 2016 is a very special project by Sasha. Imagine listening to music inspired by Frahm, Richter and Steve Reich, but made by one of the UK’s leading house and techno DJs. Away from the hubbub of the club, the craziness of Ibiza, there’s a contemplative side to everybody. Forget the beats and the sweat and the billowing anthems; this quiet, undulating, at times pastoral piece is less about songs and anthems and more about texture and atmosphere. ‘Scene Delete’ is a side of Sasha you’ve never heard before.
Tracklist:
01. Channel Deq
02. View2
03. Baracus
04. Linepulse
05. Time After Time
06. Detour
07. Pontiac
08. Cassette Sessions D
09. Cassette Sessions E
10. Healer
11. Modcon
12. Scarpa Falls
13. Warewolf
14. Bring On The Night-time
15. Corvette
16. Shelter
17. Untitled 3
18. Abacus
19. Rooms
20. Broadcast
21. Vapour Trails

Total time: 01:15:00

Exact Audio Copy V1.0 beta 4 from 7. December 2014

EAC extraction logfile from 5. November 2016, 15:59

Sasha / Scene Delete

Used drive : PIONEER DVD-RW DVRTD11RS Adapter: 1 ID: 0

Read mode : Secure
Utilize accurate stream : Yes
Defeat audio cache : Yes
Make use of C2 pointers : No

Read offset correction : 6
Overread into Lead-In and Lead-Out : No
Fill up missing offset samples with silence : Yes
Delete leading and trailing silent blocks : No
Null samples used in CRC calculations : Yes
Used interface : Native Win32 interface for Win NT & 2000
Gap handling : Appended to previous track

Used output format : User Defined Encoder
Selected bitrate : 1024 kBit/s
Quality : High
Add ID3 tag : No
Command line compressor : C:\Program Files (x86)\Exact Audio Copy\Flac\flac.exe
Additional command line options : -8 -V -T "ARTIST=%artist%" -T "TITLE=%title%" -T "ALBUM=%albumtitle%" -T "DATE=%year%" -T "TRACKNUMBER=%tracknr%" -T "TOTALTRACKS=%numtracks%" -T "GENRE=%genre%" -T "ALBUMARTIST=%albumartist%" -T "ALBUM ARTIST=%albumartist%" -T "COMMENT=EAC Secure Mode, Test & Copy, AccurateRip, FLAC -8" %source%


TOC of the extracted CD

Track | Start | Length | Start sector | End sector
––––––––––––––––––––––––––––-
1 | 0:00.00 | 1:58.37 | 0 | 8886
2 | 1:58.37 | 4:27.50 | 8887 | 28961
3 | 6:26.12 | 6:15.61 | 28962 | 57147
4 | 12:41.73 | 4:00.53 | 57148 | 75200
5 | 16:42.51 | 4:16.00 | 75201 | 94400
6 | 20:58.51 | 5:19.71 | 94401 | 118396
7 | 26:18.47 | 5:15.33 | 118397 | 142054
8 | 31:34.05 | 3:10.09 | 142055 | 156313
9 | 34:44.14 | 2:30.49 | 156314 | 167612
10 | 37:14.63 | 1:35.43 | 167613 | 174780
11 | 38:50.31 | 2:55.74 | 174781 | 187979
12 | 41:46.30 | 4:50.51 | 187980 | 209780
13 | 46:37.06 | 5:35.28 | 209781 | 234933
14 | 52:12.34 | 5:54.49 | 234934 | 261532
15 | 58:07.08 | 0:24.65 | 261533 | 263397
16 | 58:31.73 | 3:56.37 | 263398 | 281134
17 | 62:28.35 | 1:06.48 | 281135 | 286132
18 | 63:35.08 | 2:03.33 | 286133 | 295390
19 | 65:38.41 | 5:30.22 | 295391 | 320162
20 | 71:08.63 | 0:52.64 | 320163 | 324126
21 | 72:01.52 | 2:59.17 | 324127 | 337568


Track 1

Filename I:\EAC\Sasha - Scene Delete (2016) [FLAC]\01 - Channel deq.wav

Pre-gap length 0:00:02.00

Peak level 83.3 %
Extraction speed 1.9 X
Track quality 99.9 %
Test CRC 7220BCB3
Copy CRC 7220BCB3
Accurately ripped (confidence 11) [C1AC707F] (AR v2)
Copy OK

Track 2

Filename I:\EAC\Sasha - Scene Delete (2016) [FLAC]\02 - View2.wav

Peak level 94.3 %
Extraction speed 3.2 X
Track quality 100.0 %
Test CRC CD77DF32
Copy CRC CD77DF32
Accurately ripped (confidence 11) [6EBEE609] (AR v2)
Copy OK

Track 3

Filename I:\EAC\Sasha - Scene Delete (2016) [FLAC]\03 - Baracus.wav

Peak level 94.3 %
Extraction speed 3.3 X
Track quality 99.9 %
Test CRC 328F7AE8
Copy CRC 328F7AE8
Accurately ripped (confidence 11) [7A0B11BA] (AR v2)
Copy OK

Track 4

Filename I:\EAC\Sasha - Scene Delete (2016) [FLAC]\04 - Linepulse.wav

Peak level 94.3 %
Extraction speed 3.2 X
Track quality 99.9 %
Test CRC 04660FFA
Copy CRC 04660FFA
Accurately ripped (confidence 11) [CCF25E72] (AR v2)
Copy OK

Track 5

Filename I:\EAC\Sasha - Scene Delete (2016) [FLAC]\05 - Time After Time.wav

Peak level 94.3 %
Extraction speed 4.1 X
Track quality 100.0 %
Test CRC 81920E8B
Copy CRC 81920E8B
Accurately ripped (confidence 12) [6C8AE7D2] (AR v2)
Copy OK

Track 6

Filename I:\EAC\Sasha - Scene Delete (2016) [FLAC]\06 - Detour.wav

Peak level 94.3 %
Extraction speed 4.4 X
Track quality 100.0 %
Test CRC 2237E0F2
Copy CRC 2237E0F2
Accurately ripped (confidence 12) [E0005C71] (AR v2)
Copy OK

Track 7

Filename I:\EAC\Sasha - Scene Delete (2016) [FLAC]\07 - Pontiac.wav

Peak level 94.3 %
Extraction speed 4.7 X
Track quality 100.0 %
Test CRC 80FA35B3
Copy CRC 80FA35B3
Accurately ripped (confidence 12) [4A047A85] (AR v2)
Copy OK

Track 8

Filename I:\EAC\Sasha - Scene Delete (2016) [FLAC]\08 - Cassette Sessions D.wav

Peak level 94.3 %
Extraction speed 4.5 X
Track quality 100.0 %
Test CRC BE8A2678
Copy CRC BE8A2678
Accurately ripped (confidence 12) [3B4CC6CF] (AR v2)
Copy OK

Track 9

Filename I:\EAC\Sasha - Scene Delete (2016) [FLAC]\09 - Cassette Sessions E.wav

Peak level 94.3 %
Extraction speed 4.5 X
Track quality 100.0 %
Test CRC D24FE41D
Copy CRC D24FE41D
Accurately ripped (confidence 12) [92956286] (AR v2)
Copy OK

Track 10

Filename I:\EAC\Sasha - Scene Delete (2016) [FLAC]\10 - Healer.wav

Peak level 94.3 %
Extraction speed 2.9 X
Track quality 99.8 %
Test CRC DCFB20A2
Copy CRC DCFB20A2
Accurately ripped (confidence 12) [2A0BEE06] (AR v2)
Copy OK

Track 11

Filename I:\EAC\Sasha - Scene Delete (2016) [FLAC]\11 - Modcon.wav

Peak level 94.8 %
Extraction speed 4.8 X
Track quality 100.0 %
Test CRC 9A0C0258
Copy CRC 9A0C0258
Accurately ripped (confidence 12) [F02A102A] (AR v2)
Copy OK

Track 12

Filename I:\EAC\Sasha - Scene Delete (2016) [FLAC]\12 - Scarpa Falls.wav

Peak level 94.3 %
Extraction speed 5.3 X
Track quality 100.0 %
Test CRC 9AF4B8EC
Copy CRC 9AF4B8EC
Accurately ripped (confidence 12) [2475ED6C] (AR v2)
Copy OK

Track 13

Filename I:\EAC\Sasha - Scene Delete (2016) [FLAC]\13 - Warewolf.wav

Peak level 94.3 %
Extraction speed 5.7 X
Track quality 100.0 %
Test CRC CB9B08B1
Copy CRC CB9B08B1
Accurately ripped (confidence 13) [2A790FBE] (AR v2)
Copy OK

Track 14

Filename I:\EAC\Sasha - Scene Delete (2016) [FLAC]\14 - Bring on the Night time.wav

Peak level 94.4 %
Extraction speed 5.9 X
Track quality 100.0 %
Test CRC FEB57EB0
Copy CRC FEB57EB0
Accurately ripped (confidence 12) [6ED7C9CB] (AR v2)
Copy OK

Track 15

Filename I:\EAC\Sasha - Scene Delete (2016) [FLAC]\15 - Corvette.wav

Peak level 22.5 %
Extraction speed 1.4 X
Track quality 99.5 %
Test CRC 734B5EF3
Copy CRC 734B5EF3
Accurately ripped (confidence 12) [1889B246] (AR v2)
Copy OK

Track 16

Filename I:\EAC\Sasha - Scene Delete (2016) [FLAC]\16 - Shelter.wav

Peak level 94.3 %
Extraction speed 5.8 X
Track quality 100.0 %
Test CRC 5D85AAC0
Copy CRC 5D85AAC0
Accurately ripped (confidence 12) [17085719] (AR v2)
Copy OK

Track 17

Filename I:\EAC\Sasha - Scene Delete (2016) [FLAC]\17 - Untitled 3.wav

Peak level 61.9 %
Extraction speed 4.3 X
Track quality 100.0 %
Test CRC 8A21FA89
Copy CRC 8A21FA89
Accurately ripped (confidence 12) [102F1E2C] (AR v2)
Copy OK

Track 18

Filename I:\EAC\Sasha - Scene Delete (2016) [FLAC]\18 - Abacus.wav

Peak level 94.3 %
Extraction speed 5.2 X
Track quality 100.0 %
Test CRC 8CC7A056
Copy CRC 8CC7A056
Accurately ripped (confidence 12) [6D9CE1BC] (AR v2)
Copy OK

Track 19

Filename I:\EAC\Sasha - Scene Delete (2016) [FLAC]\19 - Rooms.wav

Peak level 94.3 %
Extraction speed 6.3 X
Track quality 100.0 %
Test CRC E3B04C56
Copy CRC E3B04C56
Accurately ripped (confidence 12) [4ACE0C98] (AR v2)
Copy OK

Track 20

Filename I:\EAC\Sasha - Scene Delete (2016) [FLAC]\20 - Broadcast.wav

Peak level 46.1 %
Extraction speed 4.2 X
Track quality 100.0 %
Test CRC 21315884
Copy CRC 21315884
Accurately ripped (confidence 12) [81E58EDB] (AR v2)
Copy OK

Track 21

Filename I:\EAC\Sasha - Scene Delete (2016) [FLAC]\21 - Vapour Trails.wav

Peak level 84.5 %
Extraction speed 6.0 X
Track quality 100.0 %
Test CRC B0D8A4BF
Copy CRC B0D8A4BF
Accurately ripped (confidence 12) [8902D37E] (AR v2)
Copy OK


All tracks accurately ripped

No errors occurred

End of status report

–– CUETools DB Plugin V2.1.4

[CTDB TOCID: bx9orQw2tjAYRgEW896QFI3V5OQ-] found
Submit result: bx9orQw2tjAYRgEW896QFI3V5OQ- has been confirmed
Track | CTDB Status
1 | (40/41) Accurately ripped
2 | (41/41) Accurately ripped
3 | (40/41) Accurately ripped
4 | (41/41) Accurately ripped
5 | (40/41) Accurately ripped
6 | (40/41) Accurately ripped
7 | (40/41) Accurately ripped
8 | (40/41) Accurately ripped
9 | (41/41) Accurately ripped
10 | (41/41) Accurately ripped
11 | (41/41) Accurately ripped
12 | (40/41) Accurately ripped
13 | (40/41) Accurately ripped
14 | (40/41) Accurately ripped
15 | (41/41) Accurately ripped
16 | (41/41) Accurately ripped
17 | (41/41) Accurately ripped
18 | (41/41) Accurately ripped
19 | (40/41) Accurately ripped
20 | (41/41) Accurately ripped
21 | (41/41) Accurately ripped


==== Log checksum 21722349640F4A208D7AEE45317C842B471CDE42A5D3250BD1577C689452503D ====

[CUETools log; Date: 08.11.2020 4:03:05; Version: 2.1.4]
[CTDB TOCID: bx9orQw2tjAYRgEW896QFI3V5OQ-] found.
Track | CTDB Status
1 | (97/98) Accurately ripped
2 | (98/98) Accurately ripped
3 | (97/98) Accurately ripped
4 | (98/98) Accurately ripped
5 | (97/98) Accurately ripped
6 | (97/98) Accurately ripped
7 | (97/98) Accurately ripped
8 | (97/98) Accurately ripped
9 | (98/98) Accurately ripped
10 | (98/98) Accurately ripped
11 | (98/98) Accurately ripped
12 | (97/98) Accurately ripped
13 | (97/98) Accurately ripped
14 | (97/98) Accurately ripped
15 | (98/98) Accurately ripped
16 | (97/98) Accurately ripped
17 | (98/98) Accurately ripped
18 | (98/98) Accurately ripped
19 | (97/98) Accurately ripped
20 | (98/98) Accurately ripped
21 | (98/98) Accurately ripped
[AccurateRip ID: 003d6e2f-03a04229-28119415] found.
Track [ CRC | V2 ] Status
01 [bceb19ee|c1ac707f] (02+31/33) Accurately ripped
02 [a3d17e8e|6ebee609] (02+32/34) Accurately ripped
03 [67591df9|7a0b11ba] (02+32/34) Accurately ripped
04 [9661d8fb|ccf25e72] (02+32/34) Accurately ripped
05 [b2e8b85e|6c8ae7d2] (02+33/35) Accurately ripped
06 [f9de68d9|e0005c71] (02+32/34) Accurately ripped
07 [1933d248|4a047a85] (02+32/34) Accurately ripped
08 [c325a3cb|3b4cc6cf] (02+32/34) Accurately ripped
09 [ba7c30fa|92956286] (02+32/34) Accurately ripped
10 [d1fd59eb|2a0bee06] (02+32/34) Accurately ripped
11 [257eb79b|f02a102a] (02+32/34) Accurately ripped
12 [4bd2f57e|2475ed6c] (02+33/35) Accurately ripped
13 [3eaf621e|2a790fbe] (02+33/35) Accurately ripped
14 [3fb7fb47|6ed7c9cb] (02+32/34) Accurately ripped
15 [e9fdd4fc|1889b246] (02+32/34) Accurately ripped
16 [8ebb08b1|17085719] (02+33/35) Accurately ripped
17 [286f8a87|102f1e2c] (02+32/34) Accurately ripped
18 [a77daf7b|6d9ce1bc] (02+32/34) Accurately ripped
19 [bd04c1b8|4ace0c98] (02+33/35) Accurately ripped
20 [296a85af|81e58edb] (02+32/34) Accurately ripped
21 [ab095501|8902d37e] (02+33/35) Accurately ripped

Track Peak [ CRC32 ] [W/O NULL] [ LOG ]
– 94,8 [9E47E002] [087CEA34]
01 83,3 [7220BCB3] [2DF44763] CRC32
02 94,3 [CD77DF32] [6E059514] CRC32
03 94,3 [328F7AE8] [5F141EDB] CRC32
04 94,3 [04660FFA] [02785B82] CRC32
05 94,3 [81920E8B] [B28CFAF6] CRC32
06 94,3 [2237E0F2] [AAAC5E85] CRC32
07 94,3 [80FA35B3] [ED70DDFF] CRC32
08 94,3 [BE8A2678] [3E820379] CRC32
09 94,3 [D24FE41D] [0783CF63] CRC32
10 94,3 [DCFB20A2] [A5878927] CRC32
11 94,8 [9A0C0258] [A4535154] CRC32
12 94,3 [9AF4B8EC] [641431A5] CRC32
13 94,3 [CB9B08B1] [1E4A7875] CRC32
14 94,4 [FEB57EB0] [7EFCE148] CRC32
15 22,5 [734B5EF3] [01479483] CRC32
16 94,3 [5D85AAC0] [27E35DBA] CRC32
17 61,9 [8A21FA89] [CC0260B8] CRC32
18 94,3 [8CC7A056] [0BF1A84A] CRC32
19 94,3 [E3B04C56] [641A3E0F] CRC32
20 46,1 [21315884] [687A6BD8] CRC32
21 84,5 [B0D8A4BF] [FE8E43B2] CRC32

Thanks to the original releaser