Subcategories

Scoolptures - Please Drive-by Carefully (2013) 2CDs

Posted By: Designol
Scoolptures - Please Drive-by Carefully (2013) 2CDs

Scoolptures - Please Drive-by Carefully (2013) 2CDs
EAC | FLAC | Tracks (Cue&Log) ~ 446 Mb | Mp3 (CBR320) ~ 241 Mb
Label: Leo | # CD LR 671/2 | Time: 01:35:00 | Scans included
Free Jazz, Electronic, Contemporary Jazz, Experimental

In this double CD, the third for Leo Records, the original process of instant composing conceived by Scoolptures is powered by graphic scores obtained from the works of the street artist Banksy. His intimate and sharp stencils, motions of a suffering humanity, are transformed into the sound matrices of these 24 compositions. Nicola Negrini (doublebass, ubass, metallophone and live electronics), Achille Succi (alto sax, bass clarinet and shakuhachi), Philippe "Pipon" Garcia (drums, prepared guitar and live electronics) and Antonio Della Marina (sinewaves and live electronics) mold the sound into a pulsating, urban, tense or ecstatic conglomerate, densely fluid and dynamic, which are a sound equivalent of Banksy's stencils.

One of the most innovative new sounds in Europe comes from the Italian electronic jazz band "Scoolptures", whose "Materiale Umano" offered a great listening experience and their sophomore "White Sickness" ranked second in our 2011 Happy New Ears Award.

Now the quartet is back with a double CD, which according to the label "molds the sound into a pulsating, urban, tense or ecstatic conglomerate, densely fluid and dynamic, a sound equivalent of Banksy"

The band are Nicola Negrini on doublebass, ubass, metallophone and live electronics, Achille Succi on alto sax, bass clarinet and shakuhachi, Philippe "Pipon" Garcia on drums, prepared guitar and live electronics, and Antonio Della Marina on sinewaves and live electronics.

They combine the beauty of acoustic sounds, the warm bass, the shimmering vibrations of the bass clarinet, the natural lightness of the shakuhachi with the sparse and ominous darkness of the electronics. A great combination of the frailty of human emotions and the menace of urban life, by itself not a new concept, but the way this quartet makes it work is by a subtle minimalism, in which all unnecessary elements are omitted, deleted, erased, and what remains are sparse threads of sounds with sudden outbursts or beautiful phrases or interesting sonic changes.

The interesting thing about the band's musical approach is that it remains relatively accessible, possibly because of the inherent lyricism of Succi's soloing. Like Banksy, what you hear is vaguely familiar and recognisable, but the context in which it appears, the contrast of the sonic backdrops force you to listen differently, resulting in nice suprises and musical enjoyment. At moments I wished they had pushed things even a little bit further into even more unconventional zones, yet the end result is highly recommendable.

Review by Stef, FreeJazzBlog.org

Performers:
Nicola Negrini (double bass, ubass, metallophone, live electronics)
Achille Succi (alto sax, bass clarinet, shakuhachi)
Philippe Pipon Garcia (drums, prepared guitar, live electronics)
Antonio Della Marina (sine waves, live electronics)

Tracklist:

CD1:

01. Some Times I Fell So Sick at the State of the World (08:40)
02. I Can't Even Finish (03:54)
03. Sorry! (03:54)
04. The Lifestyle You Ordered (03:51)
05. What Are You (09:24)
06. My Second Apple Pie (02:23)
07. Laugh Now (02:33)
08. Is Currently Out of Stock (02:10)
09. Looking at? (03:16)
10. But One Day (06:17)
11. We'll Be in Charge (04:45)

CD2:

01. There's Nothing (03:09)
02. More Dangerous (03:39)
03. Than Someone (03:33)
04. Who Wants (03:57)
05. To Make the World (02:56)
06. In the Future Everyone (03:01)
07. Will Be Anonymous (03:33)
08. A Lot of People Never Use Their Initiative (04:10)
09. I Need Someone to Protect Me from All (03:45)
10. For 15 Minutes (02:25)
11. Because No-One Told Them To (02:50)
12. The Measures They Take In Order to Protect Me (03:03)
13. A Better Place (03:41)


Exact Audio Copy V1.0 beta 3 from 29. August 2011

EAC extraction logfile from 9. September 2013, 21:40

Scoolptures / Please Drive-By Carefully (Disc 1)

Used drive : TSSTcorpCD/DVDW SH-S182M Adapter: 2 ID: 0

Read mode : Secure
Utilize accurate stream : Yes
Defeat audio cache : Yes
Make use of C2 pointers : No

Read offset correction : 6
Overread into Lead-In and Lead-Out : No
Fill up missing offset samples with silence : Yes
Delete leading and trailing silent blocks : No
Null samples used in CRC calculations : Yes
Used interface : Installed external ASPI interface
Gap handling : Appended to previous track

Used output format : User Defined Encoder
Selected bitrate : 1024 kBit/s
Quality : High
Add ID3 tag : No
Command line compressor : C:\Program Files\eac-1.0beta3\FLAC\FLAC.EXE
Additional command line options : -8 -V -T "ARTIST=%artist%" -T "TITLE=%title%" -T "ALBUM=%albumtitle%" -T "DATE=%year%" -T "TRACKNUMBER=%tracknr%" -T "GENRE=%genre%" -T "PERFORMER=%albuminterpret%" -T "COMPOSER=%composer%" %haslyrics%–tag-from-file=LYRICS="%lyricsfile%"%haslyrics% -T "ALBUMARTIST=%albumartist%" -T "ALBUM ARTIST=%albumartist%" -T "DISCNUMBER=%cdnumber%" -T "TOTALDISCS=%totalcds%" -T "TOTALTRACKS=%numtracks%" -T "COMMENT=ivo" %source% -o %dest%


TOC of the extracted CD

Track | Start | Length | Start sector | End sector
––––––––––––––––––––––––––––-
1 | 0:00.00 | 8:40.09 | 0 | 39008
2 | 8:40.09 | 3:54.71 | 39009 | 56629
3 | 12:35.05 | 3:54.08 | 56630 | 74187
4 | 16:29.13 | 3:51.07 | 74188 | 91519
5 | 20:20.20 | 9:24.11 | 91520 | 133830
6 | 29:44.31 | 2:23.45 | 133831 | 144600
7 | 32:08.01 | 2:33.34 | 144601 | 156109
8 | 34:41.35 | 2:10.48 | 156110 | 165907
9 | 36:52.08 | 3:16.41 | 165908 | 180648
10 | 40:08.49 | 6:17.32 | 180649 | 208955
11 | 46:26.06 | 4:45.40 | 208956 | 230370


Track 1

Filename E:\igor\eac\01 - Some Times I Fell So Sick at the State of the World.wav

Pre-gap length 0:00:02.00

Peak level 98.6 %
Extraction speed 5.2 X
Track quality 100.0 %
Test CRC 6E11CEF6
Copy CRC 6E11CEF6
Track not present in AccurateRip database
Copy OK

Track 2

Filename E:\igor\eac\02 - I Can't Even Finish.wav

Pre-gap length 0:00:03.00

Peak level 77.2 %
Extraction speed 5.4 X
Track quality 100.0 %
Test CRC 28A3ECB0
Copy CRC 28A3ECB0
Track not present in AccurateRip database
Copy OK

Track 3

Filename E:\igor\eac\03 - Sorry!.wav

Pre-gap length 0:00:02.00

Peak level 98.3 %
Extraction speed 5.8 X
Track quality 100.0 %
Test CRC 132954F8
Copy CRC 132954F8
Track not present in AccurateRip database
Copy OK

Track 4

Filename E:\igor\eac\04 - The Lifestyle You Ordered.wav

Peak level 98.3 %
Extraction speed 5.4 X
Track quality 99.9 %
Test CRC DF45EAE2
Copy CRC DF45EAE2
Track not present in AccurateRip database
Copy OK

Track 5

Filename E:\igor\eac\05 - What Are You.wav

Pre-gap length 0:00:04.00

Peak level 98.3 %
Extraction speed 7.3 X
Track quality 100.0 %
Test CRC EAD8CF7A
Copy CRC EAD8CF7A
Track not present in AccurateRip database
Copy OK

Track 6

Filename E:\igor\eac\06 - My Second Apple Pie.wav

Pre-gap length 0:00:05.00

Peak level 88.4 %
Extraction speed 6.5 X
Track quality 100.0 %
Test CRC 6D0E1198
Copy CRC 6D0E1198
Track not present in AccurateRip database
Copy OK

Track 7

Filename E:\igor\eac\07 - Laugh Now.wav

Pre-gap length 0:00:01.00

Peak level 98.3 %
Extraction speed 6.7 X
Track quality 100.0 %
Test CRC 0F93C836
Copy CRC 0F93C836
Track not present in AccurateRip database
Copy OK

Track 8

Filename E:\igor\eac\08 - Is Currently Out of Stock.wav

Pre-gap length 0:00:03.00

Peak level 98.1 %
Extraction speed 6.7 X
Track quality 100.0 %
Test CRC 40132EA5
Copy CRC 40132EA5
Track not present in AccurateRip database
Copy OK

Track 9

Filename E:\igor\eac\09 - Looking at.wav

Pre-gap length 0:00:04.00

Peak level 96.2 %
Extraction speed 6.3 X
Track quality 99.9 %
Test CRC 1D0D8EA3
Copy CRC 1D0D8EA3
Track not present in AccurateRip database
Copy OK

Track 10

Filename E:\igor\eac\10 - But One Day.wav

Pre-gap length 0:00:03.00

Peak level 99.3 %
Extraction speed 8.3 X
Track quality 100.0 %
Test CRC 5DBC384C
Copy CRC 5DBC384C
Track not present in AccurateRip database
Copy OK

Track 11

Filename E:\igor\eac\11 - We'll Be in Charge.wav

Pre-gap length 0:00:04.00

Peak level 94.6 %
Extraction speed 7.5 X
Track quality 99.9 %
Test CRC B65CCAF8
Copy CRC B65CCAF8
Track not present in AccurateRip database
Copy OK


None of the tracks are present in the AccurateRip database

No errors occurred

End of status report

–– CUETools DB Plugin V2.1.3

[CTDB TOCID: QkY.sdpNkqKfzLWzPwNMGAX2hig-] found, Submit result: QkY.sdpNkqKfzLWzPwNMGAX2hig- has been confirmed
[da6ff382] (1/1) Accurately ripped


==== Log checksum DA81B1AA9DF8C2A488740B38711CBFC84DFDA0B2B9958FC322FC4C47F2E523FC ====

foobar2000 1.2 / Dynamic Range Meter 1.1.1
log date: 2016-09-04 15:00:23

––––––––––––––––––––––––––––––––––––––––
Analyzed: Scoolptures / Please Drive-By Carefully (Disc 1)
––––––––––––––––––––––––––––––––––––––––

DR Peak RMS Duration Track
––––––––––––––––––––––––––––––––––––––––
DR10 -0.11 dB -15.26 dB 8:40 01-Some Times I Fell So Sick at the State of the World
DR15 -2.24 dB -21.79 dB 3:55 02-I Can't Even Finish
DR16 -0.14 dB -20.74 dB 3:54 03-Sorry!
DR11 -0.15 dB -14.29 dB 3:51 04-The Lifestyle You Ordered
DR16 -0.15 dB -20.26 dB 9:24 05-What Are You
DR14 -1.07 dB -20.27 dB 2:24 06-My Second Apple Pie
DR14 -0.15 dB -16.73 dB 2:33 07-Laugh Now
DR13 -0.16 dB -16.59 dB 2:11 08-Is Currently Out of Stock
DR14 -0.33 dB -19.03 dB 3:17 09-Looking at?
DR11 -0.06 dB -16.29 dB 6:17 10-But One Day
DR15 -0.47 dB -20.83 dB 4:46 11-We'll Be in Charge
––––––––––––––––––––––––––––––––––––––––

Number of tracks: 11
Official DR value: DR14

Samplerate: 44100 Hz
Channels: 2
Bits per sample: 16
Bitrate: 529 kbps
Codec: FLAC
================================================================================


Exact Audio Copy V1.0 beta 3 from 29. August 2011

EAC extraction logfile from 9. September 2013, 22:21

Scoolptures / Please Drive-By Carefully (Disc 2)

Used drive : TSSTcorpCD/DVDW SH-S182M Adapter: 2 ID: 0

Read mode : Secure
Utilize accurate stream : Yes
Defeat audio cache : Yes
Make use of C2 pointers : No

Read offset correction : 6
Overread into Lead-In and Lead-Out : No
Fill up missing offset samples with silence : Yes
Delete leading and trailing silent blocks : No
Null samples used in CRC calculations : Yes
Used interface : Installed external ASPI interface
Gap handling : Appended to previous track

Used output format : User Defined Encoder
Selected bitrate : 1024 kBit/s
Quality : High
Add ID3 tag : No
Command line compressor : C:\Program Files\eac-1.0beta3\FLAC\FLAC.EXE
Additional command line options : -8 -V -T "ARTIST=%artist%" -T "TITLE=%title%" -T "ALBUM=%albumtitle%" -T "DATE=%year%" -T "TRACKNUMBER=%tracknr%" -T "GENRE=%genre%" -T "PERFORMER=%albuminterpret%" -T "COMPOSER=%composer%" %haslyrics%–tag-from-file=LYRICS="%lyricsfile%"%haslyrics% -T "ALBUMARTIST=%albumartist%" -T "ALBUM ARTIST=%albumartist%" -T "DISCNUMBER=%cdnumber%" -T "TOTALDISCS=%totalcds%" -T "TOTALTRACKS=%numtracks%" -T "COMMENT=ivo" %source% -o %dest%


TOC of the extracted CD

Track | Start | Length | Start sector | End sector
––––––––––––––––––––––––––––-
1 | 0:00.00 | 3:09.47 | 0 | 14221
2 | 3:09.47 | 3:39.52 | 14222 | 30698
3 | 6:49.24 | 3:33.62 | 30699 | 46735
4 | 10:23.11 | 3:57.66 | 46736 | 64576
5 | 14:21.02 | 2:56.16 | 64577 | 77792
6 | 17:17.18 | 3:01.29 | 77793 | 91396
7 | 20:18.47 | 3:33.13 | 91397 | 107384
8 | 23:51.60 | 4:10.56 | 107385 | 126190
9 | 28:02.41 | 3:45.06 | 126191 | 143071
10 | 31:47.47 | 2:25.50 | 143072 | 153996
11 | 34:13.22 | 2:50.01 | 153997 | 166747
12 | 37:03.23 | 3:03.27 | 166748 | 180499
13 | 40:06.50 | 3:41.33 | 180500 | 197107


Track 1

Filename E:\igor\eac\01 - There's Nothing.wav

Pre-gap length 0:00:02.00

Peak level 98.2 %
Extraction speed 4.3 X
Track quality 100.0 %
Test CRC 44024A4C
Copy CRC 44024A4C
Track not present in AccurateRip database
Copy OK

Track 2

Filename E:\igor\eac\02 - More Dangerous.wav

Peak level 98.1 %
Extraction speed 4.8 X
Track quality 100.0 %
Test CRC 7B18316C
Copy CRC 7B18316C
Track not present in AccurateRip database
Copy OK

Track 3

Filename E:\igor\eac\03 - Than Someone.wav

Pre-gap length 0:00:03.00

Peak level 39.0 %
Extraction speed 5.1 X
Track quality 100.0 %
Test CRC B05DCB10
Copy CRC B05DCB10
Track not present in AccurateRip database
Copy OK

Track 4

Filename E:\igor\eac\04 - Who Wants.wav

Pre-gap length 0:00:03.00

Peak level 98.3 %
Extraction speed 5.6 X
Track quality 100.0 %
Test CRC 0836D3ED
Copy CRC 0836D3ED
Track not present in AccurateRip database
Copy OK

Track 5

Filename E:\igor\eac\05 - To Make the World.wav

Pre-gap length 0:00:01.00

Peak level 41.4 %
Extraction speed 5.6 X
Track quality 100.0 %
Test CRC 2AC5323C
Copy CRC 2AC5323C
Track not present in AccurateRip database
Copy OK

Track 6

Filename E:\igor\eac\06 - In the Future Everyone.wav

Pre-gap length 0:00:03.00

Peak level 98.3 %
Extraction speed 5.9 X
Track quality 100.0 %
Test CRC 8F037F19
Copy CRC 8F037F19
Track not present in AccurateRip database
Copy OK

Track 7

Filename E:\igor\eac\07 - Will Be Anonymous.wav

Pre-gap length 0:00:03.00

Peak level 98.3 %
Extraction speed 6.3 X
Track quality 100.0 %
Test CRC 6A06D072
Copy CRC 6A06D072
Track not present in AccurateRip database
Copy OK

Track 8

Filename E:\igor\eac\08 - A Lot of People Never Use Their Initiative.wav

Pre-gap length 0:00:01.00

Peak level 100.0 %
Extraction speed 6.8 X
Track quality 100.0 %
Test CRC 323E56FE
Copy CRC 323E56FE
Track not present in AccurateRip database
Copy OK

Track 9

Filename E:\igor\eac\09 - I Need Someone to Protect Me from All.wav

Pre-gap length 0:00:03.00

Peak level 66.6 %
Extraction speed 6.1 X
Track quality 99.9 %
Test CRC 6813D733
Copy CRC 6813D733
Track not present in AccurateRip database
Copy OK

Track 10

Filename E:\igor\eac\10 - For 15 Minutes.wav

Pre-gap length 0:00:03.00

Peak level 98.3 %
Extraction speed 6.6 X
Track quality 100.0 %
Test CRC 063BE1D7
Copy CRC 063BE1D7
Track not present in AccurateRip database
Copy OK

Track 11

Filename E:\igor\eac\11 - Because No-One Told Them To.wav

Pre-gap length 0:00:04.00

Peak level 98.2 %
Extraction speed 6.9 X
Track quality 100.0 %
Test CRC 64DE3E73
Copy CRC 64DE3E73
Track not present in AccurateRip database
Copy OK

Track 12

Filename E:\igor\eac\12 - The Measures They Take In Order to Protect Me.wav

Pre-gap length 0:00:04.00

Peak level 90.2 %
Extraction speed 7.3 X
Track quality 100.0 %
Test CRC 90C9DE2D
Copy CRC 90C9DE2D
Track not present in AccurateRip database
Copy OK

Track 13

Filename E:\igor\eac\13 - A Better Place.wav

Pre-gap length 0:00:03.00

Peak level 98.7 %
Extraction speed 6.7 X
Track quality 99.9 %
Test CRC 464A77D2
Copy CRC 464A77D2
Track not present in AccurateRip database
Copy OK


None of the tracks are present in the AccurateRip database

No errors occurred

End of status report

–– CUETools DB Plugin V2.1.3

[CTDB TOCID: OgUKmKes7f4vYG5jHvRShSLahAU-] found, Submit result: OgUKmKes7f4vYG5jHvRShSLahAU- has been confirmed
[bb66fe0b] (1/1) Accurately ripped


==== Log checksum E8316D8E8E6919F622DBFFC8A2AA70A9A80CBEEB93841C1850AD7BCFF2CECC7E ====

foobar2000 1.2 / Dynamic Range Meter 1.1.1
log date: 2016-09-04 15:00:39

––––––––––––––––––––––––––––––––––––––––
Analyzed: Scoolptures / Please Drive-By Carefully (Disc 2)
––––––––––––––––––––––––––––––––––––––––

DR Peak RMS Duration Track
––––––––––––––––––––––––––––––––––––––––
DR14 -0.15 dB -19.47 dB 3:10 01-There's Nothing
DR12 -0.16 dB -14.80 dB 3:40 02-More Dangerous
DR12 -8.16 dB -24.15 dB 3:34 03-Than Someone
DR12 -0.15 dB -15.99 dB 3:58 04-Who Wants
DR13 -7.64 dB -26.55 dB 2:56 05-To Make the World
DR10 -0.14 dB -14.06 dB 3:01 06-In the Future Everyone
DR16 -0.15 dB -20.80 dB 3:33 07-Will Be Anonymous
DR9 0.00 dB -11.42 dB 4:11 08-A Lot of People Never Use Their Initiative
DR11 -3.53 dB -21.51 dB 3:45 09-I Need Someone to Protect Me from All
DR10 -0.15 dB -14.16 dB 2:26 10-For 15 Minutes
DR13 -0.15 dB -17.44 dB 2:50 11-Because No-One Told Them To
DR14 -0.89 dB -18.03 dB 3:03 12-The Measures They Take In Order to Protect Me
DR11 -0.11 dB -14.72 dB 3:41 13-A Better Place
––––––––––––––––––––––––––––––––––––––––

Number of tracks: 13
Official DR value: DR12

Samplerate: 44100 Hz
Channels: 2
Bits per sample: 16
Bitrate: 751 kbps
Codec: FLAC
================================================================================

Scoolptures - Please Drive-by Carefully (2013) 2CDs

Scoolptures - Please Drive-by Carefully (2013) 2CDs

All thanks to original releaser - cifelius

More interesting music in My Blog